osu file format v14

[General]
AudioFilename: slotcore is dead.mp3
AudioLeadIn: 0
PreviewTime: 77653
Countdown: 0
SampleSet: Normal
StackLeniency: 0.3
Mode: 1
LetterboxInBreaks: 0
WidescreenStoryboard: 1

[Editor]
Bookmarks: 63430,77656,106097,120319,148764,154986,155875,162986
DistanceSpacing: 0.5
BeatDivisor: 2
GridSize: 32
TimelineZoom: 1.7

[Metadata]
Title:Slotcore is Dead
TitleUnicode:Slotcore is Dead
Artist:sHimaU
ArtistUnicode:sHimaU
Creator:Alumetorz
Version:Oni
Source:
Tags:
BeatmapID:360967
BeatmapSetID:119233

[Difficulty]
HPDrainRate:5
CircleSize:4
OverallDifficulty:5
ApproachRate:10
SliderMultiplier:1.2
SliderTickRate:1

[Events]
//Background and Video events
0,0,"bg.jpg",0,0
//Break Periods
2,52964,62980
//Storyboard Layer 0 (Background)
//Storyboard Layer 1 (Fail)
//Storyboard Layer 2 (Pass)
//Storyboard Layer 3 (Foreground)
//Storyboard Sound Samples

[TimingPoints]
6225,222.222222222222,4,1,0,70,1,0
34660,326.975476839237,4,1,0,70,1,0
34660,-66.6666666666667,4,1,0,70,0,0
38542,222.222222222222,4,1,0,70,1,0
38542,-100,4,1,0,70,0,0
63430,-100,4,1,0,70,0,1
76764,-100,4,1,0,70,0,0
106764,-133.333333333333,4,1,0,70,0,0
120319,-100,4,1,0,70,0,1
123319,-100,4,1,0,70,0,0
123875,-100,4,1,0,70,0,1
126875,-100,4,1,0,70,0,0
127430,-100,4,1,0,70,0,1
130430,-100,4,1,0,70,0,0
130986,-100,4,1,0,70,0,1
134097,-100,4,1,0,70,0,0
134541,-100,4,1,0,70,0,1
137541,-100,4,1,0,70,0,0
138097,-100,4,1,0,70,0,1
141097,-100,4,1,0,70,0,0
141653,-100,4,1,0,70,0,1
144653,-100,4,1,0,70,0,0
145208,-100,4,1,0,70,0,1
148208,-100,4,1,0,70,0,0

[Colours]
Combo1 : 0,0,255
Combo2 : 255,128,128

[HitObjects]
256,192,6225,5,4,0:0:0:0:
256,192,6447,1,8,0:0:0:0:
256,192,6558,1,8,0:0:0:0:
256,192,6669,1,0,0:0:0:0:
256,192,6780,1,0,0:0:0:0:
256,192,6891,1,8,0:0:0:0:
256,192,7002,1,0,0:0:0:0:
256,192,7225,1,0,0:0:0:0:
256,192,7336,1,8,0:0:0:0:
256,192,7447,1,8,0:0:0:0:
256,192,7558,1,0,0:0:0:0:
256,192,7669,1,8,0:0:0:0:
256,192,7780,1,0,0:0:0:0:
256,192,8002,1,0,0:0:0:0:
256,192,8225,1,8,0:0:0:0:
256,192,8336,1,8,0:0:0:0:
256,192,8447,1,0,0:0:0:0:
256,192,8558,1,0,0:0:0:0:
256,192,8669,1,8,0:0:0:0:
256,192,8891,1,0,0:0:0:0:
256,192,9002,1,8,0:0:0:0:
256,192,9113,1,0,0:0:0:0:
256,192,9224,1,0,0:0:0:0:
256,192,9336,1,0,0:0:0:0:
256,192,9447,1,8,0:0:0:0:
256,192,9558,1,0,0:0:0:0:
256,192,9669,1,8,0:0:0:0:
256,192,9780,1,8,0:0:0:0:
256,192,10002,1,0,0:0:0:0:
256,192,10113,1,8,0:0:0:0:
256,192,10224,1,0,0:0:0:0:
256,192,10336,1,0,0:0:0:0:
256,192,10447,1,8,0:0:0:0:
256,192,10558,1,8,0:0:0:0:
256,192,10780,1,8,0:0:0:0:
256,192,11002,1,8,0:0:0:0:
256,192,11224,1,8,0:0:0:0:
256,192,11336,1,8,0:0:0:0:
256,192,11447,1,0,0:0:0:0:
256,192,11558,1,0,0:0:0:0:
256,192,11669,1,8,0:0:0:0:
256,192,11891,1,8,0:0:0:0:
256,192,12002,1,8,0:0:0:0:
256,192,12113,1,0,0:0:0:0:
256,192,12224,1,8,0:0:0:0:
256,192,12336,1,8,0:0:0:0:
256,192,12447,1,0,0:0:0:0:
256,192,12558,1,0,0:0:0:0:
256,192,12669,1,0,0:0:0:0:
256,192,12780,1,0,0:0:0:0:
256,192,12891,1,8,0:0:0:0:
256,192,13002,1,0,0:0:0:0:
256,192,13113,1,8,0:0:0:0:
256,192,13224,1,8,0:0:0:0:
256,192,13336,1,8,0:0:0:0:
256,192,13447,1,0,0:0:0:0:
256,192,13558,1,8,0:0:0:0:
256,192,13780,1,12,0:0:0:0:
256,192,14113,1,8,0:0:0:0:
256,192,14224,1,0,0:0:0:0:
256,192,14336,1,8,0:0:0:0:
256,192,14447,1,8,0:0:0:0:
256,192,14669,1,0,0:0:0:0:
256,192,14780,1,0,0:0:0:0:
256,192,14891,1,8,0:0:0:0:
256,192,15002,1,8,0:0:0:0:
256,192,15113,1,0,0:0:0:0:
256,192,15224,1,8,0:0:0:0:
256,192,15447,1,8,0:0:0:0:
256,192,15558,1,0,0:0:0:0:
256,192,15669,1,8,0:0:0:0:
256,192,15780,1,0,0:0:0:0:
256,192,15891,1,0,0:0:0:0:
256,192,16002,1,8,0:0:0:0:
256,192,16113,1,0,0:0:0:0:
256,192,16224,1,8,0:0:0:0:
256,192,16336,1,0,0:0:0:0:
256,192,16558,1,0,0:0:0:0:
256,192,16669,1,0,0:0:0:0:
256,192,16780,1,0,0:0:0:0:
256,192,16891,1,8,0:0:0:0:
256,192,17113,1,0,0:0:0:0:
256,192,17224,1,8,0:0:0:0:
256,192,17447,1,0,0:0:0:0:
256,192,17558,1,8,0:0:0:0:
256,192,17669,1,8,0:0:0:0:
256,192,17780,1,0,0:0:0:0:
256,192,18002,1,8,0:0:0:0:
256,192,18113,1,0,0:0:0:0:
256,192,18224,1,8,0:0:0:0:
256,192,18336,1,8,0:0:0:0:
256,192,18447,1,8,0:0:0:0:
256,192,18558,1,8,0:0:0:0:
256,192,18669,1,0,0:0:0:0:
256,192,18891,1,8,0:0:0:0:
256,192,19002,1,8,0:0:0:0:
256,192,19113,1,8,0:0:0:0:
256,192,19224,1,0,0:0:0:0:
256,192,19336,1,0,0:0:0:0:
256,192,19447,1,0,0:0:0:0:
256,192,19558,1,0,0:0:0:0:
256,192,19780,1,8,0:0:0:0:
256,192,19891,1,8,0:0:0:0:
256,192,20002,1,8,0:0:0:0:
256,192,20113,1,0,0:0:0:0:
256,192,20447,1,0,0:0:0:0:
256,192,20558,1,0,0:0:0:0:
256,192,20669,1,8,0:0:0:0:
256,192,20780,1,0,0:0:0:0:
256,192,21002,1,8,0:0:0:0:
256,192,21113,1,0,0:0:0:0:
256,192,21224,1,8,0:0:0:0:
256,192,21336,1,0,0:0:0:0:
256,192,21447,1,0,0:0:0:0:
256,192,21558,1,8,0:0:0:0:
256,192,21669,1,8,0:0:0:0:
256,192,21780,1,8,0:0:0:0:
256,192,21891,1,8,0:0:0:0:
256,192,22002,1,0,0:0:0:0:
256,192,22224,1,4,0:0:0:0:
256,192,22447,1,0,0:0:0:0:
256,192,22558,1,8,0:0:0:0:
256,192,22780,1,0,0:0:0:0:
256,192,22891,1,0,0:0:0:0:
256,192,23113,1,0,0:0:0:0:
256,192,23224,1,8,0:0:0:0:
256,192,23336,1,0,0:0:0:0:
256,192,23558,1,4,0:0:0:0:
256,192,23780,1,4,0:0:0:0:
256,192,24002,1,0,0:0:0:0:
256,192,24113,1,0,0:0:0:0:
256,192,24224,1,8,0:0:0:0:
256,192,24336,1,8,0:0:0:0:
256,192,24447,1,0,0:0:0:0:
256,192,24558,1,8,0:0:0:0:
256,192,24669,1,8,0:0:0:0:
256,192,24891,1,12,0:0:0:0:
256,192,25224,1,12,0:0:0:0:
256,192,25558,1,12,0:0:0:0:
256,192,25780,1,0,0:0:0:0:
256,192,25891,1,0,0:0:0:0:
256,192,26113,1,0,0:0:0:0:
256,192,26336,1,8,0:0:0:0:
256,192,26447,1,8,0:0:0:0:
256,192,26669,1,0,0:0:0:0:
256,192,26891,1,8,0:0:0:0:
256,192,27002,1,8,0:0:0:0:
256,192,27113,1,0,0:0:0:0:
256,192,27224,1,0,0:0:0:0:
256,192,27336,1,8,0:0:0:0:
256,192,27558,1,0,0:0:0:0:
256,192,27669,1,8,0:0:0:0:
256,192,27780,1,8,0:0:0:0:
256,192,27891,1,0,0:0:0:0:
256,192,28002,1,0,0:0:0:0:
256,192,28113,1,0,0:0:0:0:
256,192,28224,1,0,0:0:0:0:
256,192,28447,1,8,0:0:0:0:
256,192,28669,1,8,0:0:0:0:
256,192,28780,1,8,0:0:0:0:
256,192,28891,1,0,0:0:0:0:
256,192,29002,1,0,0:0:0:0:
256,192,29113,1,8,0:0:0:0:
256,192,29336,1,8,0:0:0:0:
256,192,29447,1,8,0:0:0:0:
256,192,29558,1,8,0:0:0:0:
256,192,29669,1,0,0:0:0:0:
256,192,30002,1,8,0:0:0:0:
256,192,30113,1,8,0:0:0:0:
256,192,30224,1,0,0:0:0:0:
256,192,30336,1,0,0:0:0:0:
256,192,30447,1,8,0:0:0:0:
256,192,30558,1,0,0:0:0:0:
256,192,30780,1,8,0:0:0:0:
256,192,30891,1,8,0:0:0:0:
256,192,31002,1,8,0:0:0:0:
256,192,31113,1,0,0:0:0:0:
256,192,31336,1,8,0:0:0:0:
256,192,31447,1,0,0:0:0:0:
256,192,31558,1,0,0:0:0:0:
256,192,31669,1,8,0:0:0:0:
256,192,31780,1,0,0:0:0:0:
256,192,31891,1,0,0:0:0:0:
256,192,32113,1,8,0:0:0:0:
256,192,32224,1,0,0:0:0:0:
256,192,32336,1,0,0:0:0:0:
256,192,32447,1,0,0:0:0:0:
256,192,32558,1,8,0:0:0:0:
256,192,32780,1,0,0:0:0:0:
256,192,32891,1,8,0:0:0:0:
256,192,33113,1,8,0:0:0:0:
256,192,33224,1,8,0:0:0:0:
256,192,33447,1,8,0:0:0:0:
256,192,33558,1,0,0:0:0:0:
256,192,33891,1,12,0:0:0:0:
256,192,34113,1,0,0:0:0:0:
256,192,34224,1,8,0:0:0:0:
256,192,34336,1,8,0:0:0:0:
256,192,34447,1,0,0:0:0:0:
256,192,34660,1,0,0:0:0:0:
256,192,34823,1,0,0:0:0:0:
256,192,34986,1,8,0:0:0:0:
256,192,35150,1,0,0:0:0:0:
256,192,35313,1,8,0:0:0:0:
256,192,35477,1,8,0:0:0:0:
256,192,35640,1,0,0:0:0:0:
256,192,35804,1,8,0:0:0:0:
256,192,35967,1,0,0:0:0:0:
256,192,36131,1,8,0:0:0:0:
256,192,36294,1,0,0:0:0:0:
256,192,36458,1,0,0:0:0:0:
256,192,36621,1,8,0:0:0:0:
256,192,36785,1,8,0:0:0:0:
256,192,36948,1,0,0:0:0:0:
256,192,37112,1,0,0:0:0:0:
256,192,37275,1,12,0:0:0:0:
256,192,37602,1,0,0:0:0:0:
256,192,37929,1,12,0:0:0:0:
256,192,38256,1,0,0:0:0:0:
256,192,38542,1,12,0:0:0:0:
256,192,38764,1,8,0:0:0:0:
256,192,38986,1,8,0:0:0:0:
256,192,39097,1,8,0:0:0:0:
256,192,39208,1,0,0:0:0:0:
256,192,39430,1,0,0:0:0:0:
256,192,39542,1,8,0:0:0:0:
256,192,39653,1,8,0:0:0:0:
256,192,39764,1,0,0:0:0:0:
256,192,39986,1,8,0:0:0:0:
256,192,40097,1,0,0:0:0:0:
256,192,40319,1,4,0:0:0:0:
256,192,40542,1,12,0:0:0:0:
256,192,40764,1,4,0:0:0:0:
256,192,40986,1,12,0:0:0:0:
256,192,41208,1,0,0:0:0:0:
256,192,41319,1,0,0:0:0:0:
256,192,41430,1,8,0:0:0:0:
256,192,41542,1,8,0:0:0:0:
256,192,41653,1,0,0:0:0:0:
256,192,41764,1,0,0:0:0:0:
256,192,41875,1,8,0:0:0:0:
256,192,42097,1,8,0:0:0:0:
256,192,42208,1,8,0:0:0:0:
256,192,42319,1,8,0:0:0:0:
256,192,42430,1,0,0:0:0:0:
256,192,42653,1,8,0:0:0:0:
256,192,42764,1,0,0:0:0:0:
256,192,42986,1,12,0:0:0:0:
256,192,43208,1,0,0:0:0:0:
256,192,43319,1,8,0:0:0:0:
256,192,43430,1,0,0:0:0:0:
256,192,43653,1,12,0:0:0:0:
256,192,43875,1,0,0:0:0:0:
256,192,43986,1,0,0:0:0:0:
256,192,44097,1,8,0:0:0:0:
256,192,44208,1,0,0:0:0:0:
256,192,44430,1,0,0:0:0:0:
256,192,44541,1,8,0:0:0:0:
256,192,44653,1,8,0:0:0:0:
256,192,44764,1,0,0:0:0:0:
256,192,44986,1,8,0:0:0:0:
256,192,45097,1,0,0:0:0:0:
256,192,45208,1,8,0:0:0:0:
256,192,45430,1,0,0:0:0:0:
256,192,45653,1,12,0:0:0:0:
256,192,45986,1,4,0:0:0:0:
256,192,46319,1,12,0:0:0:0:
256,192,46541,1,8,0:0:0:0:
256,192,46653,1,8,0:0:0:0:
256,192,46764,1,8,0:0:0:0:
256,192,46875,1,0,0:0:0:0:
256,192,46986,1,8,0:0:0:0:
256,192,47097,1,0,0:0:0:0:
256,192,47430,1,12,0:0:0:0:
256,192,47653,1,0,0:0:0:0:
256,192,47764,1,0,0:0:0:0:
256,192,47875,1,8,0:0:0:0:
256,192,47986,1,8,0:0:0:0:
256,192,48097,1,0,0:0:0:0:
256,192,48208,1,8,0:0:0:0:
256,192,48319,1,0,0:0:0:0:
256,192,48541,1,0,0:0:0:0:
256,192,48764,1,8,0:0:0:0:
256,192,48875,1,0,0:0:0:0:
256,192,48986,1,8,0:0:0:0:
256,192,49097,1,0,0:0:0:0:
256,192,49208,1,0,0:0:0:0:
256,192,49430,1,0,0:0:0:0:
256,192,49541,1,8,0:0:0:0:
256,192,49653,1,0,0:0:0:0:
256,192,49764,1,8,0:0:0:0:
256,192,49875,1,0,0:0:0:0:
256,192,49986,1,8,0:0:0:0:
256,192,50097,1,8,0:0:0:0:
256,192,50319,1,8,0:0:0:0:
256,192,50541,1,0,0:0:0:0:
256,192,50653,1,0,0:0:0:0:
256,192,50764,1,8,0:0:0:0:
256,192,50986,1,4,0:0:0:0:
256,192,51208,1,0,0:0:0:0:
256,192,51319,1,0,0:0:0:0:
256,192,51430,1,8,0:0:0:0:
256,192,51541,1,8,0:0:0:0:
256,192,51653,1,0,0:0:0:0:
256,192,51764,1,0,0:0:0:0:
256,192,51875,2,0,L|512:192,1,240
256,192,52764,1,12,0:0:0:0:
256,192,63430,5,12,0:0:0:0:
256,192,64097,1,0,0:0:0:0:
256,192,64208,1,0,0:0:0:0:
256,192,64319,1,12,0:0:0:0:
256,192,64764,1,0,0:0:0:0:
256,192,64875,1,0,0:0:0:0:
256,192,64986,1,0,0:0:0:0:
256,192,65097,1,0,0:0:0:0:
256,192,65208,1,12,0:0:0:0:
256,192,65430,1,0,0:0:0:0:
256,192,65541,1,0,0:0:0:0:
256,192,65653,1,0,0:0:0:0:
256,192,65764,1,0,0:0:0:0:
256,192,65875,1,0,0:0:0:0:
256,192,66097,1,12,0:0:0:0:
256,192,66653,1,0,0:0:0:0:
256,192,66764,1,0,0:0:0:0:
256,192,66875,1,0,0:0:0:0:
256,192,66986,1,12,0:0:0:0:
256,192,67653,1,0,0:0:0:0:
256,192,67764,1,0,0:0:0:0:
256,192,67875,1,12,0:0:0:0:
256,192,68319,1,0,0:0:0:0:
256,192,68430,1,0,0:0:0:0:
256,192,68541,1,0,0:0:0:0:
256,192,68653,1,0,0:0:0:0:
256,192,68764,1,12,0:0:0:0:
256,192,68986,1,0,0:0:0:0:
256,192,69097,1,0,0:0:0:0:
256,192,69208,1,0,0:0:0:0:
256,192,69319,1,0,0:0:0:0:
256,192,69430,1,0,0:0:0:0:
256,192,69653,1,12,0:0:0:0:
256,192,70208,1,0,0:0:0:0:
256,192,70319,1,0,0:0:0:0:
256,192,70430,1,0,0:0:0:0:
256,192,70541,1,12,0:0:0:0:
256,192,71208,1,0,0:0:0:0:
256,192,71319,1,0,0:0:0:0:
256,192,71430,1,12,0:0:0:0:
256,192,71875,1,0,0:0:0:0:
256,192,71986,1,0,0:0:0:0:
256,192,72097,1,0,0:0:0:0:
256,192,72208,1,0,0:0:0:0:
256,192,72319,1,12,0:0:0:0:
256,192,72541,1,0,0:0:0:0:
256,192,72653,1,0,0:0:0:0:
256,192,72764,1,12,0:0:0:0:
256,192,73208,1,12,0:0:0:0:
256,192,73764,1,0,0:0:0:0:
256,192,73875,1,0,0:0:0:0:
256,192,73986,1,0,0:0:0:0:
256,192,74097,1,12,0:0:0:0:
256,192,74764,1,0,0:0:0:0:
256,192,74875,1,0,0:0:0:0:
256,192,74986,1,12,0:0:0:0:
256,192,75430,1,0,0:0:0:0:
256,192,75541,1,0,0:0:0:0:
256,192,75653,1,0,0:0:0:0:
256,192,75764,1,0,0:0:0:0:
256,192,75875,1,12,0:0:0:0:
256,192,76097,1,0,0:0:0:0:
256,192,76208,1,0,0:0:0:0:
256,192,76319,1,0,0:0:0:0:
256,192,76430,1,0,0:0:0:0:
256,192,76541,1,0,0:0:0:0:
256,192,76764,1,8,0:0:0:0:
256,192,77653,1,4,0:0:0:0:
256,192,77875,1,8,0:0:0:0:
256,192,77986,1,0,0:0:0:0:
256,192,78097,1,0,0:0:0:0:
256,192,78208,1,8,0:0:0:0:
256,192,78319,1,8,0:0:0:0:
256,192,78430,1,8,0:0:0:0:
256,192,78541,1,0,0:0:0:0:
256,192,78764,1,8,0:0:0:0:
256,192,78875,1,0,0:0:0:0:
256,192,78986,1,8,0:0:0:0:
256,192,79097,1,8,0:0:0:0:
256,192,79208,1,0,0:0:0:0:
256,192,79319,1,0,0:0:0:0:
256,192,79430,1,8,0:0:0:0:
256,192,79653,1,0,0:0:0:0:
256,192,79764,1,0,0:0:0:0:
256,192,79875,1,0,0:0:0:0:
256,192,79986,1,0,0:0:0:0:
256,192,80097,1,8,0:0:0:0:
256,192,80319,1,4,0:0:0:0:
256,192,80541,1,8,0:0:0:0:
256,192,80653,1,0,0:0:0:0:
256,192,80764,1,8,0:0:0:0:
256,192,80930,1,8,0:0:0:0:
256,192,81097,1,8,0:0:0:0:
256,192,81208,1,0,0:0:0:0:
256,192,81430,1,0,0:0:0:0:
256,192,81541,1,8,0:0:0:0:
256,192,81875,1,0,0:0:0:0:
256,192,81986,1,0,0:0:0:0:
256,192,82097,1,0,0:0:0:0:
256,192,82319,1,8,0:0:0:0:
256,192,82430,1,0,0:0:0:0:
256,192,82541,1,0,0:0:0:0:
256,192,82653,1,0,0:0:0:0:
256,192,82764,1,0,0:0:0:0:
256,192,82875,1,0,0:0:0:0:
256,192,82986,1,8,0:0:0:0:
256,192,83208,1,0,0:0:0:0:
256,192,83319,1,0,0:0:0:0:
256,192,83430,1,0,0:0:0:0:
256,192,83541,1,0,0:0:0:0:
256,192,83653,1,8,0:0:0:0:
256,192,83764,1,8,0:0:0:0:
256,192,83875,1,0,0:0:0:0:
256,192,84097,1,8,0:0:0:0:
256,192,84208,1,0,0:0:0:0:
256,192,84319,1,8,0:0:0:0:
256,192,84430,1,8,0:0:0:0:
256,192,84541,1,8,0:0:0:0:
256,192,84653,1,8,0:0:0:0:
256,192,84764,1,0,0:0:0:0:
256,192,84986,1,8,0:0:0:0:
256,192,85097,1,0,0:0:0:0:
256,192,85208,1,0,0:0:0:0:
256,192,85319,1,8,0:0:0:0:
256,192,85430,1,0,0:0:0:0:
256,192,85541,1,8,0:0:0:0:
256,192,85653,1,0,0:0:0:0:
256,192,85875,1,8,0:0:0:0:
256,192,85986,1,8,0:0:0:0:
256,192,86097,1,0,0:0:0:0:
256,192,86208,1,0,0:0:0:0:
256,192,86319,1,0,0:0:0:0:
256,192,86430,1,0,0:0:0:0:
256,192,86541,1,8,0:0:0:0:
256,192,86764,1,0,0:0:0:0:
256,192,86875,1,8,0:0:0:0:
256,192,86986,1,8,0:0:0:0:
256,192,87097,1,0,0:0:0:0:
256,192,87208,1,8,0:0:0:0:
256,192,87430,1,4,0:0:0:0:
256,192,87653,1,0,0:0:0:0:
256,192,87764,1,0,0:0:0:0:
256,192,87875,1,8,0:0:0:0:
256,192,88041,1,8,0:0:0:0:
256,192,88208,1,8,0:0:0:0:
256,192,88319,1,0,0:0:0:0:
256,192,88541,1,0,0:0:0:0:
256,192,88653,1,8,0:0:0:0:
256,192,88875,1,8,0:0:0:0:
256,192,88986,1,0,0:0:0:0:
256,192,89097,1,0,0:0:0:0:
256,192,89208,1,0,0:0:0:0:
256,192,89430,1,8,0:0:0:0:
256,192,89541,1,8,0:0:0:0:
256,192,89653,1,8,0:0:0:0:
256,192,89764,1,8,0:0:0:0:
256,192,89875,1,0,0:0:0:0:
256,192,89986,1,0,0:0:0:0:
256,192,90097,1,8,0:0:0:0:
256,192,90319,1,0,0:0:0:0:
256,192,90430,1,0,0:0:0:0:
256,192,90541,1,0,0:0:0:0:
256,192,90653,1,0,0:0:0:0:
256,192,90764,1,8,0:0:0:0:
256,192,90875,1,8,0:0:0:0:
256,192,90986,1,0,0:0:0:0:
256,192,91208,1,0,0:0:0:0:
256,192,91319,1,0,0:0:0:0:
256,192,91430,1,0,0:0:0:0:
256,192,91541,1,0,0:0:0:0:
256,192,91653,1,8,0:0:0:0:
256,192,91875,1,0,0:0:0:0:
256,192,91986,1,0,0:0:0:0:
256,192,92097,1,0,0:0:0:0:
256,192,92208,1,0,0:0:0:0:
256,192,92319,1,8,0:0:0:0:
256,192,92541,1,8,0:0:0:0:
256,192,92653,1,8,0:0:0:0:
256,192,92764,1,0,0:0:0:0:
256,192,92986,1,8,0:0:0:0:
256,192,93097,1,0,0:0:0:0:
256,192,93208,1,8,0:0:0:0:
256,192,93319,1,8,0:0:0:0:
256,192,93430,1,8,0:0:0:0:
256,192,93541,1,8,0:0:0:0:
256,224,93653,1,0,0:0:0:0:
256,192,93875,1,0,0:0:0:0:
256,192,93986,1,0,0:0:0:0:
256,192,94097,1,8,0:0:0:0:
256,192,94208,1,8,0:0:0:0:
256,192,94319,1,8,0:0:0:0:
256,192,94430,1,8,0:0:0:0:
256,192,94541,1,0,0:0:0:0:
256,192,94764,1,8,0:0:0:0:
256,192,94875,1,8,0:0:0:0:
256,192,94986,1,0,0:0:0:0:
256,192,95097,1,8,0:0:0:0:
256,192,95208,1,8,0:0:0:0:
256,192,95319,1,8,0:0:0:0:
256,192,95430,1,0,0:0:0:0:
256,192,95653,1,0,0:0:0:0:
256,192,95764,1,8,0:0:0:0:
256,192,95875,1,8,0:0:0:0:
256,192,95986,1,8,0:0:0:0:
256,192,96097,1,0,0:0:0:0:
256,192,96208,1,8,0:0:0:0:
256,192,96319,1,0,0:0:0:0:
256,192,96541,1,8,0:0:0:0:
256,192,96653,1,8,0:0:0:0:
256,192,96764,1,0,0:0:0:0:
256,192,96875,1,0,0:0:0:0:
256,192,96986,1,0,0:0:0:0:
256,192,97097,1,0,0:0:0:0:
256,192,97208,1,8,0:0:0:0:
256,192,97430,1,0,0:0:0:0:
256,192,97541,1,0,0:0:0:0:
256,192,97653,1,0,0:0:0:0:
256,192,97764,1,0,0:0:0:0:
256,192,97875,1,0,0:0:0:0:
256,192,97986,1,8,0:0:0:0:
256,192,98097,1,0,0:0:0:0:
256,192,98319,1,0,0:0:0:0:
256,192,98430,1,0,0:0:0:0:
256,192,98541,1,8,0:0:0:0:
256,192,98653,1,8,0:0:0:0:
256,192,98764,1,8,0:0:0:0:
256,192,98875,1,8,0:0:0:0:
256,192,98986,1,0,0:0:0:0:
256,192,99208,1,8,0:0:0:0:
256,192,99319,1,0,0:0:0:0:
256,192,99541,1,8,0:0:0:0:
256,192,99653,1,0,0:0:0:0:
256,192,99764,1,8,0:0:0:0:
256,192,99875,1,0,0:0:0:0:
256,192,100097,1,0,0:0:0:0:
256,192,100208,1,8,0:0:0:0:
256,192,100319,1,0,0:0:0:0:
256,192,100430,1,0,0:0:0:0:
256,192,100541,1,8,0:0:0:0:
256,192,100653,1,8,0:0:0:0:
256,192,100764,1,8,0:0:0:0:
256,192,100986,1,0,0:0:0:0:
256,192,101097,1,0,0:0:0:0:
256,192,101208,1,0,0:0:0:0:
256,192,101319,1,0,0:0:0:0:
256,192,101430,1,8,0:0:0:0:
256,192,101653,1,4,0:0:0:0:
256,192,101875,1,8,0:0:0:0:
256,192,101986,1,0,0:0:0:0:
256,192,102097,1,8,0:0:0:0:
256,192,102264,1,8,0:0:0:0:
256,192,102430,1,8,0:0:0:0:
256,192,102541,1,0,0:0:0:0:
256,192,102764,1,0,0:0:0:0:
256,192,102875,1,8,0:0:0:0:
256,192,103208,1,0,0:0:0:0:
256,192,103319,1,8,0:0:0:0:
256,192,103430,1,0,0:0:0:0:
256,192,103653,1,8,0:0:0:0:
256,192,103764,1,8,0:0:0:0:
256,192,103875,1,0,0:0:0:0:
256,192,103986,1,0,0:0:0:0:
256,192,104097,1,0,0:0:0:0:
256,192,104208,1,0,0:0:0:0:
256,192,104319,1,8,0:0:0:0:
256,192,104541,1,0,0:0:0:0:
256,192,104653,1,0,0:0:0:0:
256,192,104764,1,0,0:0:0:0:
256,192,104875,1,0,0:0:0:0:
256,192,104986,1,8,0:0:0:0:
256,192,105208,1,4,0:0:0:0:
256,192,105430,1,8,0:0:0:0:
256,192,105541,1,0,0:0:0:0:
256,192,105653,1,8,0:0:0:0:
256,192,105819,1,8,0:0:0:0:
256,192,105986,1,8,0:0:0:0:
256,192,106097,1,4,0:0:0:0:
256,192,106764,1,0,0:0:0:0:
256,192,106986,1,8,0:0:0:0:
256,192,107208,1,0,0:0:0:0:
256,192,107319,1,0,0:0:0:0:
256,192,107430,1,8,0:0:0:0:
256,192,107653,1,0,0:0:0:0:
256,192,107764,1,8,0:0:0:0:
256,192,107875,1,0,0:0:0:0:
256,192,108208,1,0,0:0:0:0:
256,192,108541,1,0,0:0:0:0:
256,192,108764,1,8,0:0:0:0:
256,192,108986,1,0,0:0:0:0:
256,192,109097,1,8,0:0:0:0:
256,192,109208,1,0,0:0:0:0:
256,192,109319,1,8,0:0:0:0:
256,192,109430,1,0,0:0:0:0:
256,192,109541,1,8,0:0:0:0:
256,192,109653,1,8,0:0:0:0:
256,192,110097,1,4,0:0:0:0:
256,192,110319,1,0,0:0:0:0:
256,192,110541,1,8,0:0:0:0:
256,192,110764,1,0,0:0:0:0:
256,192,111208,1,4,0:0:0:0:
256,192,111430,1,8,0:0:0:0:
256,192,111764,1,8,0:0:0:0:
256,192,111875,1,0,0:0:0:0:
256,192,111986,1,0,0:0:0:0:
256,192,112097,1,8,0:0:0:0:
256,192,112319,1,8,0:0:0:0:
256,192,112541,1,8,0:0:0:0:
256,192,112653,1,8,0:0:0:0:
256,192,112764,1,0,0:0:0:0:
256,192,112875,1,0,0:0:0:0:
256,192,112986,1,8,0:0:0:0:
256,192,113097,1,8,0:0:0:0:
256,192,113208,1,0,0:0:0:0:
256,192,113875,1,8,0:0:0:0:
256,192,114097,1,8,0:0:0:0:
256,192,114319,1,0,0:0:0:0:
256,192,114430,1,0,0:0:0:0:
256,192,114541,1,8,0:0:0:0:
256,192,114653,1,0,0:0:0:0:
256,192,114764,1,0,0:0:0:0:
256,192,114875,1,8,0:0:0:0:
256,192,114986,1,8,0:0:0:0:
256,192,115319,1,0,0:0:0:0:
256,192,115653,1,0,0:0:0:0:
256,192,115764,1,0,0:0:0:0:
256,192,115875,1,8,0:0:0:0:
256,192,116097,1,0,0:0:0:0:
256,192,116208,1,8,0:0:0:0:
256,192,116319,1,0,0:0:0:0:
256,192,116430,1,8,0:0:0:0:
256,192,116541,1,0,0:0:0:0:
256,192,116653,1,8,0:0:0:0:
256,192,116764,1,8,0:0:0:0:
256,192,117208,1,4,0:0:0:0:
256,192,117430,1,0,0:0:0:0:
256,192,117653,1,8,0:0:0:0:
256,192,117875,1,0,0:0:0:0:
256,192,118319,1,4,0:0:0:0:
256,192,118541,1,8,0:0:0:0:
256,192,118875,1,8,0:0:0:0:
256,192,119208,1,0,0:0:0:0:
256,192,119430,1,8,0:0:0:0:
256,192,119653,1,8,0:0:0:0:
256,192,119764,1,8,0:0:0:0:
256,192,119875,1,0,0:0:0:0:
256,192,119986,1,0,0:0:0:0:
256,192,120097,1,8,0:0:0:0:
256,192,120319,1,4,0:0:0:0:
256,192,120541,1,8,0:0:0:0:
256,192,120653,1,0,0:0:0:0:
256,192,120764,1,0,0:0:0:0:
256,192,120875,1,8,0:0:0:0:
256,192,120986,1,0,0:0:0:0:
256,192,121097,1,0,0:0:0:0:
256,192,121208,1,8,0:0:0:0:
256,192,121430,1,8,0:0:0:0:
256,192,121541,1,0,0:0:0:0:
256,192,121653,1,0,0:0:0:0:
256,192,121764,1,8,0:0:0:0:
256,192,121875,1,0,0:0:0:0:
256,192,121986,1,0,0:0:0:0:
256,192,122097,1,8,0:0:0:0:
256,192,122319,1,8,0:0:0:0:
256,192,122430,1,0,0:0:0:0:
256,192,122541,1,0,0:0:0:0:
256,192,122653,1,8,0:0:0:0:
256,192,122764,1,0,0:0:0:0:
256,192,122875,1,0,0:0:0:0:
256,192,122986,1,8,0:0:0:0:
256,192,123208,1,0,0:0:0:0:
256,192,123319,1,8,0:0:0:0:
256,192,123875,1,4,0:0:0:0:
256,192,124097,1,8,0:0:0:0:
256,192,124208,1,0,0:0:0:0:
256,192,124319,1,0,0:0:0:0:
256,192,124430,1,8,0:0:0:0:
256,192,124541,1,8,0:0:0:0:
256,192,124653,1,8,0:0:0:0:
256,192,124764,1,0,0:0:0:0:
256,192,124986,1,8,0:0:0:0:
256,192,125097,1,0,0:0:0:0:
256,192,125208,1,0,0:0:0:0:
256,192,125319,1,8,0:0:0:0:
256,192,125430,1,0,0:0:0:0:
256,192,125541,1,8,0:0:0:0:
256,192,125653,1,0,0:0:0:0:
256,192,125875,1,0,0:0:0:0:
256,192,125986,1,8,0:0:0:0:
256,192,126097,1,0,0:0:0:0:
256,192,126208,1,8,0:0:0:0:
256,192,126319,1,0,0:0:0:0:
256,192,126430,1,8,0:0:0:0:
256,192,126541,1,0,0:0:0:0:
256,192,126764,1,8,0:0:0:0:
256,192,126875,1,8,0:0:0:0:
256,192,127430,1,4,0:0:0:0:
256,192,127653,1,0,0:0:0:0:
256,192,127764,1,8,0:0:0:0:
256,192,127875,1,8,0:0:0:0:
256,192,127986,1,0,0:0:0:0:
256,192,128097,1,8,0:0:0:0:
256,192,128208,1,8,0:0:0:0:
256,192,128319,1,0,0:0:0:0:
256,192,128541,1,0,0:0:0:0:
256,192,128653,1,0,0:0:0:0:
256,192,128764,1,0,0:0:0:0:
256,192,128875,1,0,0:0:0:0:
256,192,128986,1,8,0:0:0:0:
256,192,129097,1,0,0:0:0:0:
256,192,129208,1,8,0:0:0:0:
256,192,129430,1,8,0:0:0:0:
256,192,129541,1,8,0:0:0:0:
256,192,129764,1,8,0:0:0:0:
256,192,129875,1,0,0:0:0:0:
256,192,129986,1,0,0:0:0:0:
256,192,130097,1,8,0:0:0:0:
256,192,130319,1,0,0:0:0:0:
256,192,130430,1,0,0:0:0:0:
256,192,130986,1,4,0:0:0:0:
256,192,131208,1,8,0:0:0:0:
256,192,131319,1,0,0:0:0:0:
256,192,131541,1,8,0:0:0:0:
256,192,131653,1,0,0:0:0:0:
256,192,131764,1,0,0:0:0:0:
256,192,131875,1,8,0:0:0:0:
256,192,132097,1,8,0:0:0:0:
256,192,132208,1,0,0:0:0:0:
256,192,132319,1,0,0:0:0:0:
256,192,132430,1,8,0:0:0:0:
256,192,132541,1,0,0:0:0:0:
256,192,132653,1,0,0:0:0:0:
256,192,132764,1,8,0:0:0:0:
256,192,132986,1,8,0:0:0:0:
256,192,133097,1,0,0:0:0:0:
256,192,133208,1,0,0:0:0:0:
256,192,133319,1,8,0:0:0:0:
256,192,133430,1,0,0:0:0:0:
256,192,133541,1,8,0:0:0:0:
256,192,133653,1,0,0:0:0:0:
256,192,133875,1,8,0:0:0:0:
256,192,133986,1,8,0:0:0:0:
256,192,134097,1,0,0:0:0:0:
256,192,134541,1,4,0:0:0:0:
256,192,134764,1,0,0:0:0:0:
256,192,134875,1,8,0:0:0:0:
256,192,134986,1,0,0:0:0:0:
256,192,135097,1,8,0:0:0:0:
256,192,135208,1,8,0:0:0:0:
256,192,135319,1,0,0:0:0:0:
256,192,135430,1,0,0:0:0:0:
256,192,135653,1,8,0:0:0:0:
256,192,135764,1,0,0:0:0:0:
256,192,135875,1,0,0:0:0:0:
256,192,135986,1,8,0:0:0:0:
256,192,136097,1,0,0:0:0:0:
256,192,136208,1,8,0:0:0:0:
256,192,136319,1,0,0:0:0:0:
256,192,136541,1,8,0:0:0:0:
256,192,136653,1,0,0:0:0:0:
256,192,136764,1,8,0:0:0:0:
256,192,136875,1,0,0:0:0:0:
256,192,136986,1,8,0:0:0:0:
256,192,137097,1,8,0:0:0:0:
256,192,137208,1,0,0:0:0:0:
256,192,137319,1,0,0:0:0:0:
256,192,137430,1,0,0:0:0:0:
256,192,137541,1,0,0:0:0:0:
256,192,138097,1,12,0:0:0:0:
256,192,138319,1,0,0:0:0:0:
256,192,138430,1,8,0:0:0:0:
256,192,138541,1,0,0:0:0:0:
256,192,138653,1,8,0:0:0:0:
256,192,138764,1,8,0:0:0:0:
256,192,138875,1,0,0:0:0:0:
256,192,138986,1,0,0:0:0:0:
256,192,139208,1,8,0:0:0:0:
256,192,139319,1,0,0:0:0:0:
256,192,139430,1,0,0:0:0:0:
256,192,139541,1,8,0:0:0:0:
256,192,139653,1,0,0:0:0:0:
256,192,139764,1,8,0:0:0:0:
256,192,139875,1,0,0:0:0:0:
256,192,140097,1,0,0:0:0:0:
256,192,140208,1,8,0:0:0:0:
256,192,140319,1,0,0:0:0:0:
256,192,140430,1,8,0:0:0:0:
256,192,140541,1,0,0:0:0:0:
256,192,140653,1,8,0:0:0:0:
256,192,140764,1,0,0:0:0:0:
256,192,140986,1,8,0:0:0:0:
256,192,141097,1,8,0:0:0:0:
256,192,141653,1,4,0:0:0:0:
256,192,141875,1,8,0:0:0:0:
256,192,141986,1,0,0:0:0:0:
256,192,142097,1,8,0:0:0:0:
256,192,142208,1,0,0:0:0:0:
256,192,142319,1,8,0:0:0:0:
256,192,142430,1,8,0:0:0:0:
256,192,142541,1,8,0:0:0:0:
256,192,142764,1,8,0:0:0:0:
256,192,142875,1,0,0:0:0:0:
256,192,142986,1,0,0:0:0:0:
256,192,143097,1,0,0:0:0:0:
256,192,143208,1,8,0:0:0:0:
256,192,143319,1,0,0:0:0:0:
256,192,143430,1,8,0:0:0:0:
256,192,143652,1,8,0:0:0:0:
256,192,143763,1,8,0:0:0:0:
256,192,143986,1,8,0:0:0:0:
256,192,144097,1,0,0:0:0:0:
256,192,144319,1,0,0:0:0:0:
256,192,144541,1,0,0:0:0:0:
256,192,144652,1,0,0:0:0:0:
256,192,145208,1,12,0:0:0:0:
256,192,145430,1,8,0:0:0:0:
256,192,145541,1,0,0:0:0:0:
256,192,145653,1,0,0:0:0:0:
256,192,145764,1,0,0:0:0:0:
256,192,145875,1,8,0:0:0:0:
256,192,145986,1,0,0:0:0:0:
256,192,146097,1,8,0:0:0:0:
256,192,146319,1,8,0:0:0:0:
256,192,146430,1,0,0:0:0:0:
256,192,146541,1,8,0:0:0:0:
256,192,146653,1,8,0:0:0:0:
256,192,146764,1,0,0:0:0:0:
256,192,146875,1,8,0:0:0:0:
256,192,146986,1,0,0:0:0:0:
256,192,147208,1,8,0:0:0:0:
256,192,147319,1,0,0:0:0:0:
256,192,147430,1,0,0:0:0:0:
256,192,147541,1,8,0:0:0:0:
256,192,147653,1,0,0:0:0:0:
256,192,147764,1,8,0:0:0:0:
256,192,147875,1,0,0:0:0:0:
256,192,148097,1,8,0:0:0:0:
256,192,148208,1,8,0:0:0:0:
256,192,148764,1,0,0:0:0:0:
256,192,148986,1,8,0:0:0:0:
256,192,149097,1,0,0:0:0:0:
256,192,149208,1,0,0:0:0:0:
256,192,149319,1,8,0:0:0:0:
256,192,149430,1,0,0:0:0:0:
256,192,149541,1,8,0:0:0:0:
256,192,149653,1,4,0:0:0:0:
256,192,149875,1,8,0:0:0:0:
256,192,149986,1,8,0:0:0:0:
256,192,150097,1,0,0:0:0:0:
256,192,150208,1,0,0:0:0:0:
256,192,150319,1,8,0:0:0:0:
256,192,150430,1,8,0:0:0:0:
256,192,150541,1,0,0:0:0:0:
256,192,150764,1,0,0:0:0:0:
256,192,150875,1,8,0:0:0:0:
256,192,150986,1,8,0:0:0:0:
256,192,151097,1,0,0:0:0:0:
256,192,151208,1,0,0:0:0:0:
256,192,151319,1,8,0:0:0:0:
256,192,151430,1,0,0:0:0:0:
256,192,151653,1,8,0:0:0:0:
256,192,151875,1,0,0:0:0:0:
256,192,151986,1,8,0:0:0:0:
256,192,152097,1,8,0:0:0:0:
256,192,152208,1,8,0:0:0:0:
256,192,152319,1,0,0:0:0:0:
256,192,152541,1,0,0:0:0:0:
256,192,152653,1,8,0:0:0:0:
256,192,152764,1,0,0:0:0:0:
256,192,152875,1,8,0:0:0:0:
256,192,152986,1,0,0:0:0:0:
256,192,153097,1,8,0:0:0:0:
256,192,153208,1,0,0:0:0:0:
256,192,153430,1,8,0:0:0:0:
256,192,153541,1,8,0:0:0:0:
256,192,153653,1,8,0:0:0:0:
256,192,153764,1,0,0:0:0:0:
256,192,153875,1,0,0:0:0:0:
256,192,154097,1,4,0:0:0:0:
256,192,154319,1,8,0:0:0:0:
256,192,154430,1,0,0:0:0:0:
256,192,154541,1,0,0:0:0:0:
256,192,154653,1,0,0:0:0:0:
256,192,154764,1,8,0:0:0:0:
256,192,154875,1,8,0:0:0:0:
256,192,154986,1,0,0:0:0:0:
256,192,155875,1,4,0:0:0:0:
256,192,156097,1,8,0:0:0:0:
256,192,156208,1,0,0:0:0:0:
256,192,156319,1,0,0:0:0:0:
256,192,156430,1,8,0:0:0:0:
256,192,156541,1,8,0:0:0:0:
256,192,156653,1,8,0:0:0:0:
256,192,156764,1,0,0:0:0:0:
256,192,156986,1,8,0:0:0:0:
256,192,157097,1,8,0:0:0:0:
256,192,157208,1,0,0:0:0:0:
256,192,157319,1,0,0:0:0:0:
256,192,157430,1,8,0:0:0:0:
256,192,157541,1,0,0:0:0:0:
256,192,157653,1,0,0:0:0:0:
256,192,157875,1,8,0:0:0:0:
256,192,157986,1,0,0:0:0:0:
256,192,158097,1,0,0:0:0:0:
256,192,158208,1,8,0:0:0:0:
256,192,158319,1,0,0:0:0:0:
256,192,158430,1,8,0:0:0:0:
256,192,158541,1,0,0:0:0:0:
256,192,158764,1,8,0:0:0:0:
256,192,158875,1,0,0:0:0:0:
256,192,158986,1,0,0:0:0:0:
256,192,159097,1,0,0:0:0:0:
256,192,159208,1,0,0:0:0:0:
256,192,159319,1,0,0:0:0:0:
256,192,159430,1,8,0:0:0:0:
256,192,159653,1,0,0:0:0:0:
256,192,159764,1,8,0:0:0:0:
256,192,159875,1,0,0:0:0:0:
256,192,159986,1,8,0:0:0:0:
256,192,160097,1,8,0:0:0:0:
256,192,160208,1,0,0:0:0:0:
256,192,160319,1,0,0:0:0:0:
256,192,160541,1,8,0:0:0:0:
256,192,160653,1,8,0:0:0:0:
256,192,160764,1,8,0:0:0:0:
256,192,160875,1,0,0:0:0:0:
256,192,160986,1,0,0:0:0:0:
256,192,161208,1,8,0:0:0:0:
256,192,161430,1,0,0:0:0:0:
256,192,161541,1,0,0:0:0:0:
256,192,161653,1,8,0:0:0:0:
256,192,161764,1,0,0:0:0:0:
256,192,161875,1,8,0:0:0:0:
256,192,161986,1,0,0:0:0:0:
256,192,162097,1,8,0:0:0:0:
256,192,162319,1,0,0:0:0:0:
256,192,162430,1,0,0:0:0:0:
256,192,162541,1,8,0:0:0:0:
256,192,162986,1,12,0:0:0:0:
