osu file format v14

[General]
AudioFilename: slotcore is dead.mp3
AudioLeadIn: 0
PreviewTime: 77653
Countdown: 0
SampleSet: Normal
StackLeniency: 0.3
Mode: 1
LetterboxInBreaks: 0
WidescreenStoryboard: 1

[Editor]
Bookmarks: 25780,63430,77656,106097,120319,148764,155875,162986
DistanceSpacing: 1
BeatDivisor: 2
GridSize: 32
TimelineZoom: 1

[Metadata]
Title:Slotcore is Dead
TitleUnicode:Slotcore is Dead
Artist:sHimaU
ArtistUnicode:sHimaU
Creator:Alumetorz
Version:Kantan
Source:
Tags:
BeatmapID:306203
BeatmapSetID:119233

[Difficulty]
HPDrainRate:3
CircleSize:4
OverallDifficulty:3
ApproachRate:10
SliderMultiplier:0.8
SliderTickRate:1

[Events]
//Background and Video events
0,0,"bg.jpg",0,0
//Break Periods
2,52964,62980
//Storyboard Layer 0 (Background)
//Storyboard Layer 1 (Fail)
//Storyboard Layer 2 (Pass)
//Storyboard Layer 3 (Foreground)
//Storyboard Sound Samples

[TimingPoints]
6225,222.222222222222,4,1,0,70,1,0
34660,326.975476839237,4,1,0,70,1,0
34660,-66.6666666666667,4,1,0,70,0,0
38542,222.222222222222,4,1,0,70,1,0
38542,-100,4,1,0,70,0,0
63430,-100,4,1,0,70,0,1
76764,-100,4,1,0,70,0,0
120319,-100,4,1,0,70,0,1
123319,-100,4,1,0,70,0,0
123875,-100,4,1,0,70,0,1
126875,-100,4,1,0,70,0,0
127430,-100,4,1,0,70,0,1
130430,-100,4,1,0,70,0,0
130986,-100,4,1,0,70,0,1
134097,-100,4,1,0,70,0,0
134541,-100,4,1,0,70,0,1
137541,-100,4,1,0,70,0,0
138097,-100,4,1,0,70,0,1
141097,-100,4,1,0,70,0,0
141653,-100,4,1,0,70,0,1
144653,-100,4,1,0,70,0,0
145208,-100,4,1,0,70,0,1
148208,-100,4,1,0,70,0,0

[Colours]
Combo1 : 0,0,255
Combo2 : 255,128,128

[HitObjects]
256,192,6225,5,4,0:0:0:0:
256,192,7002,1,0,0:0:0:0:
256,192,8002,1,8,0:0:0:0:
256,192,8891,1,0,0:0:0:0:
256,192,9780,1,8,0:0:0:0:
256,192,10447,1,8,0:0:0:0:
256,192,11002,1,8,0:0:0:0:
256,192,11558,1,0,0:0:0:0:
256,192,12447,1,0,0:0:0:0:
256,192,13336,1,0,0:0:0:0:
256,192,13780,1,8,0:0:0:0:
256,192,14224,1,0,0:0:0:0:
256,192,15113,1,0,0:0:0:0:
256,192,15558,1,8,0:0:0:0:
256,192,16002,1,0,0:0:0:0:
256,192,16891,1,8,0:0:0:0:
256,192,17780,1,0,0:0:0:0:
256,192,18224,1,0,0:0:0:0:
256,192,18669,1,0,0:0:0:0:
256,192,19558,1,0,0:0:0:0:
256,192,20669,1,8,0:0:0:0:
256,192,21002,1,8,0:0:0:0:
256,192,21780,1,8,0:0:0:0:
256,192,22224,1,0,0:0:0:0:
256,192,22891,1,0,0:0:0:0:
256,192,23558,1,8,0:0:0:0:
256,192,24002,1,0,0:0:0:0:
256,192,24891,1,8,0:0:0:0:
256,192,25780,1,0,0:0:0:0:
256,192,26447,1,8,0:0:0:0:
256,192,27113,1,0,0:0:0:0:
256,192,27558,1,12,0:0:0:0:
256,192,28224,1,0,0:0:0:0:
256,192,29113,1,8,0:0:0:0:
256,192,29669,1,0,0:0:0:0:
256,192,30558,1,0,0:0:0:0:
256,192,31113,1,0,0:0:0:0:
256,192,32224,1,8,0:0:0:0:
256,192,32891,1,0,0:0:0:0:
256,192,33558,1,8,0:0:0:0:
256,192,34224,1,0,0:0:0:0:
256,192,34660,1,0,0:0:0:0:
256,192,35313,1,0,0:0:0:0:
256,192,35967,1,0,0:0:0:0:
256,192,36948,1,0,0:0:0:0:
256,192,37275,1,12,0:0:0:0:
256,192,37929,1,12,0:0:0:0:
256,192,38542,1,12,0:0:0:0:
256,192,38986,1,8,0:0:0:0:
256,192,39430,1,0,0:0:0:0:
256,192,40319,1,0,0:0:0:0:
256,192,41208,1,0,0:0:0:0:
256,192,41653,1,0,0:0:0:0:
256,192,42097,1,8,0:0:0:0:
256,192,42986,1,12,0:0:0:0:
256,192,43875,1,8,0:0:0:0:
256,192,44319,1,0,0:0:0:0:
256,192,44764,1,8,0:0:0:0:
256,192,45208,1,8,0:0:0:0:
256,192,45653,1,4,0:0:0:0:
256,192,46319,1,8,0:0:0:0:
256,192,46764,1,8,0:0:0:0:
256,192,47430,1,0,0:0:0:0:
256,192,48319,1,8,0:0:0:0:
256,192,48764,1,8,0:0:0:0:
256,192,49208,1,0,0:0:0:0:
256,192,50097,1,8,0:0:0:0:
288,192,50541,1,8,0:0:0:0:
256,192,50986,1,0,0:0:0:0:
256,192,51875,1,0,0:0:0:0:
256,192,52319,1,8,0:0:0:0:
256,192,52764,1,4,0:0:0:0:
256,192,63430,5,12,0:0:0:0:
256,192,64319,1,12,0:0:0:0:
256,192,64764,1,0,0:0:0:0:
256,192,65208,1,12,0:0:0:0:
256,192,66097,1,12,0:0:0:0:
256,192,66986,1,12,0:0:0:0:
256,192,67875,1,12,0:0:0:0:
256,192,68319,1,0,0:0:0:0:
256,192,68764,1,12,0:0:0:0:
256,192,69653,1,12,0:0:0:0:
256,192,70541,1,12,0:0:0:0:
256,192,71430,1,12,0:0:0:0:
256,192,71875,1,0,0:0:0:0:
256,192,72319,1,12,0:0:0:0:
256,192,73208,1,12,0:0:0:0:
256,192,74097,1,12,0:0:0:0:
256,192,74986,1,12,0:0:0:0:
256,192,75430,1,0,0:0:0:0:
256,192,75875,1,12,0:0:0:0:
256,192,76764,1,8,0:0:0:0:
256,192,77653,1,4,0:0:0:0:
256,192,78541,1,0,0:0:0:0:
256,192,79430,1,8,0:0:0:0:
256,192,80319,1,0,0:0:0:0:
256,192,80764,1,8,0:0:0:0:
256,192,81208,1,0,0:0:0:0:
256,192,82097,1,8,0:0:0:0:
256,192,82541,1,0,0:0:0:0:
256,192,82986,1,8,0:0:0:0:
256,192,83875,1,8,0:0:0:0:
256,192,84764,1,0,0:0:0:0:
256,192,85653,1,0,0:0:0:0:
256,192,86541,1,8,0:0:0:0:
256,192,87430,1,4,0:0:0:0:
256,192,87875,1,8,0:0:0:0:
256,192,88319,1,0,0:0:0:0:
256,192,89208,1,12,0:0:0:0:
256,192,89653,1,0,0:0:0:0:
256,192,90097,1,8,0:0:0:0:
256,192,90986,1,0,0:0:0:0:
256,192,91430,1,0,0:0:0:0:
256,192,91875,1,8,0:0:0:0:
256,192,92764,1,0,0:0:0:0:
256,192,93208,1,0,0:0:0:0:
256,192,93653,1,8,0:0:0:0:
256,192,94541,1,8,0:0:0:0:
256,192,94986,1,0,0:0:0:0:
256,192,95430,1,8,0:0:0:0:
256,192,96319,1,0,0:0:0:0:
256,192,96764,1,8,0:0:0:0:
256,192,97208,1,0,0:0:0:0:
256,192,98097,1,8,0:0:0:0:
256,192,98986,1,0,0:0:0:0:
256,192,99875,1,0,0:0:0:0:
256,192,100764,1,8,0:0:0:0:
256,192,101653,1,0,0:0:0:0:
256,192,102097,1,8,0:0:0:0:
256,192,102541,1,0,0:0:0:0:
256,192,103430,1,8,0:0:0:0:
256,192,104319,1,0,0:0:0:0:
256,192,105208,1,8,0:0:0:0:
256,192,105653,1,8,0:0:0:0:
256,192,106097,1,4,0:0:0:0:
256,192,106986,1,0,0:0:0:0:
256,192,107430,1,8,0:0:0:0:
256,192,107875,1,0,0:0:0:0:
256,192,108764,1,0,0:0:0:0:
256,192,109653,1,8,0:0:0:0:
256,192,110097,1,0,0:0:0:0:
256,192,110541,1,8,0:0:0:0:
256,192,111430,1,0,0:0:0:0:
256,192,112319,1,8,0:0:0:0:
256,192,113208,1,0,0:0:0:0:
256,192,114097,1,0,0:0:0:0:
256,192,114986,1,8,0:0:0:0:
256,192,115875,1,8,0:0:0:0:
256,192,116764,1,0,0:0:0:0:
256,192,117653,1,8,0:0:0:0:
256,192,118541,1,0,0:0:0:0:
256,192,119430,1,8,0:0:0:0:
256,192,120319,1,12,0:0:0:0:
256,192,121208,1,0,0:0:0:0:
256,192,122097,1,8,0:0:0:0:
256,192,122986,1,0,0:0:0:0:
256,192,123319,1,0,0:0:0:0:
256,192,123875,1,4,0:0:0:0:
256,192,124764,1,8,0:0:0:0:
256,192,125653,1,0,0:0:0:0:
256,192,126541,1,0,0:0:0:0:
256,192,126875,1,8,0:0:0:0:
256,192,127430,1,12,0:0:0:0:
256,192,128319,1,0,0:0:0:0:
256,192,129208,1,8,0:0:0:0:
256,192,130097,1,8,0:0:0:0:
256,192,130430,1,0,0:0:0:0:
256,192,130986,1,4,0:0:0:0:
256,192,131875,1,8,0:0:0:0:
256,192,132764,1,0,0:0:0:0:
256,192,133653,1,0,0:0:0:0:
256,192,134097,1,0,0:0:0:0:
256,192,134541,1,12,0:0:0:0:
256,192,135430,1,0,0:0:0:0:
256,192,136319,1,8,0:0:0:0:
256,192,137208,1,0,0:0:0:0:
256,192,137541,1,0,0:0:0:0:
256,192,138097,1,4,0:0:0:0:
256,192,138986,1,0,0:0:0:0:
256,192,139875,1,8,0:0:0:0:
256,192,140764,1,0,0:0:0:0:
256,192,141097,1,8,0:0:0:0:
256,192,141653,1,4,0:0:0:0:
256,192,142542,1,8,0:0:0:0:
256,192,143431,1,8,0:0:0:0:
256,192,144319,1,0,0:0:0:0:
256,192,144652,1,0,0:0:0:0:
256,192,145208,1,12,0:0:0:0:
256,192,146097,1,8,0:0:0:0:
256,192,146986,1,8,0:0:0:0:
256,192,147875,1,0,0:0:0:0:
256,192,148208,1,8,0:0:0:0:
256,192,148764,1,8,0:0:0:0:
256,192,149653,1,0,0:0:0:0:
256,192,150097,1,8,0:0:0:0:
256,192,150541,1,0,0:0:0:0:
256,192,151430,1,0,0:0:0:0:
256,192,152319,1,0,0:0:0:0:
256,192,152653,1,8,0:0:0:0:
256,192,153208,1,0,0:0:0:0:
256,192,153653,1,8,0:0:0:0:
256,192,154097,1,0,0:0:0:0:
256,192,154541,1,8,0:0:0:0:
256,192,154986,1,0,0:0:0:0:
256,192,155875,1,4,0:0:0:0:
256,192,156764,1,0,0:0:0:0:
256,192,157208,1,0,0:0:0:0:
256,192,157653,1,8,0:0:0:0:
256,192,158541,1,0,0:0:0:0:
256,192,158986,1,0,0:0:0:0:
256,192,159430,1,8,0:0:0:0:
256,192,160319,1,0,0:0:0:0:
256,192,161208,1,8,0:0:0:0:
256,192,162097,1,0,0:0:0:0:
256,192,162541,1,0,0:0:0:0:
256,192,162986,1,12,0:0:0:0:
