osu file format v14

[General]
AudioFilename: [Forunesia] Great Distance.mp3
AudioLeadIn: 0
PreviewTime: 80168
Countdown: 0
SampleSet: Normal
StackLeniency: 0.7
Mode: 0
LetterboxInBreaks: 0
WidescreenStoryboard: 1

[Editor]
Bookmarks: 69888
DistanceSpacing: 1
BeatDivisor: 4
GridSize: 4
TimelineZoom: 1.8

[Metadata]
Title:Great Distance
TitleUnicode:Great Distance
Artist:ryo (supercell) feat.chelly
ArtistUnicode:ryo (supercell) feat.chelly
Creator:monstrata
Version:Normal
Source:ブレイブリーセカンド
Tags:chelly bravely second end layer opening theme square enix 吉田明彦 akihiko yoshida egoist nintendo
BeatmapID:743012
BeatmapSetID:329473

[Difficulty]
HPDrainRate:3
CircleSize:3.5
OverallDifficulty:4.5
ApproachRate:5.5
SliderMultiplier:1.1
SliderTickRate:1

[Events]
//Background and Video events
0,0,"free-bravely-default-hd-desktop-wallpaper.jpg",0,0
//Break Periods
//Storyboard Layer 0 (Background)
//Storyboard Layer 1 (Fail)
//Storyboard Layer 2 (Pass)
//Storyboard Layer 3 (Foreground)
//Storyboard Sound Samples

[TimingPoints]
10538,304.568527918782,4,1,0,50,1,0
12213,-100,4,2,0,50,0,0
12669,-100,4,1,0,50,0,0
27593,-100,4,2,0,50,0,0
28812,-100,4,2,0,35,0,0
28964,-100,4,2,0,50,0,0
30030,-100,4,2,0,35,0,0
30334,-100,4,2,0,50,0,0
31248,-100,4,2,0,35,0,0
31705,-100,4,2,0,50,0,0
32466,-100,4,2,0,35,0,0
32771,-100,4,2,0,50,0,0
33380,-100,4,2,0,35,0,0
33532,-100,4,2,0,50,0,0
34903,-100,4,2,0,35,0,0
35208,-100,4,2,0,50,0,0
36121,-100,4,2,0,35,0,0
36426,-100,4,2,0,50,0,0
36883,-100,4,2,0,50,0,0
37340,-100,4,1,0,50,0,0
61705,-100,4,2,0,45,0,0
68101,-100,4,2,0,35,0,0
68253,-100,4,2,0,45,0,0
68710,-100,4,2,0,35,0,0
68862,-100,4,2,0,45,0,0
71451,-100,4,1,0,50,0,0
80588,-100,4,2,0,35,0,0
81045,-100,4,1,0,60,0,1
89573,-100,4,1,0,50,0,1
110741,-100,4,1,0,50,0,0
115157,-100,4,1,0,35,0,0

[Colours]
Combo1 : 128,255,255
Combo2 : 255,128,0
Combo3 : 38,147,255
Combo4 : 128,0,255

[HitObjects]
161,307,12365,6,0,P|201:271|254:276,1,110,0|0,0:0|3:3,0:0:0:0:
305,296,12822,6,0,L|423:268,1,110,6|2,0:1|0:3,0:0:0:0:
466,260,13279,1,8,0:0:0:0:
433,155,13583,2,0,P|392:119|339:124,1,110,2|0,0:3|0:0,0:0:0:0:
289,144,14040,2,0,L|171:116,1,110,6|2,0:0|0:3,0:0:0:0:
128,108,14497,1,8,0:0:0:0:
48,183,14801,2,0,L|166:211,1,110,2|8,0:3|0:0,0:0:0:0:
208,222,15258,6,0,P|250:253|255:324,1,110,6|2,0:0|0:3,0:0:0:0:
236,356,15715,1,8,0:0:0:0:
129,382,16020,2,0,P|86:350|81:279,1,110,2|8,0:3|0:0,0:0:0:0:
87,242,16477,2,0,B|126:219|126:219|153:142,1,110,6|0,0:0|0:0,0:0:0:0:
162,105,16933,2,0,B|296:48|296:160|428:100,1,275,8|0,0:0|0:0,0:0:0:0:
472,68,17847,6,0,P|488:116|424:212,2,165,4|8|8,0:3|0:3|0:3,0:0:0:0:
368,30,19065,2,0,P|328:53|300:119,1,110,4|8,0:3|0:0,0:0:0:0:
333,214,19675,1,2,0:3:0:0:
258,294,19980,1,8,0:0:0:0:
151,269,20284,6,0,B|111:233|118:168|118:168|92:147|95:105,2,165,4|8|8,0:2|0:3|0:3,0:0:0:0:
226,189,21502,2,0,L|334:160,1,110,4|8,0:3|0:3,0:0:0:0:
384,63,22111,2,0,P|435:119|425:220,1,165,4|0,0:3|0:0,0:0:0:0:
342,268,22873,6,0,L|288:282,1,55,2|2,0:3|0:3,0:0:0:0:
226,189,23329,6,0,L|240:134,1,55,2|0,0:3|0:3,0:0:0:0:
352,128,23786,6,0,L|391:167,1,55,4|4,0:2|0:2,0:0:0:0:
455,256,24243,5,2,0:3:0:0:
455,256,24395,2,0,P|421:319|328:343,1,165,2|2,0:3|0:2,0:0:0:0:
312,293,25005,6,0,B|290:242|290:242|223:212,1,110,4|0,0:0|0:0,0:0:0:0:
188,202,25461,1,8,0:0:0:0:
125,111,25766,2,0,B|75:88,2,55,2|0|8,0:3|0:0|0:0,0:0:0:0:
235,101,26375,2,0,B|279:69|279:69|336:64|365:126,2,165,6|6|8,0:2|0:2|0:3,0:0:0:0:
188,202,27593,6,0,B|193:256,1,55,4|0,0:2|0:0,0:0:0:0:
202,311,27898,2,0,P|254:324|303:303,1,110,2|0,0:2|0:0,0:0:0:0:
353,205,28507,1,2,0:2:0:0:
402,106,28812,2,0,P|441:140|461:201,2,110,8|0|2,0:3|3:0|0:2,0:0:0:0:
292,114,29725,1,2,0:2:0:0:
243,213,30030,6,0,L|171:218,1,55,4|8,0:3|0:3,0:0:0:0:
133,220,30334,2,0,B|99:151|99:151|114:112,1,110,2|0,0:2|0:0,0:0:0:0:
148,16,30944,1,2,0:2:0:0:
218,98,31248,2,0,P|271:114|323:98,1,110,2|0,0:3|3:0,0:0:0:0:
383,6,31857,2,0,P|419:44|431:104,1,110,2|2,0:2|0:2,0:0:0:0:
375,193,32466,6,0,L|339:251,1,55,4|8,0:3|0:3,0:0:0:0:
317,287,32771,2,0,B|265:304|265:304|193:277,1,110,2|0,0:2|0:0,0:0:0:0:
108,251,33380,1,2,0:3:0:0:
83,143,33685,2,0,P|117:101|170:93,1,110,0|0,0:0|3:0,0:0:0:0:
208,133,34142,2,0,B|236:159|236:159|304:127|383:175,1,165,2|0,0:2|3:0,0:0:0:0:
421,252,34903,6,0,L|398:331,1,55,4|8,0:3|0:3,0:0:0:0:
392,358,35208,2,0,P|314:358|267:315,1,110,2|0,0:2|0:0,0:0:0:0:
248,239,35817,1,2,0:2:0:0:
208,133,36121,2,0,B|222:80|222:80|293:55,1,110,4|4,0:3|0:2,0:0:0:0:
326,44,36578,2,0,B|400:144|272:144|341:248,1,220,2|0,0:2|0:0,0:0:0:0:
379,286,37340,6,0,P|448:285|511:201,2,165,6|4|2,0:2|0:2|0:3,0:0:0:0:
270,306,38558,2,0,B|162:325|162:325|64:300,2,165,6|4|2,0:2|0:2|0:3,0:0:0:0:
309,203,39776,6,0,B|327:153|327:153|397:149|418:78,2,165,6|4|6,0:2|0:2|0:2,0:0:0:0:
200,222,40994,2,0,B|147:231|147:231|109:172|37:190,2,165,0|0|2,0:0|0:0|2:2,0:0:0:0:
239,118,42213,5,2,2:2:0:0:
242,131,43431,5,2,2:2:0:0:
245,144,44649,6,0,L|223:282,2,110,4|2|2,0:0|0:2|0:2,0:0:0:0:
259,34,45563,1,2,0:2:0:0:
348,102,45867,2,0,L|478:52,2,110,2|2|2,0:2|0:2|0:2,0:0:0:0:
245,144,46781,1,2,0:2:0:0:
157,75,47086,6,0,P|136:133|161:224,1,110,4|8,0:2|0:0,0:0:0:0:
178,283,47695,2,0,B|256:328|256:256|340:296,2,165,2|2|8,0:2|0:3|0:0,0:0:0:0:
68,262,48913,2,0,L|0:285,2,55,2|0|8,0:3|0:0|0:0,0:0:0:0:
139,180,49522,5,4,0:2:0:0:
139,180,49675,2,0,B|243:145|243:145|328:160,1,165,2|2,0:2|0:3,0:0:0:0:
389,215,50436,1,8,0:0:0:0:
389,215,50588,2,0,B|284:249|284:249|200:235,1,165,2|8,0:3|0:0,0:0:0:0:
130,287,51350,2,0,L|75:277|75:277,2,55,2|0|8,0:3|0:0|0:0,0:0:0:0:
221,347,51959,6,0,L|353:371,1,110,2|8,0:3|0:0,0:0:0:0:
437,347,52568,2,0,B|463:324|478:284|472:246|472:246|529:193,2,165,2|2|8,0:3|0:3|0:0,0:0:0:0:
363,264,53786,1,2,0:3:0:0:
289,181,54091,2,0,L|219:190,1,55,8|2,0:0|0:2,0:0:0:0:
180,196,54395,6,0,P|139:160|132:92,1,110,2|8,0:3|0:0,0:0:0:0:
233,72,55005,2,0,B|286:89|286:89|338:72|338:72|410:93,2,165,2|2|8,0:3|0:2|0:0,0:0:0:0:
144,5,56223,2,0,L|74:14,1,55,10|0,0:3|0:0,0:0:0:0:
87,66,56527,2,0,L|17:75,1,55,8|2,0:0|0:2,0:0:0:0:
30,127,56832,6,0,P|19:213|63:258,1,110,6|8,0:2|0:0,0:0:0:0:
68,268,57289,2,0,B|118:244|118:244|182:252,1,110,2|0,0:3|0:0,0:0:0:0:
226,260,57746,1,8,0:0:0:0:
314,195,58050,2,0,P|325:109|281:64,1,110,6|8,0:2|0:0,0:0:0:0:
276,54,58507,2,0,B|226:78|226:78|162:70,1,110,6|0,0:2|0:0,0:0:0:0:
118,62,58964,1,8,0:0:0:0:
66,159,59268,6,0,B|43:206|43:206|57:273,1,110,6|8,0:2|0:0,0:0:0:0:
97,297,59725,2,0,P|144:272|217:292,1,110,2|0,0:2|0:0,0:0:0:0:
245,308,60182,2,0,L|308:301,1,55,8|2,0:0|0:2,0:0:0:0:
354,294,60487,6,0,B|410:155,1,110,6|8,3:2|3:1,0:0:0:0:
418,141,60944,2,0,B|367:122|367:122|340:73,1,110,0|2,3:1|0:2,0:0:0:0:
320,21,61400,2,0,B|269:2,1,55,8|2,0:0|0:2,0:0:0:0:
225,36,61705,6,0,B|174:17,1,55,4|4,0:2|0:2,0:0:0:0:
139,121,62162,2,0,B|119:172,1,55,4|4,0:2|0:2,0:0:0:0:
224,207,62619,2,0,B|275:225,1,55,4|4,0:2|0:2,0:0:0:0:
326,242,62923,2,0,L|348:359,2,110,2|2|2,0:3|0:2|0:2,0:0:0:0:
302,134,63837,1,2,0:2:0:0:
383,59,64142,6,0,L|442:3,1,55,4|4,0:2|0:2,0:0:0:0:
447,129,64598,2,0,L|464:208,1,55,4|4,0:2|0:2,0:0:0:0:
354,150,65055,2,0,L|276:126,1,55,4|4,0:2|0:2,0:0:0:0:
248,117,65360,2,0,P|187:131|118:98,2,110,2|2|2,0:3|0:2|0:2,0:0:0:0:
195,20,66274,1,2,0:2:0:0:
84,17,66578,6,0,L|10:15,1,55,4|4,0:2|0:2,0:0:0:0:
63,120,67035,2,0,L|9:170,1,55,4|4,0:2|0:2,0:0:0:0:
120,207,67492,2,0,L|118:281,1,55,4|4,0:2|0:2,0:0:0:0:
118,316,67796,2,0,B|65:336|65:336|1:328,2,110,2|8|2,0:3|0:3|0:2,0:0:0:0:
214,263,68710,1,8,0:3:0:0:
307,319,69015,6,0,L|391:370,1,55,4|4,0:2|0:2,0:0:0:0:
429,266,69472,2,0,L|515:218,1,55,4|4,0:2|0:2,0:0:0:0:
444,133,69928,2,0,L|446:34,1,55,8|0,0:3|2:0,0:0:0:0:
396,52,70233,2,0,B|289:18|289:98|182:52,1,220,6|8,0:2|0:3,0:0:0:0:
80,12,71147,1,8,0:3:0:0:
0,88,71451,6,0,L|17:210,1,110,6|8,0:2|0:0,0:0:0:0:
122,220,72060,2,0,L|139:342,1,110,2|8,0:3|0:0,0:0:0:0:
243,355,72669,2,0,P|323:346|381:272,2,165,6|2|8,0:2|0:2|0:0,0:0:0:0:
272,248,73888,6,0,L|304:128,1,110,6|8,0:2|0:0,0:0:0:0:
230,56,74497,2,0,L|198:176,1,110,2|8,0:2|0:0,0:0:0:0:
162,265,75106,2,0,P|115:230|99:119,2,165,6|2|8,0:2|0:2|0:0,0:0:0:0:
272,248,76324,6,0,B|327:255|327:255|382:312,1,110,0|8,0:0|0:0,0:0:0:0:
280,365,76933,2,0,B|112:343|112:343,1,165,2|2,0:2|0:2,0:0:0:0:
61,335,77543,2,0,P|107:283|83:212,1,110,6|8,0:2|0:0,0:0:0:0:
88,193,77999,2,0,B|197:206,1,110,2|2,0:2|0:3,0:0:0:0:
251,215,78456,1,8,0:0:0:0:
294,113,78761,5,8,0:3:0:0:
294,113,78913,1,4,0:3:0:0:
226,24,79218,5,8,0:3:0:0:
226,24,79370,1,4,0:3:0:0:
115,38,79675,5,8,0:3:0:0:
115,38,79827,1,4,0:0:0:0:
72,309,80588,6,0,L|188:287,1,110,2|0,0:2|2:0,0:0:0:0:
208,241,81045,6,0,P|246:278|355:255,1,165,4|8,0:0|0:0,0:0:0:0:
393,161,81807,2,0,L|451:150,2,55,2|0|8,0:3|0:0|0:0,0:0:0:0:
338,166,82263,2,0,B|314:174|284:156|284:156|271:96|209:89,1,165,2|8,0:3|0:0,0:0:0:0:
101,66,83025,2,0,L|43:55,2,55,2|0|8,0:2|0:0|0:0,0:0:0:0:
139,106,83482,6,0,B|172:184|104:184|144:268,1,165,4|8,0:2|0:0,0:0:0:0:
243,221,84243,2,0,B|296:209|296:209|356:240,1,110,2|8,0:3|0:0,0:0:0:0:
393,261,84700,2,0,P|451:230|450:113,1,165,2|8,0:2|0:0,0:0:0:0:
432,94,85309,2,0,B|379:109|379:109|329:63|256:81,1,165,2|8,0:3|0:0,0:0:0:0:
244,32,85918,6,0,B|242:115|242:115|161:171,1,165,4|8,0:2|0:0,0:0:0:0:
152,269,86680,2,0,L|84:315,2,55,2|0|8,0:3|0:0|0:0,0:0:0:0:
195,235,87136,2,0,B|259:231|291:278|291:278|322:249|368:260,1,165,4|8,0:2|0:0,0:0:0:0:
449,242,87898,2,0,L|523:277,2,55,8|2|8,0:3|0:2|0:0,0:0:0:0:
409,203,88355,6,0,B|360:158|383:104|383:104|354:107|310:74,1,165,4|8,0:0|0:0,0:0:0:0:
234,36,89116,2,0,P|151:48|127:86,1,110,8|8,0:3|0:0,0:0:0:0:
131,119,89573,5,8,0:3:0:0:
210,195,89878,1,8,0:3:0:0:
162,293,90182,1,8,0:3:0:0:
53,277,90487,1,8,0:3:0:0:
34,168,90791,6,0,L|225:264,1,165,4|8,0:2|0:0,0:0:0:0:
281,286,91553,2,0,P|331:265|383:281,1,110,8|8,0:3|0:0,0:0:0:0:
423,319,92010,2,0,B|466:321|487:287|487:287|492:175,1,165,4|8,0:2|0:0,0:0:0:0:
429,106,92771,2,0,L|430:39,2,55,2|2|8,0:3|0:2|0:0,0:0:0:0:
426,161,93228,6,0,P|359:188|258:139,1,165,4|8,0:0|0:0,0:0:0:0:
206,73,93989,2,0,L|193:185,1,110,8|8,0:3|0:0,0:0:0:0:
179,291,94598,2,0,B|232:278|232:278|300:303,1,110,2|8,0:2|0:0,0:0:0:0:
371,364,95208,2,0,B|423:383,2,55,8|2|8,0:3|0:2|0:0,0:0:0:0:
366,309,95664,6,0,L|355:182,1,110,4|2,0:0|0:3,0:0:0:0:
351,144,96121,1,8,0:0:0:0:
247,107,96426,2,0,B|194:87,2,55,8|2|8,0:3|0:2|0:0,0:0:0:0:
287,69,96883,2,0,P|356:45|414:67,1,110,4|2,0:2|0:3,0:0:0:0:
439,76,97340,1,8,0:0:0:0:
456,184,97644,2,0,B|508:203,2,55,8|2|8,0:3|0:2|0:0,0:0:0:0:
403,166,98101,6,0,P|376:220|301:241,1,110,4|2,0:0|0:3,0:0:0:0:
278,245,98558,1,8,0:0:0:0:
176,285,98862,2,0,B|122:301|122:301|67:276,1,110,8|8,0:3|0:0,0:0:0:0:
23,254,99319,2,0,P|14:200|24:144,1,110,4|0,0:2|0:0,0:0:0:0:
43,94,99776,1,8,0:0:0:0:
145,130,100081,2,0,P|198:143|252:133,1,110,8|8,0:3|0:0,0:0:0:0:
299,103,100538,6,0,L|327:235,1,110,4|0,0:2|0:0,0:0:0:0:
336,263,100994,1,8,0:0:0:0:
230,230,101299,2,0,B|151:198|151:250|67:218,1,165,8|0,0:3|0:0,0:0:0:0:
26,182,101908,5,8,0:3:0:0:
10,71,102213,1,8,0:3:0:0:
109,23,102517,1,8,0:3:0:0:
186,101,102822,1,8,0:3:0:0:
134,199,103126,6,0,B|131:235|156:273|184:291|184:291|189:361,2,165,6|2|8,0:2|0:2|0:3,0:0:0:0:
245,196,104345,2,0,P|284:236|290:312,1,110,4|8,0:3|0:3,0:0:0:0:
356,378,104954,1,4,0:3:0:0:
464,370,105259,1,8,0:3:0:0:
511,272,105563,6,0,P|479:201|396:170,2,165,6|2|8,0:2|0:2|0:3,0:0:0:0:
403,280,106781,2,0,B|293:287|293:287|238:263,1,165,4|0,0:3|3:0,0:0:0:0:
193,239,107390,2,0,P|151:259|110:374,1,165,4|0,0:3|0:0,0:0:0:0:
218,348,108152,5,2,0:3:0:0:
218,348,108304,1,4,0:2:0:0:
298,273,108609,5,2,0:3:0:0:
298,273,108761,1,2,0:3:0:0:
273,166,109065,5,4,0:2:0:0:
273,166,109217,1,4,0:2:0:0:
353,90,109522,5,2,0:3:0:0:
353,90,109675,2,0,B|416:84|432:148|432:148|424:160|416:168|416:168|432:208|432:208|424:220|416:228|416:228|432:268|432:268|424:280|416:288|416:288|432:328|432:328|420:340|412:344|412:344|432:392,1,385,2|4,0:3|0:0,0:0:0:0:
256,192,110893,12,4,115157,0:0:0:0:
