osu file format v14

[General]
AudioFilename: [Forunesia] Great Distance.mp3
AudioLeadIn: 0
PreviewTime: 80168
Countdown: 0
SampleSet: Normal
StackLeniency: 0.7
Mode: 0
LetterboxInBreaks: 0
WidescreenStoryboard: 0

[Editor]
Bookmarks: 69888
DistanceSpacing: 1
BeatDivisor: 4
GridSize: 8
TimelineZoom: 1.8

[Metadata]
Title:Great Distance
TitleUnicode:Great Distance
Artist:ryo (supercell) feat.chelly
ArtistUnicode:ryo (supercell) feat.chelly
Creator:monstrata
Version:Insane
Source:ブレイブリーセカンド
Tags:chelly bravely second end layer opening theme square enix 吉田明彦 akihiko yoshida egoist nintendo
BeatmapID:741619
BeatmapSetID:329473

[Difficulty]
HPDrainRate:5
CircleSize:4
OverallDifficulty:8
ApproachRate:8.8
SliderMultiplier:1.6
SliderTickRate:1

[Events]
//Background and Video events
0,0,"free-bravely-default-hd-desktop-wallpaper.jpg",0,0
//Break Periods
//Storyboard Layer 0 (Background)
//Storyboard Layer 1 (Fail)
//Storyboard Layer 2 (Pass)
//Storyboard Layer 3 (Foreground)
//Storyboard Sound Samples

[TimingPoints]
10538,304.568527918782,4,1,0,50,1,0
12213,-133.333333333333,4,2,0,50,0,0
12669,-100,4,1,0,50,0,0
27593,-133.333333333333,4,2,0,50,0,0
28812,-133.333333333333,4,2,0,35,0,0
28964,-133.333333333333,4,2,0,50,0,0
30030,-133.333333333333,4,2,0,35,0,0
30334,-133.333333333333,4,2,0,50,0,0
31248,-133.333333333333,4,2,0,35,0,0
31705,-133.333333333333,4,2,0,50,0,0
32466,-133.333333333333,4,2,0,35,0,0
32771,-133.333333333333,4,2,0,50,0,0
33380,-133.333333333333,4,2,0,35,0,0
33532,-133.333333333333,4,2,0,50,0,0
34903,-133.333333333333,4,2,0,35,0,0
35208,-133.333333333333,4,2,0,50,0,0
36121,-133.333333333333,4,2,0,35,0,0
36426,-133.333333333333,4,2,0,50,0,0
36730,-133.333333333333,4,2,0,35,0,0
36883,-133.333333333333,4,2,0,50,0,0
37340,-100,4,1,0,50,0,0
61705,-100,4,2,0,45,0,0
68101,-100,4,2,0,35,0,0
68253,-100,4,2,0,45,0,0
68710,-100,4,2,0,35,0,0
68862,-100,4,2,0,45,0,0
71451,-100,4,1,0,50,0,0
80588,-133.333333333333,4,2,0,35,0,0
81045,-100,4,1,0,60,0,1
89573,-100,4,1,0,50,0,1
89878,-90.9090909090909,4,1,0,50,0,1
90182,-83.3333333333333,4,1,0,50,0,1
90487,-76.9230769230769,4,1,0,50,0,1
90791,-100,4,1,0,50,0,1
110741,-100,4,1,0,50,0,0
115157,-100,4,1,0,35,0,0

[Colours]
Combo1 : 128,255,255
Combo2 : 255,128,0
Combo3 : 38,147,255
Combo4 : 128,0,255

[HitObjects]
318,247,12365,6,0,P|358:293|427:294,1,120.000004577637,0|0,0:0|3:3,0:0:0:0:
468,192,12822,6,0,L|393:219,1,80,6|0,0:1|0:0,0:0:0:0:
332,167,13126,1,2,0:3:0:0:
254,193,13279,2,0,P|235:245|255:299,1,80,8|0,0:0|0:0,0:0:0:0:
296,326,13583,2,0,L|407:354,2,80,2|2|8,0:3|0:2|0:0,0:0:0:0:
160,290,14040,6,0,B|121:280|121:280|90:214,1,80,6|0,0:0|0:0,0:0:0:0:
76,169,14345,1,2,0:3:0:0:
126,105,14497,2,0,P|172:102|203:117,1,80,8|0,0:0|0:0,0:0:0:0:
230,190,14801,2,0,P|191:196|155:181,2,80,2|2|8,0:3|0:2|0:0,0:0:0:0:
329,66,15258,6,0,P|368:60|404:75,1,80,6|0,0:0|0:0,0:0:0:0:
358,139,15563,1,2,0:3:0:0:
280,128,15715,2,0,P|255:95|250:57,1,80,8|0,0:0|0:0,0:0:0:0:
172,45,16020,2,0,L|83:30,2,80,2|2|8,0:3|0:2|0:0,0:0:0:0:
230,190,16477,6,0,L|319:205,1,80,6|0,0:0|0:0,0:0:0:0:
358,139,16781,1,0,0:0:0:0:
250,54,16933,1,8,0:0:0:0:
280,128,17086,1,0,0:0:0:0:
407,76,17238,1,2,0:3:0:0:
328,65,17390,1,0,0:0:0:0:
309,203,17543,1,8,0:0:0:0:
358,139,17695,1,0,0:0:0:0:
202,116,17847,6,0,P|166:144|151:187,1,80,4|0,0:3|0:0,0:0:0:0:
181,253,18152,1,8,0:0:0:0:
309,203,18304,2,0,L|219:189,1,80,8|0,0:3|0:0,0:0:0:0:
181,253,18609,1,8,0:0:0:0:
338,278,18761,2,0,L|427:293,1,80,8|0,0:3|0:0,0:0:0:0:
287,341,19065,6,0,L|104:310,1,160,4|8,0:3|0:0,0:0:0:0:
102,239,19522,1,0,0:0:0:0:
73,163,19675,2,0,L|47:96,2,40,2|0|0,0:3|0:0|0:0,0:0:0:0:
20,226,19979,2,0,L|-25:281,2,40,8|0|0,0:0|0:0|0:0,0:0:0:0:
155,178,20284,6,0,L|216:102,1,80,4|0,0:2|0:0,0:0:0:0:
255,54,20588,1,8,0:0:0:0:
313,203,20741,2,0,L|216:187,1,80,8|0,0:3|0:0,0:0:0:0:
155,178,21045,1,8,0:0:0:0:
284,128,21197,2,0,L|363:141,1,80,8|0,0:3|0:0,0:0:0:0:
442,153,21502,6,0,P|436:110|401:71,2,80,4|8|8,0:3|0:3|0:3,0:0:0:0:
394,216,21959,1,0,0:0:0:0:
346,279,22111,2,0,P|351:321|386:360,2,80,4|8|8,0:3|0:3|0:3,0:0:0:0:
394,216,22568,1,0,0:0:0:0:
394,216,22873,5,2,0:3:0:0:
412,79,23025,1,2,0:3:0:0:
284,128,23329,5,2,0:3:0:0:
346,279,23482,1,0,0:3:0:0:
442,153,23786,5,4,0:2:0:0:
234,189,23939,1,4,0:2:0:0:
298,342,24243,5,2,0:3:0:0:
394,216,24395,1,2,0:3:0:0:
267,268,24548,1,0,0:0:0:0:
425,290,24700,2,0,L|495:299,2,40,0|0|2,0:0|0:0|0:2,0:0:0:0:
313,203,25005,6,0,P|259:189|188:273,1,160,4|0,0:0|0:0,0:0:0:0:
346,279,25461,2,0,L|405:201,1,80,8|0,0:0|0:0,0:0:0:0:
362,140,25766,2,0,L|313:203,1,80,2|0,0:3|0:0,0:0:0:0:
377,354,26070,2,0,L|436:276,1,80,8|0,0:0|0:0,0:0:0:0:
267,268,26375,6,0,L|169:255,1,80,6|0,0:2|0:0,0:0:0:0:
218,331,26680,1,8,0:0:0:0:
346,279,26832,2,0,L|405:201,1,80,6|0,0:2|0:0,0:0:0:0:
313,203,27136,1,8,0:3:0:0:
296,341,27289,2,0,P|327:357|395:341,1,80,8|0,0:3|3:0,0:0:0:0:
472,227,27593,5,4,0:2:0:0:
472,227,27746,1,0,0:0:0:0:
442,153,27898,2,0,B|384:130|384:172|325:143,2,120.000004577637,2|0|2,0:2|3:0|0:2,0:0:0:0:
296,341,28812,2,0,B|354:364|354:322|413:351,2,120.000004577637,8|0|2,0:3|3:0|0:2,0:0:0:0:
267,268,29573,1,0,0:0:0:0:
238,195,29725,2,0,L|154:182,1,60.0000022888184,2|0,0:2|0:0,0:0:0:0:
56,297,30030,5,4,0:3:0:0:
56,297,30182,1,8,0:3:0:0:
129,307,30334,2,0,B|188:317|188:317|263:287,2,120.000004577637,2|0|2,0:2|3:0|0:2,0:0:0:0:
307,97,31248,2,0,B|248:87|248:87|173:117,2,120.000004577637,2|0|2,0:2|3:0|0:2,0:0:0:0:
385,115,32010,1,0,0:0:0:0:
408,191,32162,2,0,L|430:267,1,60.0000022888184,2|0,0:2|0:0,0:0:0:0:
296,341,32466,5,4,0:3:0:0:
296,341,32619,1,8,0:3:0:0:
267,268,32771,2,0,B|240:189|240:189|251:136,2,120.000004577637,2|0|2,0:2|3:0|0:3,0:0:0:0:
462,133,33685,2,0,B|489:212|489:212|478:265,2,120.000004577637,2|0|0,0:2|3:0|0:0,0:0:0:0:
385,115,34446,1,0,0:0:0:0:
330,172,34598,2,0,L|272:233,1,60.0000022888184,0|0,3:0|0:0,0:0:0:0:
155,178,34903,5,4,0:3:0:0:
155,178,35055,1,8,0:3:0:0:
205,115,35208,2,0,P|200:72|175:40,1,60.0000022888184,2|0,0:2|0:0,0:0:0:0:
125,102,35512,2,0,P|84:84|44:90,1,60.0000022888184,0|0,0:0|0:0,0:0:0:0:
73,164,35817,2,0,P|37:190|22:227,1,60.0000022888184,2|0,0:2|0:0,0:0:0:0:
100,240,36121,6,0,P|105:283|185:334,1,120.000004577637,4|0,0:3|0:0,0:0:0:0:
258,268,36578,2,0,P|252:224|173:174,1,120.000004577637,2|2,0:2|0:2,0:0:0:0:
73,164,37035,2,0,P|37:190|22:227,1,60.0000022888184,2|0,0:3|0:0,0:0:0:0:
179,254,37340,6,0,L|353:285,1,160,6|0,0:2|0:0,0:0:0:0:
398,163,37796,2,0,P|338:199|337:284,1,160,4|0,0:2|0:0,0:0:0:0:
475,278,38253,2,0,L|405:241,1,80,2|2,0:3|0:2,0:0:0:0:
390,81,38558,6,0,P|470:127|467:203,1,160,6|0,0:2|0:0,0:0:0:0:
324,129,39015,2,0,P|323:36|391:1,1,160,4|0,0:2|0:0,0:0:0:0:
398,162,39472,2,0,L|407:255,1,80,2|2,0:3|0:2,0:0:0:0:
469,325,39776,6,0,P|413:272|336:281,1,160,6|0,0:2|0:0,0:0:0:0:
194,316,40233,2,0,P|251:370|328:361,1,160,4|0,0:2|0:0,0:0:0:0:
344,201,40690,2,0,L|352:117,1,80,6|0,0:2|0:0,0:0:0:0:
214,107,40994,6,0,L|364:215,1,160
409,247,41451,1,0,0:0:0:0:
488,133,41603,1,2,2:2:0:0:
416,167,41756,1,0,2:0:0:0:
474,292,41908,1,2,2:2:0:0:
481,214,42060,1,0,3:0:0:0:
344,201,42213,5,2,2:2:0:0:
324,183,43431,5,2,2:2:0:0:
304,165,44649,6,0,L|208:148,1,80,4|0,0:0|0:0,0:0:0:0:
146,137,44954,1,2,0:2:0:0:
146,137,45106,1,0,0:0:0:0:
94,198,45258,1,2,0:2:0:0:
94,198,45410,1,0,0:0:0:0:
120,273,45563,1,2,0:2:0:0:
120,273,45715,1,0,0:0:0:0:
223,362,45867,5,2,0:2:0:0:
198,287,46020,1,0,0:0:0:0:
69,333,46172,1,8,0:0:0:0:
146,348,46325,1,0,0:0:0:0:
171,212,46477,1,2,0:2:0:0:
120,273,46629,1,0,0:0:0:0:
249,225,46781,1,8,0:0:0:0:
94,198,46933,1,0,0:0:0:0:
146,348,47086,6,0,L|242:366,1,80,4|0,0:2|0:0,0:0:0:0:
328,240,47390,2,0,L|232:222,1,80,8|0,0:0|0:0,0:0:0:0:
354,315,47695,2,0,P|395:284|407:240,1,80,2|0,0:2|0:0,0:0:0:0:
301,164,47999,1,8,0:0:0:0:
275,300,48152,6,0,P|282:350|314:383,1,80,2|2,0:3|0:3,0:0:0:0:
354,315,48456,1,0,0:0:0:0:
249,225,48609,2,0,P|208:256|196:300,1,80,8|0,0:0|0:0,0:0:0:0:
328,240,48913,1,2,0:3:0:0:
222,149,49065,1,0,0:0:0:0:
275,300,49218,1,8,0:0:0:0:
405,42,49522,5,2,0:3:0:0:
405,42,49675,2,0,L|316:78,1,80,2|8,0:2|0:0,0:0:0:0:
148,119,49979,1,2,0:3:0:0:
148,119,50132,2,0,L|236:155,1,80,2|0,0:3|0:0,0:0:0:0:
349,269,50435,1,8,0:0:0:0:
349,269,50588,6,0,L|260:305,1,80,2|2,0:3|0:3,0:0:0:0:
150,372,50893,1,2,0:2:0:0:
171,212,51045,2,0,L|245:182,1,80,8|0,0:0|0:0,0:0:0:0:
331,73,51350,2,0,L|257:104,2,80,2|0|8,0:3|0:0|0:0,0:0:0:0:
299,311,51959,6,0,L|373:280,1,80,2|0,0:3|0:0,0:0:0:0:
320,152,52263,2,0,L|309:231,1,80,8|0,0:0|0:0,0:0:0:0:
436,329,52568,2,0,P|451:292|442:240,2,80,2|2|8,0:3|0:2|0:0,0:0:0:0:
288,384,53025,6,0,L|208:373,1,80,2|2,0:3|0:3,0:0:0:0:
128,362,53329,1,2,0:2:0:0:
149,223,53482,2,0,P|172:257|176:307,1,80,8|0,0:0|0:0,0:0:0:0:
47,349,53786,2,0,P|24:315|20:265,1,80,2|0,0:3|0:0,0:0:0:0:
69,209,54091,1,8,0:0:0:0:
98,286,54243,1,2,0:2:0:0:
119,146,54395,6,0,P|82:129|17:149,1,80,2|0,0:3|0:0,0:0:0:0:
200,159,54700,2,0,P|196:118|146:72,1,80,8|2,0:0|0:2,0:0:0:0:
229,235,55005,2,0,P|262:211|277:145,1,80,2|0,0:3|0:0,0:0:0:0:
149,223,55309,1,8,0:0:0:0:
258,311,55461,6,0,L|356:327,1,80,2|2,0:2|0:3,0:0:0:0:
414,337,55766,1,0,0:0:0:0:
464,275,55918,2,0,L|531:286,2,40,8|0|0,0:0|0:0|0:0,0:0:0:0:
357,188,56223,1,10,0:3:0:0:
386,263,56375,1,0,0:0:0:0:
486,137,56527,1,8,0:0:0:0:
436,200,56679,1,2,0:2:0:0:
278,182,56832,6,0,L|171:165,1,80,6|0,0:2|0:0,0:0:0:0:
146,232,57136,1,8,0:0:0:0:
306,256,57289,2,0,P|349:217|316:112,1,160,6|0,0:2|0:0,0:0:0:0:
227,244,57746,2,0,L|256:318,1,80,8|2,0:0|0:2,0:0:0:0:
94,296,58050,6,0,P|70:265|65:221,1,80,6|0,0:2|0:0,0:0:0:0:
146,232,58355,1,8,0:0:0:0:
124,374,58507,2,0,P|80:376|-2:284,1,160,6|0,0:2|0:0,0:0:0:0:
175,309,58964,2,0,L|271:324,1,80,8|2,0:0|0:2,0:0:0:0:
199,169,59268,6,0,L|103:154,1,80,6|0,0:2|0:0,0:0:0:0:
146,232,59573,1,8,0:0:0:0:
281,184,59725,2,0,P|280:148|246:101,1,80,2|2,0:2|0:3,0:0:0:0:
199,169,60030,1,0,0:0:0:0:
310,263,60182,1,8,0:0:0:0:
446,213,60334,1,2,0:2:0:0:
446,213,60411,1,0,0:0:0:0:
446,213,60487,6,0,L|459:140,3,40,6|0|0|0,3:2|3:1|3:1|3:1,0:0:0:0:
368,137,60791,2,0,L|381:210,3,40,8|0|0|0,3:1|3:1|3:1|3:1,0:0:0:0:
438,95,61096,6,0,L|451:22,3,40,0|0|2|0,3:1|0:0|0:2|0:0,0:0:0:0:
360,19,61400,2,0,L|373:92,3,40,8|0|2|0,0:0|0:0|0:2|0:0,0:0:0:0:
293,90,61705,5,4,0:2:0:0:
216,116,61857,1,4,0:2:0:0:
184,273,62162,5,4,0:2:0:0:
260,247,62314,1,4,0:2:0:0:
124,221,62619,5,4,0:2:0:0:
109,299,62771,1,4,0:2:0:0:
168,351,62923,2,0,P|214:346|260:248,1,160,2|2,0:3|0:2,0:0:0:0:
199,194,63380,1,0,0:0:0:0:
184,273,63532,2,0,B|304:300|304:300|366:280,1,160,2|2,0:2|0:2,0:0:0:0:
415,264,63989,1,0,0:0:0:0:
371,131,64141,5,4,0:2:0:0:
355,210,64294,1,4,0:2:0:0:
475,318,64598,5,4,0:2:0:0:
491,239,64751,1,4,0:2:0:0:
339,288,65055,5,4,0:2:0:0:
398,341,65208,1,4,0:2:0:0:
415,264,65360,2,0,P|374:216|269:254,1,160,2|2,0:3|0:2,0:0:0:0:
264,312,65817,1,0,0:0:0:0:
339,288,65969,2,0,L|389:116,1,160,2|2,0:2|0:2,0:0:0:0:
327,76,66426,1,0,0:0:0:0:
223,172,66578,5,4,0:2:0:0:
303,154,66730,1,4,0:2:0:0:
191,36,67035,5,4,0:2:0:0:
111,54,67187,1,4,0:2:0:0:
198,250,67492,5,4,0:2:0:0:
223,172,67644,1,4,0:2:0:0:
142,189,67796,2,0,P|116:250|183:332,1,160,2|8,0:3|0:3,0:0:0:0:
244,318,68253,1,0,0:0:0:0:
198,250,68406,2,0,B|115:251|115:251|70:246|35:189,1,160,2|8,0:2|0:3,0:0:0:0:
7,144,68862,1,0,0:0:0:0:
111,54,69015,5,4,0:2:0:0:
86,132,69167,1,4,0:2:0:0:
198,250,69472,5,4,0:2:0:0:
223,172,69624,1,4,0:2:0:0:
385,60,69928,6,0,L|354:155,1,80,8|0,0:3|2:0,0:0:0:0:
228,93,70233,6,0,L|407:55,1,160,6|2,0:2|0:2,0:0:0:0:
491,178,70690,2,0,L|312:215,1,160,0|2,0:0|0:2,0:0:0:0:
223,234,71147,1,8,0:3:0:0:
290,278,71299,1,2,0:2:0:0:
267,167,71451,6,0,P|219:153|169:177,1,80,6|0,0:2|0:0,0:0:0:0:
246,345,71756,2,0,P|294:359|344:335,1,80,8|0,0:0|0:0,0:0:0:0:
223,234,72060,2,0,L|123:229,2,80,2|0|8,0:3|0:0|0:0,0:0:0:0:
483,316,72669,6,0,P|513:250|453:172,1,160,6|8,0:2|0:0,0:0:0:0:
311,192,73126,2,0,P|353:250|450:238,1,160,6|0,0:2|0:0,0:0:0:0:
506,110,73583,2,0,L|414:114,1,80,8|2,0:0|0:2,0:0:0:0:
284,39,73888,6,0,L|191:43,1,80,6|0,0:2|0:0,0:0:0:0:
131,185,74192,2,0,L|210:181,1,80,8|0,0:0|0:0,0:0:0:0:
87,118,74497,2,0,P|55:159|54:207,2,80,2|0|8,0:2|0:0|0:0,0:0:0:0:
311,192,75106,6,0,P|352:257|322:328,1,160,6|8,0:2|0:0,0:0:0:0:
232,195,75563,2,0,P|267:126|345:120,1,160,6|0,0:2|0:0,0:0:0:0:
273,262,76020,2,0,L|188:264,1,80,8|2,0:0|0:2,0:0:0:0:
71,196,76324,6,0,L|151:194,1,80,4|0,0:2|0:0,0:0:0:0:
234,331,76629,2,0,L|154:333,1,80,8|0,0:0|0:0,0:0:0:0:
112,264,76933,1,2,0:2:0:0:
273,262,77086,2,0,P|307:300|309:350,1,80,2|8,0:3|0:0,0:0:0:0:
234,331,77390,1,2,0:2:0:0:
232,195,77543,6,0,P|267:126|344:122,1,160,6|8,0:2|0:0,0:0:0:0:
434,249,77999,2,0,P|356:253|310:191,1,160,2|2,0:2|0:3,0:0:0:0:
424,106,78456,1,8,0:0:0:0:
424,106,78761,5,8,0:3:0:0:
373,39,78913,1,4,0:3:0:0:
456,30,79065,1,0,0:0:0:0:
393,183,79218,5,8,0:3:0:0:
342,116,79370,1,4,0:3:0:0:
424,106,79522,1,0,0:0:0:0:
361,259,79675,5,8,0:3:0:0:
259,127,79827,1,4,0:0:0:0:
259,127,80588,6,0,P|227:164|140:168,1,120.000004577637,2|0,0:2|2:0,0:0:0:0:
183,99,81045,6,0,L|368:168,1,160,4|2,0:0|0:2,0:0:0:0:
419,261,81502,2,0,L|344:232,1,80,8|0,0:0|0:0,0:0:0:0:
480,210,81807,2,0,P|498:255|483:307,2,80,2|0|8,0:3|0:0|0:0,0:0:0:0:
333,155,82263,6,0,L|183:211,1,160,2|2,0:3|0:3,0:0:0:0:
97,317,82720,2,0,L|171:288,1,80,8|0,0:0|0:0,0:0:0:0:
35,266,83025,2,0,P|17:310|32:362,2,80,2|0|8,0:2|0:0|0:0,0:0:0:0:
183,211,83482,6,0,L|368:280,1,160,4|0,0:2|0:0,0:0:0:0:
393,216,83939,2,0,L|469:153,1,80,8|2,0:0|0:2,0:0:0:0:
440,86,84243,2,0,L|502:35,2,80,2|0|8,0:3|0:0|0:0,0:0:0:0:
318,189,84700,6,0,P|321:249|432:286,1,160,2|2,0:2|0:2,0:0:0:0:
393,216,85157,1,8,0:0:0:0:
243,162,85309,2,0,L|53:196,1,160,2|2,0:3|0:3,0:0:0:0:
57,265,85766,1,8,0:0:0:0:
188,312,85918,6,0,L|267:298,1,80,4|2,0:2|0:2,0:0:0:0:
296,223,86223,1,2,0:3:0:0:
136,250,86375,2,0,P|109:301|117:344,1,80,8|0,0:0|0:0,0:0:0:0:
215,236,86680,1,2,0:3:0:0:
163,175,86832,1,0,0:0:0:0:
188,312,86984,1,8,0:0:0:0:
241,160,87136,6,0,P|212:113|171:95,1,80,4|2,0:2|0:2,0:0:0:0:
84,189,87441,1,0,0:0:0:0:
215,236,87593,2,0,P|270:234|306:207,1,80,8|0,0:0|0:0,0:0:0:0:
163,175,87898,1,8,0:3:0:0:
136,250,88050,1,2,0:2:0:0:
241,160,88202,1,8,0:0:0:0:
111,113,88355,6,0,L|79:204,1,80,4|2,0:0|0:2,0:0:0:0:
57,265,88659,1,0,0:0:0:0:
215,236,88812,1,8,0:0:0:0:
163,175,88964,1,0,0:0:0:0:
319,145,89116,1,8,0:3:0:0:
292,220,89268,1,0,0:0:0:0:
183,99,89421,1,8,0:0:0:0:
346,69,89573,6,0,P|404:72|446:114,1,120,8|0,0:3|2:0,0:0:0:0:
471,150,89878,6,0,P|406:152|359:196,1,132.00000402832,8|0,0:3|2:0,0:0:0:0:
331,235,90182,6,0,P|401:238|450:288,1,143.999995605469,8|0,0:3|2:0,0:0:0:0:
482,330,90487,6,0,P|404:333|346:386,1,155.999992858887,8|0,0:3|2:0,0:0:0:0:
308,380,90791,6,0,L|194:362,1,80,4|2,0:2|0:2,0:0:0:0:
148,354,91096,1,2,0:3:0:0:
171,217,91248,2,0,P|217:214|269:251,1,80,8|0,0:0|0:0,0:0:0:0:
120,279,91553,1,8,0:3:0:0:
93,203,91705,1,2,0:2:0:0:
199,292,91857,1,8,0:0:0:0:
40,266,92010,6,0,P|12:212|16:170,1,80,4|0,0:2|0:0,0:0:0:0:
143,142,92314,1,0,0:0:0:0:
120,279,92466,1,8,0:0:0:0:
93,203,92619,1,0,0:0:0:0:
249,231,92771,2,0,P|276:278|268:329,2,80,2|2|8,0:3|0:2|0:0,0:0:0:0:
66,130,93228,6,0,P|29:158|14:208,1,80,4|0,0:0|0:0,0:0:0:0:
120,279,93532,1,2,0:3:0:0:
222,155,93685,2,0,P|216:108|180:70,1,80,8|0,0:0|0:0,0:0:0:0:
171,217,93989,1,8,0:3:0:0:
249,231,94142,1,2,0:2:0:0:
143,142,94294,2,0,L|57:129,1,80,8|0,0:0|0:0,0:0:0:0:
120,279,94598,6,0,L|206:292,1,80,2|0,0:2|0:0,0:0:0:0:
302,167,94903,2,0,L|216:154,1,80,8|0,0:0|0:0,0:0:0:0:
276,307,95208,2,0,P|313:279|328:229,2,80,8|2|8,0:3|0:2|0:0,0:0:0:0:
171,217,95664,6,0,L|140:136,1,80,4|2,0:0|0:2,0:0:0:0:
192,79,95969,1,2,0:3:0:0:
352,109,96121,2,0,P|334:144|302:167,2,80,8|0|8,0:0|0:0|0:3,0:0:0:0:
327,29,96578,1,2,0:2:0:0:
271,90,96730,1,8,0:0:0:0:
434,129,96883,6,0,L|529:152,1,80,4|2,0:2|0:2,0:0:0:0:
489,70,97187,1,2,0:3:0:0:
352,109,97340,1,8,0:0:0:0:
375,189,97492,1,0,0:0:0:0:
434,129,97644,1,8,0:3:0:0:
293,167,97796,1,2,0:2:0:0:
396,270,97949,1,8,0:0:0:0:
352,109,98101,6,0,P|313:86|258:92,1,80,4|2,0:0|0:2,0:0:0:0:
293,167,98406,1,2,0:3:0:0:
457,211,98558,2,0,P|496:188|518:138,1,80,8|0,0:0|0:0,0:0:0:0:
375,189,98862,2,0,B|321:245|321:245|224:236,1,160,8|8,0:3|0:0,0:0:0:0:
133,153,99319,6,0,L|213:160,1,80,4|0,0:2|0:0,0:0:0:0:
293,167,99624,1,0,0:0:0:0:
167,225,99776,2,0,L|87:218,1,80,8|0,0:0|0:0,0:0:0:0:
180,88,100081,2,0,B|253:94|253:94|296:126|292:176,1,160,8|8,0:3|0:0,0:0:0:0:
396,270,100538,6,0,P|435:293|489:287,1,80,4|0,0:2|0:0,0:0:0:0:
457,211,100842,1,0,0:0:0:0:
315,247,100994,2,0,P|314:292|347:336,1,80,8|0,0:0|0:0,0:0:0:0:
294,165,101299,2,0,P|254:187|232:237,1,80,8|0,0:3|0:0,0:0:0:0:
354,105,101603,2,0,P|315:81|260:88,1,80,8|0,0:0|0:0,0:0:0:0:
133,153,101908,5,8,0:3:0:0:
167,226,102060,1,0,0:0:0:0:
294,165,102213,1,8,0:3:0:0:
213,157,102365,1,0,0:0:0:0:
204,299,102517,1,8,0:3:0:0:
250,233,102669,1,0,0:0:0:0:
123,292,102822,1,8,0:3:0:0:
285,306,102974,1,0,0:0:0:0:
213,157,103126,6,0,P|196:119|165:58,1,80,4|0,0:2|0:0,0:0:0:0:
133,153,103431,1,2,0:3:0:0:
294,165,103583,2,0,P|335:169|403:172,1,80,4|0,0:2|0:0,0:0:0:0:
337,97,103888,1,0,0:0:0:0:
250,233,104040,2,0,P|225:266|188:324,1,80,8|0,0:3|0:0,0:0:0:0:
329,239,104345,5,4,0:3:0:0:
167,226,104497,2,0,P|125:221|57:218,2,80,8|8|0,0:3|0:3|0:0,0:0:0:0:
285,306,104954,2,0,P|326:310|394:313,1,80,4|8,0:3|0:3,0:0:0:0:
294,165,105258,2,0,P|252:160|184:157,1,80,8|0,0:3|0:0,0:0:0:0:
204,299,105563,6,0,P|224:359|257:381,1,80,4|0,0:2|0:0,0:0:0:0:
250,233,105867,1,2,0:3:0:0:
133,153,106020,2,0,P|71:140|35:157,1,80,4|0,0:2|0:0,0:0:0:0:
167,226,106324,1,2,0:3:0:0:
294,165,106477,2,0,P|335:117|338:78,1,80,8|0,0:3|0:0,0:0:0:0:
213,157,106781,5,4,0:3:0:0:
204,299,106933,1,8,0:3:0:0:
329,239,107086,1,8,0:3:0:0:
250,233,107238,5,0,3:0:0:0:
363,310,107390,1,4,0:3:0:0:
373,173,107543,1,8,0:3:0:0:
285,306,107695,5,8,0:3:0:0:
444,315,107847,1,0,0:0:0:0:
444,315,108152,5,2,0:3:0:0:
329,239,108304,1,4,0:2:0:0:
204,299,108609,5,2,0:3:0:0:
363,310,108761,1,2,0:3:0:0:
294,165,109065,5,4,0:2:0:0:
238,372,109218,1,4,0:2:0:0:
329,239,109522,5,2,0:3:0:0:
167,226,109675,1,2,0:3:0:0:
285,306,109827,1,2,0:3:0:0:
213,157,109979,2,0,P|131:152|85:218,1,160,2|0,0:2|0:0,0:0:0:0:
250,233,110436,6,0,L|313:240,3,40,0|0|0|0,3:0|3:0|3:0|3:0,0:0:0:0:
349,291,110741,1,4,0:0:0:0:
256,192,110817,12,4,115157,0:0:0:0:
