osu file format v14

[General]
AudioFilename: [Forunesia] Great Distance.mp3
AudioLeadIn: 0
PreviewTime: 80168
Countdown: 0
SampleSet: Normal
StackLeniency: 0.7
Mode: 0
LetterboxInBreaks: 0
WidescreenStoryboard: 0

[Editor]
Bookmarks: 69888
DistanceSpacing: 1.2
BeatDivisor: 4
GridSize: 4
TimelineZoom: 1.8

[Metadata]
Title:Great Distance
TitleUnicode:Great Distance
Artist:ryo (supercell) feat.chelly
ArtistUnicode:ryo (supercell) feat.chelly
Creator:monstrata
Version:Hard
Source:ブレイブリーセカンド
Tags:chelly bravely second end layer opening theme square enix 吉田明彦 akihiko yoshida egoist nintendo
BeatmapID:742336
BeatmapSetID:329473

[Difficulty]
HPDrainRate:4
CircleSize:4
OverallDifficulty:6
ApproachRate:8
SliderMultiplier:1.3
SliderTickRate:1

[Events]
//Background and Video events
0,0,"free-bravely-default-hd-desktop-wallpaper.jpg",0,0
//Break Periods
//Storyboard Layer 0 (Background)
//Storyboard Layer 1 (Fail)
//Storyboard Layer 2 (Pass)
//Storyboard Layer 3 (Foreground)
//Storyboard Sound Samples

[TimingPoints]
10538,304.568527918782,4,1,0,50,1,0
12213,-133.333333333333,4,2,0,50,0,0
12669,-100,4,1,0,50,0,0
27593,-125,4,2,0,50,0,0
28812,-125,4,2,0,35,0,0
28964,-125,4,2,0,50,0,0
30030,-125,4,2,0,35,0,0
30334,-125,4,2,0,50,0,0
31248,-125,4,2,0,35,0,0
31705,-125,4,2,0,50,0,0
32466,-125,4,2,0,35,0,0
32771,-125,4,2,0,50,0,0
33380,-125,4,2,0,35,0,0
33532,-125,4,2,0,50,0,0
34903,-125,4,2,0,35,0,0
35208,-125,4,2,0,50,0,0
36121,-125,4,2,0,35,0,0
36426,-125,4,2,0,50,0,0
36730,-125,4,2,0,35,0,0
36883,-125,4,2,0,50,0,0
37340,-100,4,1,0,50,0,0
61705,-100,4,2,0,45,0,0
68101,-100,4,2,0,35,0,0
68253,-100,4,2,0,45,0,0
68710,-100,4,2,0,35,0,0
68862,-100,4,2,0,45,0,0
71451,-100,4,1,0,50,0,0
80588,-133.333333333333,4,2,0,35,0,0
81045,-100,4,1,0,60,0,1
89573,-100,4,1,0,50,0,1
89878,-90.9090909090909,4,1,0,50,0,1
90182,-83.3333333333333,4,1,0,50,0,1
90487,-76.9230769230769,4,1,0,50,0,1
90791,-100,4,1,0,50,0,1
110741,-100,4,1,0,50,0,0
115157,-100,4,1,0,35,0,0

[Colours]
Combo1 : 128,255,255
Combo2 : 255,128,0
Combo3 : 38,147,255
Combo4 : 128,0,255

[HitObjects]
286,132,12365,6,0,P|316:181|366:197,1,97.50000371933,0|0,0:0|3:3,0:0:0:0:
363,118,12822,6,0,P|331:68|246:65,1,130,6|2,0:1|0:3,0:0:0:0:
210,113,13279,1,8,0:0:0:0:
261,259,13583,2,0,L|344:275,2,65,2|2|8,0:3|0:2|0:0,0:0:0:0:
236,186,14040,6,0,P|190:224|205:310,1,130,6|2,0:0|0:3,0:0:0:0:
254,338,14497,1,8,0:0:0:0:
315,195,14801,2,0,L|287:115,2,65,2|2|8,0:3|0:2|0:0,0:0:0:0:
394,204,15258,6,0,P|439:165|425:80,1,130,6|2,0:0|0:3,0:0:0:0:
371,131,15715,1,8,0:0:0:0:
422,285,16020,2,0,L|449:364,2,65,2|2|8,0:3|0:2|0:0,0:0:0:0:
337,268,16477,6,0,L|186:238,1,130,6|0,0:0|0:0,0:0:0:0:
160,304,16933,2,0,L|109:361,1,65,8|0,0:0|0:0,0:0:0:0:
131,230,17238,2,0,L|55:215,1,65,2|0,0:3|0:0,0:0:0:0:
181,168,17543,2,0,L|156:95,1,65,8|0,0:0|0:0,0:0:0:0:
260,180,17847,6,0,L|335:194,2,65,4|0|8,0:3|0:0|0:0,0:0:0:0:
209,243,18304,2,0,L|145:255,2,65,8|0|8,0:3|0:0|0:0,0:0:0:0:
238,318,18761,2,0,L|313:332,1,65,8|0,0:3|0:0,0:0:0:0:
347,267,19065,6,0,P|416:260|454:200,1,130,4|8,0:3|0:0,0:0:0:0:
376,193,19522,1,0,0:0:0:0:
298,203,19675,2,0,L|235:325,1,130,2|8,0:3|0:0,0:0:0:0:
160,327,20131,1,0,0:0:0:0:
118,260,20284,6,0,L|42:245,2,65,4|0|8,0:2|0:0|0:0,0:0:0:0:
169,197,20741,2,0,L|232:184,2,65,8|0|8,0:3|0:0|0:0,0:0:0:0:
140,122,21197,2,0,L|64:107,1,65,8|0,0:3|0:0,0:0:0:0:
0,97,21502,6,0,P|5:139|36:172,1,65,4|8,0:3|0:3,0:0:0:0:
76,207,21807,2,0,P|91:235|93:267,1,65,8|0,0:3|0:0,0:0:0:0:
103,344,22111,2,0,L|164:315,1,65,4|8,0:3|0:3,0:0:0:0:
170,238,22416,2,0,L|231:267,1,65,8|0,0:3|0:0,0:0:0:0:
374,329,22873,5,2,0:3:0:0:
374,329,23025,1,2,0:3:0:0:
432,183,23329,5,2,0:3:0:0:
432,183,23481,1,0,0:3:0:0:
276,206,23786,5,4,0:2:0:0:
276,206,23938,1,4,0:2:0:0:
421,262,24243,5,2,0:3:0:0:
421,262,24395,2,0,P|473:252|467:112,1,195,2|2,0:3|0:2,0:0:0:0:
416,106,25005,6,0,L|260:118,1,130,4|0,0:0|0:0,0:0:0:0:
262,190,25461,2,0,L|184:196,1,65,8|0,0:0|0:0,0:0:0:0:
172,268,25766,2,0,L|94:274,2,65,2|0|8,0:3|0:0|0:0,0:0:0:0:
340,268,26375,6,0,L|417:274,2,65,6|0|8,0:2|0:0|0:0,0:0:0:0:
256,280,26832,2,0,P|232:328|142:349,1,130,6|8,0:2|0:3,0:0:0:0:
93,318,27289,2,0,L|15:276,1,65,8|0,0:3|3:0,0:0:0:0:
31,209,27593,6,0,L|88:178,1,52,4|0,0:2|0:0,0:0:0:0:
145,147,27898,2,0,P|192:181|256:170,2,104,2|0|2,0:2|3:0|0:2,0:0:0:0:
212,107,28659,2,0,P|263:107|303:139,1,104,0|0,0:0|0:0,0:0:0:0:
304,218,29116,1,0,3:0:0:0:
170,299,29421,2,0,L|103:301,1,52,2|0,0:2|0:0,0:0:0:0:
126,223,29725,2,0,L|90:166,1,52,2|0,0:2|0:0,0:0:0:0:
201,225,30030,6,0,L|266:221,1,52,4|8,0:3|0:3,0:0:0:0:
285,293,30334,2,0,P|331:291|376:246,2,104,2|0|2,0:2|3:0|0:2,0:0:0:0:
304,218,31096,2,0,L|329:115,1,104,0|0,0:0|0:0,0:0:0:0:
278,58,31553,1,0,3:0:0:0:
153,151,31857,2,0,P|159:181|188:211,1,52,2|0,0:2|0:0,0:0:0:0:
227,249,32162,2,0,B|274:299|274:299,1,52,2|0,0:2|0:0,0:0:0:0:
344,288,32466,6,0,L|407:274,1,52,4|8,0:3|0:3,0:0:0:0:
471,259,32771,2,0,P|495:190|480:154,2,104,2|0|2,0:2|3:0|0:3,0:0:0:0:
416,203,33532,2,0,L|339:119,1,104,2|0,0:2|0:0,0:0:0:0:
268,140,33989,1,0,3:0:0:0:
239,214,34142,2,0,P|192:231|142:217,1,104,2|0,0:2|0:0,0:0:0:0:
113,145,34598,2,0,L|90:83,1,52,0|0,3:0|0:0,0:0:0:0:
17,108,34903,6,0,L|40:170,1,52,4|8,0:3|0:3,0:0:0:0:
6,229,35208,2,0,L|47:332,2,104,2|0|2,0:2|3:0|0:2,0:0:0:0:
141,151,36121,2,0,L|192:158,2,52,4|8|0,0:3|0:3|0:0,0:0:0:0:
74,194,36578,2,0,L|23:187,2,52,2|8|0,0:2|0:3|0:2,0:0:0:0:
144,230,37035,2,0,L|195:237,1,52,2|0,0:3|0:0,0:0:0:0:
259,191,37340,6,0,P|299:161|388:190,1,130,6|0,0:2|0:0,0:0:0:0:
324,234,37796,2,0,P|316:283|383:348,1,130,4|0,0:2|0:0,0:0:0:0:
390,269,38253,2,0,L|452:239,1,65,2|2,0:3|0:2,0:0:0:0:
503,184,38558,6,0,P|487:122|431:92,1,130,6|0,0:2|0:0,0:0:0:0:
361,128,39015,2,0,P|306:160|246:141,1,130,4|0,0:2|0:0,0:0:0:0:
183,94,39472,2,0,L|96:113,1,65,2|2,0:3|0:2,0:0:0:0:
42,121,39776,6,0,B|32:217|32:217|63:271,1,130,6|0,0:2|0:0,0:0:0:0:
120,215,40233,2,0,P|180:198|234:231,1,130,4|0,0:2|0:0,0:0:0:0:
241,309,40690,2,0,P|296:279|312:217,1,130,6|0,0:2|0:0,0:0:0:0:
388,199,41147,2,0,B|441:190|441:190|480:221|481:281,1,130,6|0,0:2|0:0,0:0:0:0:
425,311,41603,6,0,L|353:324,1,65,2|0,2:2|2:0,0:0:0:0:
299,371,41908,2,0,L|227:384,1,65,2|0,2:2|3:0,0:0:0:0:
167,342,42213,5,2,2:2:0:0:
155,319,43431,5,2,2:2:0:0:
143,296,44649,6,0,L|224:272,1,65,4|0,0:0|0:0,0:0:0:0:
222,201,44954,1,2,0:2:0:0:
240,125,45106,1,0,0:0:0:0:
314,102,45258,2,0,P|345:118|372:163,1,65,2|0,0:2|0:0,0:0:0:0:
296,178,45563,1,2,0:2:0:0:
278,254,45715,1,0,0:0:0:0:
334,307,45867,6,0,L|403:371,1,65,2|0,0:2|0:0,0:0:0:0:
414,280,46172,2,0,L|503:252,1,65,8|0,0:0|0:0,0:0:0:0:
430,197,46477,2,0,L|450:105,1,65,2|0,0:2|0:0,0:0:0:0:
363,141,46781,2,0,L|294:76,1,65,8|0,0:0|0:0,0:0:0:0:
242,68,47086,6,0,P|209:60|178:67,1,65,4|0,0:2|0:0,0:0:0:0:
208,138,47390,2,0,P|184:162|175:192,1,65,8|0,0:0|0:0,0:0:0:0:
251,202,47695,2,0,P|280:248|251:329,1,130,2|8,0:2|0:0,0:0:0:0:
203,265,48152,6,0,B|117:265|117:265|77:232,1,130,2|0,0:3|0:0,0:0:0:0:
24,183,48609,2,0,P|17:152|24:120,1,65,8|0,0:0|0:0,0:0:0:0:
94,152,48913,2,0,L|158:202,2,65,2|0|8,0:3|0:0|0:0,0:0:0:0:
226,69,49522,5,2,0:3:0:0:
226,69,49675,2,0,L|301:77,1,65,2|8,0:2|0:0,0:0:0:0:
326,144,49979,1,2,0:3:0:0:
326,144,50132,2,0,L|251:152,1,65,2|0,0:3|0:0,0:0:0:0:
229,221,50436,5,8,0:0:0:0:
229,221,50589,2,0,L|304:229,1,65,2|2,0:3|0:3,0:0:0:0:
329,296,50893,1,2,0:2:0:0:
329,296,51046,2,0,L|254:304,1,65,8|0,0:0|0:0,0:0:0:0:
198,344,51350,2,0,L|123:352,2,65,2|0|8,0:3|0:0|0:0,0:0:0:0:
351,371,51959,6,0,P|383:354|403:319,1,65,2|0,0:3|0:0,0:0:0:0:
396,253,52263,2,0,L|467:212,1,65,8|0,0:0|0:0,0:0:0:0:
451,142,52568,2,0,P|471:98|434:22,1,130,2|8,0:3|0:0,0:0:0:0:
394,89,53025,6,0,B|336:118|336:118|242:106,1,130,2|2,0:3|0:2,0:0:0:0:
217,166,53482,2,0,B|152:157,1,65,8|0,0:0|0:0,0:0:0:0:
171,233,53786,2,0,B|131:284,1,65,2|0,0:3|0:0,0:0:0:0:
206,306,54091,2,0,B|231:366,1,65,8|2,0:0|0:2,0:0:0:0:
286,312,54395,6,0,B|350:320,1,65,2|0,0:3|0:0,0:0:0:0:
384,249,54700,2,0,B|448:257,1,65,8|2,0:0|0:2,0:0:0:0:
480,185,55005,2,0,P|510:147|494:64,1,130,2|8,0:3|0:0,0:0:0:0:
439,120,55461,6,0,B|374:128,1,65,2|2,0:2|0:3,0:0:0:0:
329,192,55766,1,0,0:0:0:0:
287,257,55918,2,0,B|222:265,1,65,8|0,0:0|0:0,0:0:0:0:
177,329,56223,1,10,0:3:0:0:
177,329,56375,1,0,0:0:0:0:
145,258,56527,1,8,0:0:0:0:
145,258,56680,1,2,0:2:0:0:
192,195,56832,6,0,P|224:155|197:63,1,130,6|8,0:2|0:0,0:0:0:0:
154,128,57289,2,0,L|143:273,1,130,6|0,0:2|0:0,0:0:0:0:
197,314,57746,1,8,0:0:0:0:
197,314,57898,1,2,0:2:0:0:
271,294,58050,6,0,B|336:272|336:312|400:288,1,130,6|8,0:2|0:0,0:0:0:0:
363,218,58507,2,0,P|336:155|379:91,1,130,2|0,0:2|0:0,0:0:0:0:
436,86,58964,1,8,0:0:0:0:
436,86,59116,1,2,0:2:0:0:
413,160,59268,6,0,L|263:177,1,130,6|8,0:2|0:0,0:0:0:0:
222,125,59725,2,0,P|203:183|260:250,1,130,2|0,0:2|0:0,0:0:0:0:
313,250,60182,1,8,0:0:0:0:
313,250,60334,1,2,0:2:0:0:
341,322,60487,6,0,P|383:338|458:297,1,130,6|8,3:2|3:1,0:0:0:0:
450,223,60944,2,0,B|446:154|446:154|434:121|383:111,1,130,2|2,1:3|0:2,0:0:0:0:
324,123,61400,2,0,L|235:132,1,65,8|2,0:0|0:2,0:0:0:0:
181,137,61705,5,4,0:2:0:0:
181,137,61857,1,4,0:2:0:0:
162,290,62162,1,4,0:2:0:0:
162,290,62314,1,4,0:2:0:0:
304,228,62619,1,4,0:2:0:0:
304,228,62771,1,4,0:2:0:0:
375,196,62923,6,0,L|438:172,1,65,2|0,0:3|0:0,0:0:0:0:
382,118,63228,2,0,L|392:51,1,65,2|0,0:2|0:0,0:0:0:0:
317,72,63532,2,0,L|264:29,1,65,2|0,0:2|0:0,0:0:0:0:
244,105,63837,2,0,L|181:129,1,65,2|0,0:2|0:0,0:0:0:0:
173,205,64142,5,4,0:2:0:0:
173,205,64294,1,4,0:2:0:0:
289,308,64598,1,4,0:2:0:0:
289,308,64750,1,4,0:2:0:0:
320,156,65055,1,4,0:2:0:0:
320,156,65207,1,4,0:2:0:0:
338,79,65360,6,0,P|381:54|415:57,1,65,2|0,0:3|0:0,0:0:0:0:
396,134,65664,2,0,P|445:133|473:153,1,65,2|0,0:2|0:0,0:0:0:0:
418,210,65969,2,0,P|461:234|475:265,1,65,2|0,0:2|0:0,0:0:0:0:
399,286,66274,2,0,P|423:329|421:363,1,65,2|0,0:2|0:0,0:0:0:0:
346,344,66578,5,4,0:2:0:0:
346,344,66730,1,4,0:2:0:0:
208,268,67035,1,4,0:2:0:0:
208,268,67187,1,4,0:2:0:0:
342,187,67492,1,4,0:2:0:0:
342,187,67644,1,4,0:2:0:0:
406,143,67796,6,0,L|398:74,1,65,2|0,0:3|0:0,0:0:0:0:
328,111,68101,2,0,L|264:83,1,65,8|0,0:3|0:0,0:0:0:0:
254,161,68406,2,0,L|194:134,1,65,2|0,0:2|0:0,0:0:0:0:
115,102,68711,2,0,L|123:167,1,65,8|0,0:3|0:0,0:0:0:0:
133,243,69015,5,4,0:2:0:0:
133,243,69167,1,4,0:2:0:0:
270,316,69472,1,4,0:2:0:0:
270,316,69624,1,4,0:2:0:0:
254,161,69928,2,0,L|194:134,1,65,8|0,0:3|2:0,0:0:0:0:
115,102,70233,6,0,P|102:165|35:196,1,130,6|2,0:2|0:2,0:0:0:0:
42,119,70690,2,0,P|55:56|122:25,1,130,2|2,0:3|0:2,0:0:0:0:
179,58,71147,2,0,L|254:88,1,65,8|2,0:3|0:2,0:0:0:0:
254,161,71451,6,0,B|319:183|319:143|383:167,2,130,6|8|2,0:2|0:0|0:3,0:0:0:0:
178,138,72213,1,0,0:0:0:0:
120,192,72365,2,0,L|58:250,1,65,8|0,0:0|0:0,0:0:0:0:
18,291,72669,6,0,P|78:274|131:307,1,130,6|8,0:2|0:0,0:0:0:0:
195,354,73126,2,0,B|232:373|232:373|280:343|341:353,1,130,2|0,0:2|0:0,0:0:0:0:
391,371,73583,1,8,0:0:0:0:
446,316,73735,1,2,0:2:0:0:
425,240,73888,6,0,B|456:176|400:176|424:112,2,130,6|8|2,0:2|0:0|0:2,0:0:0:0:
370,295,74649,1,0,0:0:0:0:
294,274,74801,2,0,L|207:249,1,65,8|0,0:0|0:0,0:0:0:0:
156,232,75106,6,0,P|232:208|254:137,1,130,6|8,0:2|0:0,0:0:0:0:
256,88,75563,2,0,B|280:72|280:72|352:72|352:72|376:88,1,130,2|0,0:2|0:0,0:0:0:0:
438,135,76020,1,8,0:0:0:0:
428,211,76172,1,2,0:2:0:0:
357,240,76324,6,0,L|275:273,1,65,4|0,0:2|0:0,0:0:0:0:
255,197,76629,2,0,L|173:164,1,65,8|0,0:0|0:0,0:0:0:0:
123,140,76933,1,2,0:2:0:0:
123,140,77086,2,0,L|61:164,1,65,2|8,0:3|0:0,0:0:0:0:
85,238,77390,1,2,0:2:0:0:
85,238,77543,6,0,P|52:295|95:370,1,130,6|8,0:2|0:0,0:0:0:0:
130,301,77999,2,0,B|191:274|191:274|272:303,1,130,2|2,0:2|0:3,0:0:0:0:
325,318,78456,2,0,P|358:300|384:256,1,65,8|0,0:0|0:0,0:0:0:0:
374,202,78761,5,8,0:3:0:0:
304,163,78913,2,0,P|272:169|246:192,1,65,4|0,0:3|0:0,0:0:0:0:
307,242,79218,5,8,0:3:0:0:
373,122,79370,2,0,P|351:96|318:85,1,65,4|0,0:3|0:0,0:0:0:0:
247,107,79675,5,8,0:3:0:0:
374,202,79827,1,4,0:0:0:0:
374,202,80588,6,0,P|384:249|351:306,1,97.50000371933,2|0,0:2|2:0,0:0:0:0:
307,242,81045,6,0,P|241:215|186:244,1,130,4|2,0:0|0:2,0:0:0:0:
247,293,81502,1,8,0:0:0:0:
253,136,81807,2,0,L|337:106,2,65,2|0|8,0:3|0:0|0:0,0:0:0:0:
179,160,82263,6,0,P|112:171|55:112,1,130,2|2,0:3|0:3,0:0:0:0:
133,95,82720,1,8,0:0:0:0:
226,219,83025,2,0,P|222:258|198:291,2,65,2|0|8,0:2|0:0|0:0,0:0:0:0:
148,232,83482,6,0,P|132:291|181:351,1,130,4|0,0:2|0:0,0:0:0:0:
246,349,83939,2,0,L|330:352,1,65,8|2,0:0|0:2,0:0:0:0:
372,303,84243,2,0,L|456:306,2,65,2|0|8,0:3|0:0|0:0,0:0:0:0:
299,273,84700,6,0,B|270:216|321:215|292:146,1,130,2|2,0:2|0:2,0:0:0:0:
225,104,85157,1,8,0:0:0:0:
176,164,85309,2,0,P|108:157|68:85,1,130,2|2,0:3|0:3,0:0:0:0:
91,34,85766,1,8,0:0:0:0:
148,90,85918,6,0,B|195:78|195:78|242:96|283:73,1,130,4|2,0:2|0:3,0:0:0:0:
349,56,86375,2,0,L|426:34,1,65,8|0,0:0|0:0,0:0:0:0:
414,116,86680,2,0,L|471:171,1,65,2|0,0:3|0:0,0:0:0:0:
443,237,86984,1,8,0:0:0:0:
423,311,87136,6,0,P|389:259|327:251,1,130,4|0,0:2|0:0,0:0:0:0:
270,304,87593,2,0,P|235:306|204:290,1,65,8|0,0:0|0:0,0:0:0:0:
252,228,87898,2,0,P|233:198|231:163,1,65,8|2,0:3|0:2,0:0:0:0:
309,173,88202,1,8,0:0:0:0:
383,197,88355,6,0,P|384:154|324:96,1,130,4|0,0:0|0:0,0:0:0:0:
252,66,88812,2,0,L|164:83,1,65,8|0,0:0|0:0,0:0:0:0:
139,139,89116,2,0,L|51:156,1,65,8|0,0:3|0:0,0:0:0:0:
61,227,89421,1,8,0:0:0:0:
46,302,89573,6,0,P|93:295|128:262,1,97.5,8|0,0:3|2:0,0:0:0:0:
136,228,89878,6,0,P|186:243|236:227,1,107.25000327301,8|0,0:3|2:0,0:0:0:0:
257,199,90182,6,0,P|300:238|358:245,1,116.999996429443,8|0,0:3|2:0,0:0:0:0:
388,229,90487,6,0,P|414:292|473:329,1,126.749994197846,8|0,0:3|2:0,0:0:0:0:
495,326,90791,6,0,P|524:270|517:206,1,130,4|2,0:2|0:3,0:0:0:0:
476,138,91248,2,0,L|389:124,1,65,8|0,0:0|0:0,0:0:0:0:
379,56,91553,2,0,L|292:42,1,65,8|2,0:3|0:2,0:0:0:0:
238,29,91857,1,8,0:0:0:0:
185,87,92010,6,0,B|174:136|215:171|215:171|202:228,1,130,4|0,0:2|0:0,0:0:0:0:
136,238,92466,2,0,L|118:319,1,65,8|0,0:0|0:0,0:0:0:0:
204,282,92771,2,0,L|265:338,1,65,2|2,0:3|0:2,0:0:0:0:
275,241,93076,1,8,0:0:0:0:
299,167,93228,6,0,P|354:145|418:182,1,130,4|2,0:0|0:3,0:0:0:0:
352,225,93685,1,8,0:0:0:0:
246,110,93989,2,0,P|250:75|273:41,1,65,8|2,0:3|0:2,0:0:0:0:
322,100,94294,1,8,0:0:0:0:
275,241,94598,6,0,P|244:257|202:258,1,65,4|0,0:2|0:0,0:0:0:0:
222,184,94903,1,8,0:0:0:0:
375,151,95208,2,0,P|405:169|426:204,1,65,8|2,0:3|0:2,0:0:0:0:
352,225,95513,1,8,0:0:0:0:
299,167,95664,6,0,L|162:126,1,130,4|2,0:0|0:3,0:0:0:0:
99,106,96121,1,8,0:0:0:0:
116,183,96273,1,0,0:0:0:0:
133,260,96426,2,0,L|201:280,2,65,8|2|8,0:3|0:2|0:0,0:0:0:0:
57,235,96883,6,0,L|25:103,1,130,4|2,0:2|0:3,0:0:0:0:
9,33,97340,1,8,0:0:0:0:
84,55,97493,1,0,0:0:0:0:
159,77,97644,2,0,L|225:61,2,65,8|2|8,0:3|0:2|0:0,0:0:0:0:
102,130,98101,6,0,P|136:195|217:207,1,130,4|2,0:0|0:3,0:0:0:0:
264,222,98558,2,0,P|303:230|330:256,1,65,8|0,0:0|0:0,0:0:0:0:
372,304,98862,1,8,0:3:0:0:
443,274,99015,1,0,3:0:0:0:
436,197,99167,1,8,0:0:0:0:
360,179,99319,6,0,P|310:133|320:52,1,130,4|0,0:2|0:0,0:0:0:0:
381,103,99776,1,8,0:0:0:0:
226,124,100081,1,8,0:3:0:0:
196,195,100233,1,0,3:0:0:0:
245,256,100385,1,8,0:0:0:0:
322,245,100538,6,0,P|366:295|348:375,1,130,4|0,0:2|0:0,0:0:0:0:
293,317,100994,2,0,L|210:334,1,65,8|0,0:0|0:0,0:0:0:0:
170,277,101299,1,8,0:3:0:0:
91,291,101451,1,0,0:0:0:0:
38,228,101603,2,0,P|39:196|52:167,1,65,8|0,0:0|0:0,0:0:0:0:
118,214,101908,6,0,L|200:198,1,65,4|0,0:2|0:0,0:0:0:0:
312,159,102213,1,8,0:3:0:0:
335,232,102365,1,0,0:0:0:0:
207,271,102517,5,8,0:3:0:0:
259,215,102669,1,0,0:0:0:0:
359,306,102822,1,8,0:3:0:0:
281,288,102974,1,0,0:0:0:0:
410,248,103126,6,0,P|434:307|407:364,1,130,6|2,0:2|0:3,0:0:0:0:
331,381,103583,2,0,L|205:349,1,130,4|0,0:2|0:0,0:0:0:0:
156,287,104040,2,0,L|93:270,1,65,8|0,0:3|0:0,0:0:0:0:
93,192,104345,6,0,L|155:175,1,65,4|8,0:3|0:3,0:0:0:0:
205,115,104649,2,0,L|267:98,1,65,8|0,0:3|0:0,0:0:0:0:
341,74,104954,2,0,P|345:109|323:155,1,65,4|8,0:3|0:3,0:0:0:0:
268,177,105258,2,0,P|258:207|261:239,1,65,8|0,0:3|0:0,0:0:0:0:
336,217,105563,6,0,P|405:229|437:294,1,130,4|2,0:2|0:3,0:0:0:0:
359,293,106020,2,0,B|226:328,1,130,4|2,0:2|0:3,0:0:0:0:
175,273,106477,2,0,B|108:290,1,65,8|0,0:3|0:0,0:0:0:0:
53,235,106781,6,0,P|33:207|29:156,1,65,4|8,0:3|0:3,0:0:0:0:
105,175,107086,2,0,P|119:144|161:115,1,65,8|0,0:3|3:0,0:0:0:0:
180,191,107390,2,0,P|203:169|217:139,1,65,4|8,0:3|0:3,0:0:0:0:
294,137,107695,2,0,P|286:105|268:79,1,65,8|0,0:3|0:0,0:0:0:0:
113,58,108152,5,2,0:3:0:0:
113,58,108304,1,4,0:2:0:0:
31,182,108609,5,2,0:3:0:0:
31,182,108761,1,2,0:3:0:0:
180,191,109065,5,4,0:2:0:0:
180,191,109217,1,4,0:2:0:0:
97,315,109522,5,2,0:3:0:0:
97,315,109675,2,0,L|53:379,1,65,2|2,0:3|0:3,0:0:0:0:
19,303,109979,2,0,P|44:256|142:252,1,130,2|0,0:2|0:0,0:0:0:0:
172,292,110436,6,0,B|202:303|202:303|232:292|232:292|263:303|263:303|293:292,1,130,0|4,3:0|0:0,0:0:0:0:
256,192,110817,12,4,115157,0:0:0:0:
