osu file format v14

[General]
AudioFilename: [Forunesia] Great Distance.mp3
AudioLeadIn: 0
PreviewTime: 80168
Countdown: 0
SampleSet: Soft
StackLeniency: 0.7
Mode: 0
LetterboxInBreaks: 0
WidescreenStoryboard: 1

[Editor]
Bookmarks: 69888
DistanceSpacing: 1
BeatDivisor: 4
GridSize: 4
TimelineZoom: 1.8

[Metadata]
Title:Great Distance
TitleUnicode:Great Distance
Artist:ryo (supercell) feat.chelly
ArtistUnicode:ryo (supercell) feat.chelly
Creator:monstrata
Version:Easy
Source:ブレイブリーセカンド
Tags:chelly bravely second end layer opening theme square enix 吉田明彦 akihiko yoshida egoist nintendo
BeatmapID:743740
BeatmapSetID:329473

[Difficulty]
HPDrainRate:2
CircleSize:3.3
OverallDifficulty:3
ApproachRate:3.5
SliderMultiplier:0.85
SliderTickRate:1

[Events]
//Background and Video events
0,0,"free-bravely-default-hd-desktop-wallpaper.jpg",0,0
//Break Periods
2,42413,43269
//Storyboard Layer 0 (Background)
//Storyboard Layer 1 (Fail)
//Storyboard Layer 2 (Pass)
//Storyboard Layer 3 (Foreground)
//Storyboard Sound Samples

[TimingPoints]
10538,304.568527918782,4,1,0,50,1,0
12669,-100,4,1,0,50,0,0
27593,-100,4,2,0,50,0,0
28812,-100,4,2,0,35,0,0
28964,-100,4,2,0,50,0,0
30030,-100,4,2,0,35,0,0
30334,-100,4,2,0,50,0,0
32466,-100,4,2,0,35,0,0
32771,-100,4,2,0,50,0,0
33380,-100,4,2,0,35,0,0
33532,-100,4,2,0,50,0,0
34903,-100,4,2,0,35,0,0
35208,-100,4,2,0,50,0,0
36121,-100,4,2,0,35,0,0
36426,-100,4,2,0,50,0,0
36730,-100,4,2,0,35,0,0
36883,-100,4,2,0,50,0,0
37340,-100,4,1,0,50,0,0
61705,-100,4,2,0,45,0,0
68101,-100,4,2,0,35,0,0
68253,-100,4,2,0,45,0,0
68710,-100,4,2,0,35,0,0
68862,-100,4,2,0,45,0,0
71451,-100,4,1,0,50,0,0
81045,-100,4,1,0,60,0,1
89573,-100,4,1,0,50,0,1
110741,-100,4,1,0,50,0,0
115157,-100,4,1,0,35,0,0

[Colours]
Combo1 : 128,255,255
Combo2 : 255,128,0
Combo3 : 38,147,255
Combo4 : 128,0,255

[HitObjects]
352,194,12822,6,0,P|416:211|450:276,2,127.5,6|8|2,0:1|0:0|0:2,0:0:0:0:
283,248,14040,2,0,P|281:312|333:364,2,127.5,6|8|2,0:0|0:0|0:2,0:0:0:0:
272,163,15258,6,0,L|389:75,1,127.5,6|8,0:0|0:0,0:0:0:0:
372,1,16020,2,0,P|450:45|460:92,2,127.5,2|2|8,0:3|0:2|0:0,0:0:0:0:
299,45,17238,2,0,P|257:84|224:93,1,85,2|8,0:3|0:0,0:0:0:0:
150,55,17847,6,0,B|132:93|147:147|185:167|185:167|201:310,1,255,4|8,0:2|0:3,0:0:0:0:
208,377,19065,2,0,P|251:359|280:312,1,85,4|8,0:3|0:0,0:0:0:0:
275,245,19675,2,0,P|302:212|342:198,1,85,2|8,0:3|0:0,0:0:0:0:
424,216,20284,6,0,B|434:170|402:128|366:113|366:113|239:128,1,255,4|8,0:2|0:3,0:0:0:0:
183,191,21502,2,0,B|100:233|100:160|18:200|18:200|57:144|35:75,1,297.5,4|2,0:3|0:3,0:0:0:0:
93,16,22873,6,0,P|160:61|256:41,1,170,2|0,0:3|0:3,0:0:0:0:
328,62,23786,2,0,P|410:49|479:94,1,170,4|2,0:2|0:3,0:0:0:0:
474,264,25005,6,0,L|336:296,1,127.5,4|8,0:0|0:0,0:0:0:0:
267,312,25766,2,0,L|203:245,1,85,2|8,0:3|0:0,0:0:0:0:
217,165,26375,2,0,P|167:176|121:259,2,127.5,6|6|8,0:2|0:2|0:3,0:0:0:0:
285,213,27593,6,0,P|300:173|289:120,2,85,4|2|0,0:2|0:2|0:0,0:0:0:0:
208,250,28507,1,2,0:2:0:0:
202,337,28812,2,0,L|114:379,2,85,8|0|2,0:3|3:0|0:2,0:0:0:0:
280,300,29725,1,2,0:2:0:0:
358,263,30030,6,0,P|366:306|345:354,2,85,4|2|0,0:3|0:2|0:0,0:0:0:0:
285,213,30944,1,2,0:2:0:0:
291,125,31248,2,0,L|375:85,2,85,2|0|2,0:2|3:0|0:2,0:0:0:0:
213,165,32162,1,2,0:2:0:0:
208,253,32466,6,0,L|201:347,1,85,4|2,0:3|0:2,0:0:0:0:
123,372,33076,2,0,P|84:359|55:328,1,85,0|2,0:0|0:3,0:0:0:0:
131,288,33685,1,0,0:0:0:0:
138,203,33989,1,0,3:0:0:0:
67,154,34294,2,0,P|58:112|71:72,1,85,0|0,0:0|3:0,0:0:0:0:
146,31,34903,6,0,L|230:50,1,85,4|2,0:3|0:2,0:0:0:0:
253,130,35512,2,0,L|336:148,1,85,0|2,0:0|0:2,0:0:0:0:
360,229,36121,1,4,0:3:0:0:
442,247,36426,1,0,0:0:0:0:
500,185,36730,2,0,P|498:137|474:101,1,85,8|2,0:3|0:3,0:0:0:0:
397,82,37340,6,0,B|336:60|336:104|272:80,2,127.5,6|2|2,0:2|0:3|0:3,0:0:0:0:
417,166,38558,2,0,B|428:216|428:216|472:228|488:280,2,127.5,6|4|2,0:2|0:2|0:3,0:0:0:0:
334,141,39776,6,0,P|288:167|268:245,2,127.5,6|4|6,0:2|0:2|0:2,0:0:0:0:
350,224,40994,2,0,L|380:376,2,127.5,0|2|2,0:0|0:3|2:2,0:0:0:0:
417,166,42213,5,2,2:2:0:0:
367,138,44649,6,0,L|257:117,1,85,4|2,0:0|0:2,0:0:0:0:
198,106,45258,2,0,L|157:180,1,85,2|2,0:2|0:2,0:0:0:0:
116,253,45867,2,0,L|174:314,1,85,2|2,0:2|0:2,0:0:0:0:
231,376,46477,2,0,L|307:339,1,85,2|2,0:2|0:2,0:0:0:0:
383,304,47086,6,0,L|371:219,1,85,4|8,0:2|0:0,0:0:0:0:
360,135,47695,2,0,P|310:103|238:123,2,127.5,2|2|8,0:2|0:3|0:0,0:0:0:0:
293,187,48913,2,0,L|225:238,1,85,2|8,0:3|0:0,0:0:0:0:
235,322,49522,6,0,P|195:317|149:278,1,85,2|8,0:3|0:0,0:0:0:0:
143,207,50131,2,0,B|133:123|133:123|76:77,2,127.5,2|2|8,0:3|0:3|0:0,0:0:0:0:
224,237,51350,2,0,L|325:273,1,85,2|8,0:3|0:0,0:0:0:0:
385,294,51959,6,0,P|425:274|454:220,1,85,2|8,0:3|0:0,0:0:0:0:
435,157,52568,2,0,B|421:73|421:73|452:26,2,127.5,2|2|8,0:3|0:3|0:0,0:0:0:0:
369,210,53786,2,0,P|318:203|286:179,1,85,2|8,0:3|0:0,0:0:0:0:
272,100,54395,6,0,P|239:78|194:74,1,85,2|8,0:3|0:0,0:0:0:0:
131,129,55005,2,0,P|129:178|183:238,2,127.5,2|2|8,0:3|0:2|0:0,0:0:0:0:
211,157,56223,1,10,0:3:0:0:
262,225,56527,1,8,0:0:0:0:
228,303,56832,6,0,L|101:338,2,127.5,6|6|8,0:2|0:2|0:0,0:0:0:0:
280,372,58050,2,0,P|334:374|392:324,2,127.5,6|6|8,0:2|0:2|0:0,0:0:0:0:
313,293,59268,6,0,B|330:254|380:235|421:253|421:253|469:189|412:119,1,255,6|8,0:2|0:0,0:0:0:0:
348,92,60487,2,0,B|224:40|224:160|105:93,1,255,6|8,3:2|0:0,0:0:0:0:
92,10,61705,6,0,P|27:63|43:154,1,170,4|2,0:2|0:2,0:0:0:0:
110,177,62619,1,4,0:2:0:0:
114,261,62923,2,0,L|118:356,2,85,2|2|2,0:3|0:2|0:2,0:0:0:0:
185,216,63837,1,2,0:2:0:0:
182,133,64142,6,0,P|229:92|331:135,1,170,4|4,0:2|0:2,0:0:0:0:
332,205,65055,1,4,0:2:0:0:
265,254,65360,2,0,L|183:316,2,85,2|2|2,0:3|0:2|0:2,0:0:0:0:
256,172,66274,1,2,0:2:0:0:
323,123,66578,6,0,L|405:61,2,85,4|0|4,0:2|0:0|0:2,0:0:0:0:
246,89,67492,1,4,0:2:0:0:
179,139,67796,2,0,P|172:184|197:231,1,85,2|8,0:3|0:3,0:0:0:0:
262,255,68406,2,0,P|277:294|269:335,1,85,2|8,0:2|0:3,0:0:0:0:
193,303,69015,6,0,L|116:356,2,85,4|0|4,0:2|0:0|0:2,0:0:0:0:
186,219,69928,1,8,0:3:0:0:
255,171,70233,2,0,P|296:177|328:204,1,85,6|2,0:2|0:2,0:0:0:0:
338,287,70842,2,0,P|370:314|411:320,1,85,0|8,0:0|0:3,0:0:0:0:
404,237,71451,6,0,L|420:135,1,85,6|8,0:2|0:0,0:0:0:0:
434,69,72060,2,0,P|392:72|352:101,1,85,2|8,0:3|0:0,0:0:0:0:
336,176,72669,2,0,P|291:200|211:171,2,127.5,6|6|8,0:2|0:2|0:0,0:0:0:0:
276,117,73888,6,0,L|206:47,1,85,6|8,0:2|0:0,0:0:0:0:
135,28,74497,2,0,P|89:27|52:49,1,85,2|8,0:2|0:0,0:0:0:0:
31,131,75106,2,0,P|61:177|138:189,2,127.5,6|6|8,0:2|0:2|0:0,0:0:0:0:
112,108,76324,6,0,P|154:110|189:132,1,85,4|8,0:2|0:0,0:0:0:0:
210,215,76933,2,0,L|233:303,1,85,2|8,0:2|0:0,0:0:0:0:
313,320,77543,2,0,P|356:319|420:256,2,127.5,2|2|8,0:2|0:2|0:0,0:0:0:0:
336,236,78761,6,0,P|333:202|304:154,1,85,8|0,0:3|0:0,0:0:0:0:
224,141,79370,2,0,B|188:155|140:140|140:140|91:159,1,127.5,4|4,0:3|0:0,0:0:0:0:
401,314,81045,6,0,P|461:300|498:249,1,127.5,4|8,0:0|0:0,0:0:0:0:
475,167,81807,2,0,B|448:89|448:89|472:36,2,127.5,2|2|8,0:3|0:3|0:0,0:0:0:0:
414,227,83025,1,2,0:2:0:0:
291,191,83482,6,0,P|225:203|188:260,1,127.5,4|8,0:2|0:0,0:0:0:0:
272,274,84243,2,0,L|399:312,1,127.5,2|2,0:3|0:2,0:0:0:0:
476,286,85005,2,0,P|495:244|493:196,2,85,2|2|2,0:2|0:3|0:3,0:0:0:0:
414,227,85918,6,0,B|370:214|370:214|337:120,1,127.5,4|8,0:2|0:0,0:0:0:0:
378,59,86680,2,0,B|440:40|440:80|504:60,2,127.5,2|4|8,0:3|0:2|0:0,0:0:0:0:
293,65,87898,1,8,0:3:0:0:
209,161,88355,6,0,P|172:211|180:273,1,127.5,4|8,0:0|0:0,0:0:0:0:
253,318,89116,2,0,P|305:301|339:224,1,127.5,8|8,0:3|0:3,0:0:0:0:
303,165,89878,1,8,0:3:0:0:
349,96,90182,1,8,0:3:0:0:
433,102,90487,1,8,0:3:0:0:
468,175,90791,6,0,B|498:257|498:257|481:308,1,127.5,4|8,0:2|0:0,0:0:0:0:
435,365,91553,2,0,P|380:370|321:318,2,127.5,8|4|8,0:3|0:2|0:0,0:0:0:0:
400,287,92771,1,2,0:3:0:0:
351,169,93228,6,0,L|209:140,1,127.5,4|8,0:0|0:0,0:0:0:0:
158,194,93989,2,0,B|120:276|192:272|154:357,2,170,8|4|8,0:3|0:2|0:3,0:0:0:0:
186,69,95664,6,0,L|328:40,1,127.5,4|8,0:0|0:0,0:0:0:0:
394,24,96426,2,0,P|440:60|445:140,2,127.5,8|4|8,0:3|0:2|0:0,0:0:0:0:
369,105,97644,1,8,0:3:0:0:
332,227,98101,6,0,L|190:256,1,127.5,4|8,0:0|0:0,0:0:0:0:
124,272,98862,2,0,P|78:236|73:156,2,127.5,8|4|8,0:3|0:2|0:0,0:0:0:0:
149,191,100081,1,8,0:3:0:0:
205,76,100538,6,0,P|254:114|276:183,1,127.5,4|8,0:2|0:0,0:0:0:0:
285,259,101299,2,0,L|381:286,1,85,8|8,0:3|0:0,0:0:0:0:
450,299,101908,2,0,L|521:229,2,85,8|8|8,0:3|0:3|0:3,0:0:0:0:
393,362,102822,1,8,0:3:0:0:
309,344,103126,6,0,B|226:326|226:326|204:286,2,127.5,2|2|8,0:2|0:2|0:3,0:0:0:0:
366,280,104345,2,0,L|431:206,1,85,4|8,0:3|0:3,0:0:0:0:
478,152,104954,2,0,P|442:133|388:138,1,85,4|8,0:3|0:3,0:0:0:0:
338,193,105563,6,0,P|277:185|233:123,2,127.5,6|2|8,0:2|0:2|0:3,0:0:0:0:
317,110,106781,2,0,L|293:12,1,85,4|8,0:3|0:3,0:0:0:0:
217,59,107390,2,0,P|175:83|159:157,1,127.5,4|0,0:3|0:0,0:0:0:0:
205,227,108152,6,0,P|175:302|95:311,1,170,2|2,0:3|0:3,0:0:0:0:
37,247,109065,2,0,B|-8:167|72:167|24:75,2,170,4|2|2,0:2|0:3|0:2,0:0:0:0:
256,192,110741,12,4,115157,0:0:0:0:
