osu file format v14

[General]
AudioFilename: [Forunesia] Great Distance.mp3
AudioLeadIn: 0
PreviewTime: 80168
Countdown: 0
SampleSet: Normal
StackLeniency: 0.7
Mode: 0
LetterboxInBreaks: 0
WidescreenStoryboard: 0

[Editor]
DistanceSpacing: 1.4
BeatDivisor: 4
GridSize: 8
TimelineZoom: 2.599999

[Metadata]
Title:Great Distance
TitleUnicode:Great Distance
Artist:ryo (supercell) feat.chelly
ArtistUnicode:ryo (supercell) feat.chelly
Creator:monstrata
Version:Awakened
Source:ブレイブリーセカンド
Tags:chelly bravely second end layer opening theme square enix 吉田明彦 akihiko yoshida egoist nintendo
BeatmapID:741572
BeatmapSetID:329473

[Difficulty]
HPDrainRate:6
CircleSize:4
OverallDifficulty:8.7
ApproachRate:9.3
SliderMultiplier:1.7
SliderTickRate:1

[Events]
//Background and Video events
0,0,"free-bravely-default-hd-desktop-wallpaper.jpg",0,0
//Break Periods
//Storyboard Layer 0 (Background)
//Storyboard Layer 1 (Fail)
//Storyboard Layer 2 (Pass)
//Storyboard Layer 3 (Foreground)
//Storyboard Sound Samples

[TimingPoints]
10538,304.568527918782,4,1,0,50,1,0
12213,-133.333333333333,4,2,0,50,0,0
12669,-100,4,1,0,50,0,0
27593,-133.333333333333,4,2,0,50,0,0
28812,-133.333333333333,4,2,0,35,0,0
28964,-133.333333333333,4,2,0,50,0,0
30030,-133.333333333333,4,2,0,35,0,0
30334,-133.333333333333,4,2,0,50,0,0
31248,-133.333333333333,4,2,0,35,0,0
31705,-133.333333333333,4,2,0,50,0,0
32466,-133.333333333333,4,2,0,35,0,0
32771,-133.333333333333,4,2,0,50,0,0
33380,-133.333333333333,4,2,0,35,0,0
33532,-133.333333333333,4,2,0,50,0,0
34903,-133.333333333333,4,2,0,35,0,0
35208,-133.333333333333,4,2,0,50,0,0
36121,-133.333333333333,4,2,0,35,0,0
36426,-133.333333333333,4,2,0,50,0,0
36730,-133.333333333333,4,2,0,35,0,0
36883,-133.333333333333,4,2,0,50,0,0
37340,-100,4,1,0,50,0,0
61705,-100,4,2,0,45,0,0
68101,-100,4,2,0,35,0,0
68253,-100,4,2,0,45,0,0
68710,-100,4,2,0,35,0,0
68862,-100,4,2,0,45,0,0
71451,-100,4,1,0,50,0,0
80588,-133.333333333333,4,2,0,35,0,0
81045,-100,4,1,0,60,0,1
89573,-71.4285714285714,4,1,0,50,0,1
90791,-100,4,1,0,50,0,1
110741,-100,4,1,0,50,0,0
115157,-100,4,1,0,35,0,0

[Colours]
Combo1 : 128,255,255
Combo2 : 255,128,0
Combo3 : 38,147,255
Combo4 : 128,0,255

[HitObjects]
256,141,12365,6,0,P|292:145|330:139,2,63.7500024318696,0|0|0,0:0|0:0|3:3,0:0:0:0:
173,157,12822,6,0,L|68:181,1,85,6|0,0:1|0:0,0:0:0:0:
64,256,13126,1,2,0:3:0:0:
230,219,13279,2,0,P|252:184|254:132,1,85,8|0,0:0|0:0,0:0:0:0:
198,75,13583,2,0,L|115:93,2,85,2|2|8,0:3|0:2|0:0,0:0:0:0:
339,157,14040,6,0,L|444:181,1,85,6|0,0:0|0:0,0:0:0:0:
448,256,14345,1,2,0:3:0:0:
282,219,14497,2,0,P|260:184|258:132,1,85,8|0,0:0|0:0,0:0:0:0:
314,75,14801,2,0,L|396:93,2,85,2|2|8,0:3|0:2|0:0,0:0:0:0:
57,31,15258,6,0,P|31:76|38:130,1,85,6|0,0:0|0:0,0:0:0:0:
91,175,15563,1,2,0:3:0:0:
197,74,15715,2,0,P|170:29|120:8,1,85,8|0,0:0|0:0,0:0:0:0:
8,195,16020,1,2,0:3:0:0:
150,237,16172,1,2,0:2:0:0:
115,93,16324,1,8,0:0:0:0:
67,257,16477,6,0,P|90:301|134:322,1,85,6|0,0:0|0:0,0:0:0:0:
233,216,16781,1,0,0:0:0:0:
91,175,16933,1,8,0:0:0:0:
209,299,17086,1,0,0:0:0:0:
257,133,17238,1,2,0:3:0:0:
150,237,17390,1,0,0:0:0:0:
316,195,17543,1,8,0:0:0:0:
197,74,17695,1,0,0:0:0:0:
125,319,17847,5,4,0:2:0:0:
233,216,17999,1,0,0:0:0:0:
233,216,18076,1,0,0:0:0:0:
233,216,18152,1,8,0:0:0:0:
115,93,18304,1,8,0:3:0:0:
150,237,18456,1,0,0:0:0:0:
150,237,18532,1,0,0:0:0:0:
150,237,18609,1,8,0:0:0:0:
316,195,18761,2,0,L|423:168,1,85,8|0,0:3|0:0,0:0:0:0:
292,278,19065,5,4,0:3:0:0:
150,237,19218,2,0,L|96:250,2,42.5,0|0|8,0:0|0:0|0:0,0:0:0:0:
257,133,19522,1,0,0:0:0:0:
233,216,19675,1,2,0:3:0:0:
91,175,19827,1,0,0:0:0:0:
174,154,19979,1,8,0:0:0:0:
209,299,20131,1,0,0:0:0:0:
209,299,20208,1,0,0:0:0:0:
209,298,20284,6,0,P|171:319|129:320,1,85,4|0,0:2|0:0,0:0:0:0:
110,311,20512,1,0,0:0:0:0:
91,302,20588,1,8,0:0:0:0:
233,216,20741,2,0,P|268:238|291:273,1,85,8|0,0:3|0:0,0:0:0:0:
293,294,20969,1,0,0:0:0:0:
294,316,21045,1,8,0:0:0:0:
150,237,21197,2,0,P|151:194|170:157,1,85,8|0,0:3|0:0,0:0:0:0:
339,113,21502,5,4,0:3:0:0:
233,216,21654,1,8,0:3:0:0:
398,174,21807,1,8,0:3:0:0:
257,133,21959,1,0,0:0:0:0:
375,257,22111,1,4,0:3:0:0:
421,91,22263,1,8,0:3:0:0:
316,195,22416,1,8,0:3:0:0:
480,153,22568,1,0,0:0:0:0:
480,153,22873,5,2,0:3:0:0:
339,113,23025,1,2,0:3:0:0:
233,216,23329,5,2,0:3:0:0:
398,174,23482,1,0,0:3:0:0:
280,52,23786,5,4,0:2:0:0:
375,257,23939,1,4,0:2:0:0:
421,91,24243,5,2,0:3:0:0:
257,133,24395,1,2,0:3:0:0:
292,278,24548,1,0,0:0:0:0:
339,113,24700,2,0,L|385:70,2,42.5,0|0|2,0:0|0:0|0:2,0:0:0:0:
174,154,25005,6,0,P|147:223|210:300,1,170,4|0,0:0|0:0,0:0:0:0:
315,195,25461,2,0,L|233:216,1,85,8|0,0:0|0:0,0:0:0:0:
375,257,25766,1,2,0:3:0:0:
257,133,25918,1,0,0:0:0:0:
292,278,26070,1,8,0:0:0:0:
398,174,26223,1,0,0:0:0:0:
280,52,26375,5,6,0:2:0:0:
315,195,26527,1,0,0:0:0:0:
421,91,26680,1,8,0:0:0:0:
257,133,26832,1,6,0:2:0:0:
375,257,26984,1,0,0:0:0:0:
339,112,27136,1,8,0:3:0:0:
233,216,27289,1,8,0:3:0:0:
398,174,27441,1,0,3:0:0:0:
280,52,27593,5,4,0:2:0:0:
292,278,27746,1,0,0:0:0:0:
315,195,27898,2,0,L|340:113,1,63.7500024318696,2|0,0:2|0:0,0:0:0:0:
398,174,28202,2,0,L|481:154,1,63.7500024318696
457,235,28507,2,0,L|515:297,1,63.7500024318696,2|0,0:2|0:0,0:0:0:0:
433,316,28812,6,0,L|408:398,1,63.7500024318696,8|0,0:3|0:0,0:0:0:0:
375,257,29116,2,0,L|350:174,1,63.7500024318696,0|0,3:0|0:0,0:0:0:0:
209,299,29421,1,2,0:2:0:0:
292,278,29573,1,0,0:0:0:0:
257,133,29725,1,2,0:2:0:0:
233,216,29878,1,0,0:0:0:0:
339,112,30030,5,4,0:3:0:0:
174,154,30182,1,8,0:3:0:0:
209,299,30334,2,0,P|253:301|289:283,1,63.7500024318696,2|0,0:2|0:0,0:0:0:0:
233,216,30639,2,0,P|256:178|259:138,1,63.7500024318696
174,154,30944,2,0,P|153:114|120:92,1,63.7500024318696,2|0,0:2|0:0,0:0:0:0:
91,175,31248,6,0,P|47:173|11:191,1,63.7500024318696,2|0,0:3|0:0,0:0:0:0:
43,339,31553,2,0,P|86:341|123:323,1,63.7500024318696,0|0,3:0|0:0,0:0:0:0:
233,216,31857,1,2,0:2:0:0:
150,236,32010,1,0,0:0:0:0:
292,278,32162,1,2,0:2:0:0:
315,195,32314,1,0,0:0:0:0:
209,299,32466,5,4,0:3:0:0:
351,339,32619,1,8,0:3:0:0:
398,174,32771,2,0,P|378:135|339:110,1,63.7500024318696,2|0,0:2|0:0,0:0:0:0:
233,216,33076,1,0,0:0:0:0:
315,195,33228,1,0,0:0:0:0:
257,133,33380,1,2,0:3:0:0:
149,235,33532,6,0,P|187:288|249:300,1,127.500004863739,2|0,0:2|0:0,0:0:0:0:
315,195,33989,1,0,3:0:0:0:
174,154,34142,2,0,P|110:160|69:207,1,127.500004863739,2|0,0:2|0:0,0:0:0:0:
233,216,34598,1,0,3:0:0:0:
280,52,34751,1,0,0:0:0:0:
115,93,34903,5,4,0:3:0:0:
209,299,35055,1,8,0:3:0:0:
257,133,35208,2,0,L|346:110,1,63.7500024318696,2|0,0:2|0:0,0:0:0:0:
354,294,35512,2,0,L|265:271,1,63.7500024318696,0|0,0:0|0:0,0:0:0:0:
196,149,35817,2,0,L|285:126,1,63.7500024318696,2|0,0:2|0:0,0:0:0:0:
209,299,36121,5,4,0:3:0:0:
91,175,36274,1,8,0:3:0:0:
233,216,36426,1,0,0:0:0:0:
125,319,36578,2,0,L|43:338,2,63.7500024318696,2|8|2,0:2|0:3|0:2,0:0:0:0:
292,278,37035,1,2,0:3:0:0:
149,235,37187,1,0,0:0:0:0:
338,112,37340,6,0,P|376:91|418:90,1,85,6|0,0:2|0:0,0:0:0:0:
398,174,37644,1,0,0:0:0:0:
233,216,37796,2,0,P|197:193|175:158,1,85,4|0,0:2|0:0,0:0:0:0:
257,133,38101,1,0,0:0:0:0:
375,257,38253,1,2,0:3:0:0:
398,174,38406,1,2,0:2:0:0:
292,278,38558,6,0,L|210:297,1,85,6|0,0:2|0:0,0:0:0:0:
149,235,38862,1,0,0:0:0:0:
315,195,39015,2,0,L|397:214,1,85,4|0,0:2|0:0,0:0:0:0:
457,153,39319,1,0,0:0:0:0:
257,133,39472,1,2,0:3:0:0:
292,278,39624,1,2,0:2:0:0:
338,112,39776,6,0,P|323:80|251:48,1,85,6|0,0:2|0:0,0:0:0:0:
197,74,40081,1,0,0:0:0:0:
315,195,40233,2,0,L|397:176,1,85,4|0,0:2|0:0,0:0:0:0:
422,93,40538,1,0,0:0:0:0:
257,133,40690,6,0,L|175:152,1,85,6|0,0:2|0:0,0:0:0:0:
149,235,40994,1,0,0:0:0:0:
292,278,41147,2,0,L|374:259,1,85,6|0,0:2|0:0,0:0:0:0:
397,175,41451,1,0,0:0:0:0:
233,216,41603,5,2,2:2:0:0:
268,360,41756,1,0,2:0:0:0:
292,278,41908,1,2,2:2:0:0:
185,381,42060,1,0,3:0:0:0:
351,339,42213,5,2,2:2:0:0:
292,278,43431,5,2,2:2:0:0:
233,216,44649,6,0,L|310:297,1,85,4|0,0:0|0:0,0:0:0:0:
398,174,44954,1,2,0:2:0:0:
315,195,45106,1,0,0:0:0:0:
351,339,45258,1,2,0:2:0:0:
375,257,45411,1,0,0:0:0:0:
233,216,45563,1,2,0:2:0:0:
268,360,45715,1,0,0:0:0:0:
315,195,45867,5,2,0:2:0:0:
149,235,46020,1,0,0:0:0:0:
197,74,46172,1,8,0:0:0:0:
233,216,46324,1,0,0:0:0:0:
115,93,46477,1,2,0:2:0:0:
280,52,46629,1,0,0:0:0:0:
292,279,46781,1,8,0:0:0:0:
91,175,46933,1,0,0:0:0:0:
257,132,47086,6,0,L|367:106,1,85,4|0,0:2|0:0,0:0:0:0:
292,279,47390,2,0,L|181:305,1,85,8|0,0:0|0:0,0:0:0:0:
174,154,47695,2,0,P|181:91|214:56,2,85,2|0|8,0:2|0:0|0:0,0:0:0:0:
315,195,48152,6,0,L|397:175,1,85,2|2,0:3|0:3,0:0:0:0:
257,132,48456,1,0,0:0:0:0:
149,235,48609,2,0,P|186:287|238:299,1,85,8|0,0:0|0:0,0:0:0:0:
375,257,48913,1,2,0:3:0:0:
257,132,49065,1,0,0:0:0:0:
292,279,49218,1,8,0:0:0:0:
338,112,49370,1,0,0:0:0:0:
174,154,49522,5,2,0:3:0:0:
315,195,49675,2,0,L|397:175,1,85,2|8,0:2|0:0,0:0:0:0:
280,52,49979,1,2,0:3:0:0:
233,216,50131,2,0,P|270:268|322:280,1,85,2|0,0:3|0:0,0:0:0:0:
338,112,50436,1,8,0:0:0:0:
174,154,50588,6,0,L|91:173,1,85,2|2,0:3|0:3,0:0:0:0:
32,111,50893,1,2,0:2:0:0:
197,74,51045,2,0,P|243:108|256:158,1,85,8|0,0:0|0:0,0:0:0:0:
209,299,51350,1,2,0:3:0:0:
149,235,51502,1,0,0:0:0:0:
315,195,51654,2,0,P|359:224|379:283,1,85,8|0,0:0|0:0,0:0:0:0:
268,360,51959,6,0,L|176:382,1,85,2|0,0:3|0:0,0:0:0:0:
67,215,52263,2,0,L|158:237,1,85,8|0,0:0|0:0,0:0:0:0:
292,279,52568,1,2,0:3:0:0:
174,154,52720,1,2,0:2:0:0:
209,299,52873,1,8,0:0:0:0:
257,132,53025,6,0,L|285:30,1,85,2|2,0:3|0:3,0:0:0:0:
197,74,53329,1,2,0:2:0:0:
233,216,53482,1,8,0:0:0:0:
338,112,53634,1,0,0:0:0:0:
174,154,53786,2,0,P|154:183|156:249,1,85,2|0,0:3|0:0,0:0:0:0:
292,279,54091,1,8,0:0:0:0:
257,133,54243,1,2,0:2:0:0:
209,299,54395,6,0,P|270:362|365:323,1,170,2|8,0:3|0:0,0:0:0:0:
315,195,54852,1,2,0:2:0:0:
149,235,55005,2,0,L|42:259,1,85,2|0,0:3|0:0,0:0:0:0:
292,279,55309,1,8,0:0:0:0:
338,112,55461,1,2,0:2:0:0:
338,112,55538,1,0,0:0:0:0:
338,112,55614,5,2,0:3:0:0:
233,216,55766,1,0,0:0:0:0:
398,174,55918,1,8,0:0:0:0:
418,169,55994,1,0,0:0:0:0:
439,164,56070,1,0,0:0:0:0:
459,159,56147,1,0,0:0:0:0:
480,154,56223,1,10,0:3:0:0:
422,93,56375,1,0,0:0:0:0:
315,195,56527,1,8,0:0:0:0:
398,174,56680,1,2,0:2:0:0:
361,29,56832,6,0,L|195:70,1,170,6|8,0:2|0:0,0:0:0:0:
67,257,57289,2,0,P|128:320|223:281,1,170,6|0,0:2|0:0,0:0:0:0:
257,133,57746,1,8,0:0:0:0:
150,237,57898,1,2,0:2:0:0:
315,195,58050,6,0,L|413:170,2,85,6|0|8,0:2|0:0|0:0,0:0:0:0:
174,154,58507,2,0,P|137:132|115:96,1,85,6|0,0:2|0:0,0:0:0:0:
197,74,58812,1,0,0:0:0:0:
233,216,58964,1,8,0:0:0:0:
67,257,59116,1,2,0:2:0:0:
257,133,59268,6,0,P|293:112|335:111,2,85,6|0|8,0:2|0:0|0:0,0:0:0:0:
150,237,59725,1,2,0:2:0:0:
150,237,59801,1,0,0:0:0:0:
150,237,59878,1,2,0:3:0:0:
315,195,60030,1,0,0:0:0:0:
174,154,60182,1,8,0:0:0:0:
209,299,60334,1,2,0:2:0:0:
257,133,60487,5,6,3:2:0:0:
274,120,60563,1,0,3:1:0:0:
295,112,60639,1,0,3:1:0:0:
316,110,60715,1,0,3:1:0:0:
338,113,60791,1,8,3:1:0:0:
358,122,60867,1,0,3:1:0:0:
375,135,60944,1,0,3:1:0:0:
388,152,61020,1,0,3:1:0:0:
397,172,61096,1,0,3:1:0:0:
375,257,61248,1,2,0:2:0:0:
233,216,61400,1,8,0:0:0:0:
315,195,61553,1,2,0:2:0:0:
209,299,61705,5,4,0:2:0:0:
174,154,61857,1,4,0:2:0:0:
174,154,62162,5,4,0:2:0:0:
125,319,62314,1,4,0:2:0:0:
125,319,62619,5,4,0:2:0:0:
233,216,62771,1,4,0:2:0:0:
67,257,62923,6,0,P|44:293|42:340,1,85,2|0,0:3|0:0,0:0:0:0:
91,175,63228,2,0,P|48:173|6:194,1,85,2|0,0:2|0:0,0:0:0:0:
174,154,63532,2,0,P|154:116|114:90,1,85,2|0,0:2|0:0,0:0:0:0:
233,216,63837,2,0,P|256:180|258:133,1,85,2|0,0:2|0:0,0:0:0:0:
150,237,64142,5,4,0:2:0:0:
292,279,64294,1,4,0:2:0:0:
292,279,64598,5,4,0:2:0:0:
174,154,64751,1,4,0:2:0:0:
174,154,65055,5,4,0:2:0:0:
209,299,65208,1,4,0:2:0:0:
257,133,65360,6,0,L|285:35,1,85,2|0,0:3|0:0,0:0:0:0:
338,112,65664,2,0,L|437:88,1,85,2|0,0:2|0:0,0:0:0:0:
398,174,65969,2,0,L|468:247,1,85,2|0,0:2|0:0,0:0:0:0:
375,257,66274,2,0,L|346:354,1,85,2|0,0:2|0:0,0:0:0:0:
209,299,66578,5,4,0:2:0:0:
315,195,66730,1,4,0:2:0:0:
315,195,67035,5,4,0:2:0:0:
150,237,67187,1,4,0:2:0:0:
150,237,67492,5,4,0:2:0:0:
292,279,67644,1,4,0:2:0:0:
338,112,67796,6,0,P|314:71|257:48,1,85,2|0,0:3|0:0,0:0:0:0:
257,133,68101,2,0,B|199:135|199:135|158:173,1,85,8|0,0:3|0:0,0:0:0:0:
69,259,68406,2,0,P|89:296|125:319,1,85,2|0,0:2|0:0,0:0:0:0:
150,237,68710,2,0,B|208:235|208:235|228:217,1,85,8|0,0:3|0:0,0:0:0:0:
115,93,69015,5,4,0:2:0:0:
257,133,69167,1,4,0:2:0:0:
257,133,69472,5,4,0:2:0:0:
209,299,69624,1,4,0:2:0:0:
209,299,69928,6,0,L|318:273,1,85,8|0,0:3|2:0,0:0:0:0:
339,111,70233,6,0,L|237:138,1,85,6|0,0:2|0:0,0:0:0:0:
125,319,70538,1,2,0:2:0:0:
233,216,70690,2,0,L|284:202,2,42.5
150,237,70994,1,2,0:2:0:0:
292,279,71147,1,8,0:3:0:0:
257,133,71299,1,2,0:2:0:0:
209,299,71451,6,0,L|286:380,1,85,6|0,0:2|0:0,0:0:0:0:
375,259,71756,2,0,L|266:285,1,85,8|0,0:0|0:0,0:0:0:0:
150,237,72060,1,2,0:3:0:0:
233,216,72213,1,0,0:0:0:0:
125,319,72365,2,0,P|86:294|67:242,1,85,8|0,0:0|0:0,0:0:0:0:
257,133,72669,6,0,P|296:158|315:210,1,85,6|0,0:2|0:0,0:0:0:0:
209,299,72974,1,8,0:0:0:0:
174,154,73126,2,0,P|176:107|211:65,1,85,6|2,0:2|0:3,0:0:0:0:
339,111,73431,1,0,0:0:0:0:
233,216,73583,1,8,0:0:0:0:
398,174,73735,1,2,0:2:0:0:
398,174,73812,1,0,0:0:0:0:
398,174,73888,6,0,L|468:247,1,85,6|0,0:2|0:0,0:0:0:0:
422,91,74192,2,0,L|323:115,1,85,8|0,0:0|0:0,0:0:0:0:
233,216,74497,1,2,0:2:0:0:
315,195,74649,1,0,0:0:0:0:
174,154,74801,2,0,P|149:199|162:259,1,85,8|0,0:0|0:0,0:0:0:0:
292,279,75106,6,0,L|396:251,2,85,6|0|8,0:2|0:0|0:0,0:0:0:0:
125,319,75563,2,0,P|86:294|67:242,1,85,6|2,0:2|0:3,0:0:0:0:
233,216,75867,1,0,0:0:0:0:
185,381,76020,1,8,0:0:0:0:
150,237,76172,1,2,0:2:0:0:
150,237,76248,1,0,0:0:0:0:
150,237,76324,6,0,L|254:211,1,85
374,257,76629,2,0,L|292:279,1,85,8|0,0:0|0:0,0:0:0:0:
209,299,76933,1,2,0:2:0:0:
257,133,77086,2,0,P|298:114|347:120,1,85,2|8,0:3|0:0,0:0:0:0:
315,195,77390,1,2,0:2:0:0:
174,154,77543,6,0,L|75:179,1,85,6|0,0:2|0:0,0:0:0:0:
8,196,77847,1,8,0:0:0:0:
125,319,77999,2,0,L|155:220,1,85,2|0,0:2|0:0,0:0:0:0:
174,154,78304,1,2,0:3:0:0:
67,257,78456,2,0,P|44:293|42:340,1,85,8|0,0:0|0:0,0:0:0:0:
209,299,78761,5,8,0:3:0:0:
91,175,78913,1,4,0:3:0:0:
257,133,79065,1,0,0:0:0:0:
150,237,79218,5,8,0:3:0:0:
197,74,79370,1,4,0:3:0:0:
315,195,79522,1,0,0:0:0:0:
115,93,79675,5,8,0:3:0:0:
361,29,79827,1,4,0:0:0:0:
361,29,80588,6,0,P|352:96|301:135,1,127.500004863739,2|0,0:2|2:0,0:0:0:0:
280,52,81045,6,0,L|486:79,1,170,4|2,0:0|0:2,0:0:0:0:
374,257,81502,2,0,L|270:270,1,85,8|0,0:0|0:0,0:0:0:0:
119,290,81807,1,2,0:3:0:0:
236,199,81959,1,0,0:0:0:0:
66,221,82111,1,8,0:0:0:0:
172,359,82263,6,0,P|213:364|252:348,1,85,4|2,0:1|0:2,0:0:0:0:
321,186,82568,1,2,0:3:0:0:
151,210,82720,2,0,L|47:223,1,85,8|0,0:0|0:0,0:0:0:0:
204,279,83025,1,2,0:2:0:0:
182,131,83177,1,0,0:0:0:0:
119,290,83329,1,8,0:0:0:0:
289,268,83482,6,0,L|374:257,1,85,4|2,0:2|0:2,0:0:0:0:
236,199,83786,1,0,0:0:0:0:
255,348,83939,1,8,0:0:0:0:
321,185,84091,2,0,L|390:175,2,42.5,2|0|2,0:2|0:0|0:3,0:0:0:0:
151,210,84395,1,0,0:0:0:0:
289,268,84548,1,8,0:0:0:0:
352,103,84700,6,0,P|421:83|492:142,1,170,4|2,0:2|0:2,0:0:0:0:
373,256,85157,1,8,0:0:0:0:
236,199,85309,2,0,L|255:103,1,85,2|2,0:3|0:2,0:0:0:0:
289,268,85614,1,2,0:3:0:0:
409,172,85766,1,8,0:0:0:0:
204,279,85918,6,0,L|119:290,1,85,4|2,0:2|0:2,0:0:0:0:
151,210,86223,1,2,0:3:0:0:
289,268,86375,2,0,L|377:256,1,85,8|0,0:0|0:0,0:0:0:0:
352,103,86680,1,2,0:3:0:0:
236,199,86832,1,0,0:0:0:0:
409,172,86984,1,8,0:0:0:0:
295,34,87136,6,0,P|229:34|197:61,1,85,4|2,0:2|0:2,0:0:0:0:
151,210,87441,1,0,0:0:0:0:
321,186,87593,2,0,P|349:144|351:99,2,85,8|0|8,0:0|0:0|0:3,0:0:0:0:
204,279,88050,1,2,0:2:0:0:
263,117,88202,1,8,0:0:0:0:
374,257,88355,6,0,P|361:315|320:348,1,85,4|2,0:0|0:2,0:0:0:0:
236,199,88659,1,0,0:0:0:0:
409,172,88812,1,8,0:0:0:0:
290,268,88964,1,0,0:0:0:0:
182,131,89116,1,8,0:3:0:0:
321,186,89268,1,0,0:0:0:0:
255,348,89421,1,8,0:0:0:0:
263,117,89573,6,0,P|331:96|409:192,1,178.499994552612,8|0,0:3|2:0,0:0:0:0:
384,248,89878,6,0,P|359:318|443:306,1,178.499994552612,8|0,0:3|2:0,0:0:0:0:
471,223,90182,6,0,B|411:210|411:210|262:244,1,178.499994552612,8|0,0:3|2:0,0:0:0:0:
300,379,90487,6,0,P|375:331|382:244,1,178.499994552612,8|0,0:3|2:0,0:0:0:0:
236,199,90791,6,0,L|136:212,1,85,4|2,0:2|0:2,0:0:0:0:
119,290,91096,1,2,0:3:0:0:
290,268,91248,2,0,P|319:226|321:178,1,85,8|0,0:0|0:0,0:0:0:0:
295,34,91553,1,8,0:3:0:0:
263,117,91705,1,2,0:2:0:0:
352,103,91857,1,8,0:0:0:0:
207,47,92010,6,0,P|176:97|181:152,1,85,4|0,0:2|0:0,0:0:0:0:
236,199,92314,1,0,0:0:0:0:
352,103,92466,1,8,0:0:0:0:
263,117,92619,1,0,0:0:0:0:
290,268,92771,1,2,0:3:0:0:
321,186,92923,1,2,0:2:0:0:
204,279,93076,1,8,0:0:0:0:
374,257,93228,6,0,B|457:245|457:245|510:153,1,170,4|2,0:0|0:3,0:0:0:0:
321,186,93685,2,0,L|280:296,1,85,8|0,0:0|0:0,0:0:0:0:
119,290,93989,1,8,0:3:0:0:
236,199,94142,1,2,0:2:0:0:
172,358,94294,2,0,P|133:375|91:373,1,85,8|0,0:0|0:0,0:0:0:0:
66,221,94598,5,4,0:2:0:0:
204,279,94751,1,0,0:0:0:0:
321,186,94903,2,0,L|436:167,1,85,8|0,0:0|0:0,0:0:0:0:
339,334,95208,2,0,L|223:353,2,85,8|2|8,0:3|0:2|0:0,0:0:0:0:
488,157,95664,6,0,P|472:118|428:89,1,85,4|2,0:0|0:2,0:0:0:0:
267,117,95969,1,2,0:3:0:0:
374,257,96121,1,8,0:0:0:0:
352,103,96274,1,0,0:0:0:0:
182,131,96426,1,8,0:3:0:0:
321,185,96578,1,2,0:2:0:0:
295,34,96730,1,8,0:0:0:0:
235,198,96883,6,0,P|250:238|286:266,1,85,4|2,0:2|0:2,0:0:0:0:
463,248,97187,1,2,0:3:0:0:
352,103,97340,1,8,0:0:0:0:
204,279,97492,1,0,0:0:0:0:
374,257,97644,1,8,0:3:0:0:
295,34,97796,1,2,0:2:0:0:
235,198,97949,1,8,0:0:0:0:
409,172,98101,6,0,L|522:156,1,85,4|2,0:0|0:2,0:0:0:0:
427,329,98406,1,2,0:3:0:0:
321,185,98558,1,8,0:0:0:0:
463,248,98710,1,0,0:0:0:0:
290,268,98862,1,8,0:3:0:0:
352,103,99015,1,0,3:0:0:0:
374,257,99167,1,8,0:0:0:0:
204,279,99319,6,0,P|169:255|150:218,1,85,4|0,0:2|0:0,0:0:0:0:
129,64,99624,1,0,0:0:0:0:
235,198,99776,1,8,0:0:0:0:
352,103,99928,1,0,0:0:0:0:
182,131,100081,1,8,0:3:0:0:
204,279,100233,1,0,3:0:0:0:
267,117,100385,1,8,0:0:0:0:
97,145,100538,6,0,L|52:261,1,85,4|0,0:2|0:0,0:0:0:0:
290,268,100842,1,0,0:0:0:0:
151,210,100994,1,8,0:0:0:0:
255,348,101147,1,0,0:0:0:0:
321,185,101299,1,8,0:3:0:0:
204,279,101451,1,0,0:0:0:0:
340,338,101603,1,8,0:0:0:0:
235,198,101756,1,0,0:0:0:0:
173,360,101908,5,8,0:3:0:0:
374,257,102060,1,0,0:0:0:0:
152,147,102213,5,8,0:3:0:0:
255,348,102365,1,0,0:0:0:0:
365,126,102517,5,8,0:3:0:0:
164,229,102669,1,0,0:0:0:0:
386,339,102822,5,8,0:3:0:0:
283,138,102974,1,0,0:0:0:0:
255,348,103126,6,0,L|236:394,2,42.5,4|0|0,0:2|0:0|0:0,0:0:0:0:
374,257,103431,1,2,0:3:0:0:
204,279,103583,2,0,L|160:284,2,42.5,4|0|0,0:2|0:0|0:0,0:0:0:0:
340,338,103888,1,0,0:0:0:0:
235,198,104040,2,0,P|242:148|275:112,1,85,8|0,0:3|0:0,0:0:0:0:
461,129,104345,5,4,0:3:0:0:
321,185,104497,1,8,0:3:0:0:
363,86,104649,1,8,0:3:0:0:
418,226,104801,1,0,0:0:0:0:
277,282,104954,1,4,0:3:0:0:
321,185,105106,1,8,0:3:0:0:
376,324,105258,1,8,0:3:0:0:
233,379,105411,1,0,0:0:0:0:
418,226,105563,6,0,L|499:190,1,85,4|0,0:2|0:0,0:0:0:0:
498,170,105791,1,0,0:0:0:0:
500,149,105867,1,2,0:3:0:0:
321,185,106020,2,0,L|310:273,1,85,4|0,0:2|0:0,0:0:0:0:
329,282,106248,1,0,0:0:0:0:
346,294,106324,1,2,0:3:0:0:
405,121,106477,2,0,L|333:67,1,85,8|0,0:3|0:0,0:0:0:0:
97,145,106781,5,4,0:3:0:0:
235,198,106933,1,8,0:3:0:0:
295,34,107086,1,8,0:3:0:0:
182,131,107238,1,0,3:0:0:0:
290,268,107390,1,4,0:3:0:0:
267,117,107543,1,8,0:3:0:0:
204,279,107695,1,8,0:3:0:0:
374,257,107847,1,0,0:0:0:0:
374,257,108152,5,2,0:3:0:0:
182,131,108304,1,4,0:2:0:0:
119,290,108609,5,2,0:3:0:0:
321,185,108761,1,2,0:3:0:0:
207,47,109065,5,4,0:2:0:0:
255,348,109218,1,4,0:2:0:0:
409,172,109522,5,2,0:3:0:0:
235,198,109675,1,2,0:3:0:0:
374,257,109827,1,2,0:3:0:0:
352,103,109979,2,2,P|326:53|213:47,1,170,2|0,0:2|0:0,0:2:0:0:
182,131,110436,6,0,L|130:139,3,42.5,0|0|0|0,3:0|3:0|3:0|3:0,3:0:0:0:
235,198,110741,1,4,0:0:0:0:
256,192,110817,12,4,115157,0:0:0:0:
