osu file format v9

[General]
AudioFilename: Sekiranun Graffiti Short.mp3
AudioLeadIn: 1000
PreviewTime: 33177
Countdown: 0
SampleSet: Soft
StackLeniency: 0.7
Mode: 0
LetterboxInBreaks: 0

[Editor]
DistanceSpacing: 1.2
BeatDivisor: 4
GridSize: 8

[Metadata]
Title:Sekiranun Graffiti (Short Ver.)
Artist:ryo (supercell) feat. Hatsune Miku
Creator:bestz2541
Version:Insane
Source:Project DIVA extend
Tags:miku vocaloid project diva extend short ryo supercell Dixie Flatline Fallin' Fallin' Fallin' vacalia

[Difficulty]
HPDrainRate:7
CircleSize:4
OverallDifficulty:7
ApproachRate:8
SliderMultiplier:1.4
SliderTickRate:1

[Events]
//Background and Video events
0,0,"seki.jpg"
Video,0,"Sekiranun Graffiti Short video.avi"
//Break Periods
//Storyboard Layer 0 (Background)
//Storyboard Layer 1 (Fail)
//Storyboard Layer 2 (Pass)
//Storyboard Layer 3 (Foreground)
//Storyboard Sound Samples
//Background Colour Transformations
3,100,163,162,255

[TimingPoints]
1873,434.782608695652,4,2,1,40,1,0
4916,-100,4,2,1,15,0,0
5351,-100,4,2,1,30,0,0
19264,-100,4,2,1,60,0,0
31220,-100,4,2,1,40,0,0
32307,-100,4,2,2,80,0,0
33177,-80,4,2,2,80,0,1
40133,-66.6666666666667,4,2,2,80,0,1
40568,-80,4,2,2,80,0,1
48612,-80,4,2,2,80,0,1
54046,-66.6666666666667,4,2,2,80,0,1
54481,-80,4,2,2,80,0,1
59046,-100,4,2,2,80,0,0
61438,-100,4,2,1,60,0,0
81003,-100,4,2,2,80,0,0
81329,-100,4,2,2,5,0,0
81438,-100,4,2,2,80,0,0
81546,-100,4,2,2,5,0,0
81872,-80,4,2,2,80,0,1
88829,-66.6666666666667,4,2,2,80,0,1
89264,-80,4,2,2,80,0,1
97307,-100,4,2,2,80,0,0
98394,-80,4,2,2,80,0,0
99699,-100,4,2,1,40,0,0

[Colours]
Combo1 : 255,190,159
Combo2 : 255,128,128
Combo3 : 128,255,128
Combo4 : 113,208,255

[HitObjects]
80,168,1873,1,0
80,136,1981,1,0
96,104,2090,1,0
216,64,2307,1,8
160,200,2525,1,0
344,256,2742,5,0
368,232,2851,1,0
376,192,2959,1,0
296,104,3177,1,8
240,272,3394,1,0
128,296,3612,5,0
96,280,3720,1,0
80,248,3829,1,0
88,208,3938,1,0
112,176,4046,2,0,B|152:184|192:224,1,70,8|0
208,224,4372,5,0
240,240,4481,1,0
296,104,4699,1,0
480,40,4916,1,0
376,264,5351,6,4,B|360:216|320:192,1,70,4|0
240,128,5786,1,0
264,304,6003,1,0
168,224,6220,2,0,B|136:256|136:296,1,70,2|0
136,128,6655,1,0
80,224,6872,6,0,B|64:176|72:144,1,70,0|2
160,64,7307,1,0
280,80,7525,1,0
376,152,7742,1,0
336,248,7959,1,2
232,248,8177,1,0
184,152,8394,2,0,B|160:168|144:216,1,70
64,80,8829,5,2
160,32,9046,1,0
64,80,9264,1,0
168,120,9481,1,0
64,80,9699,2,0,B|48:144|56:176,1,70,2|0
144,264,10133,2,0,B|208:240|216:232,1,70
320,112,10568,6,0,B|344:128|360:168,1,70,2|0
352,288,11003,1,0
232,208,11220,1,0
152,56,11438,2,0,B|200:72|216:112,1,70,2|0
128,160,11872,1,0
136,248,12090,1,0
264,96,12307,5,2
344,136,12525,1,0
320,232,12742,1,0
240,184,12959,1,0
240,304,13177,2,0,B|288:320|312:312,1,70,2|0
440,208,13612,2,0,B|440:256|432:288,1,70
360,72,14046,5,2
280,32,14264,1,0
200,72,14481,1,0
128,120,14699,1,0
64,72,14916,2,0,B|104:40|152:40,1,70,2|0
200,72,15351,2,0,B|232:104|240:136,1,70
160,224,15786,5,2
272,208,16003,1,0
288,320,16220,1,0
400,304,16438,1,0
416,208,16655,2,0,B|416:176|376:128,1,70,2|0
320,72,17090,5,0
208,128,17307,1,0
112,64,17525,2,0,B|64:96|48:160|56:192,1,140,2|0
128,320,18177,2,0,B|184:240|264:240,1,140
288,160,18829,2,0,B|312:208|312:256,1,70
352,320,19264,5,4
448,280,19481,1,0
352,320,19699,2,0,B|360:264|336:232,1,70,8|0
160,304,20133,1,2
152,224,20351,1,0
224,184,20568,1,8
336,112,20786,6,0,B|352:160|336:200,1,70,0|2
232,56,21220,1,0
232,56,21438,1,8
96,96,21655,2,0,B|96:144|120:176,1,70,0|2
192,280,22090,1,0
176,104,22307,1,8
304,248,22525,1,0
296,56,22742,1,2
416,40,22959,6,0,B|456:64|464:96,1,70,0|8
432,208,23394,1,0
360,288,23612,2,0,B|320:320|280:320,1,70,2|0
128,208,24046,2,0,B|168:232|208:216,1,70,8|0
192,80,24481,5,2
304,168,24699,1,0
416,80,24916,1,8
408,224,25133,1,0
304,280,25351,2,0,B|248:288|216:288,1,70,2|0
88,256,25786,2,0,B|112:240|176:232,1,70,8|0
160,128,26220,5,2
160,128,26438,1,0
240,56,26655,1,8
240,56,26872,1,0
352,48,27090,1,2
352,48,27307,1,0
456,96,27525,1,8
456,96,27742,1,0
360,288,27959,6,0,B|440:256,1,70,2|0
240,176,28394,2,0,B|320:200,1,70,8|0
160,288,28829,2,0,B|240:264,1,70,2|0
72,160,29264,2,0,B|152:184,1,70,8|0
144,96,29699,5,2
144,96,29916,1,0
256,176,30133,1,8
256,176,30351,1,0
128,224,30568,2,0,B|96:264|88:312,1,70,2|0
192,336,31003,1,8
320,208,31220,5,0
424,312,31438,2,0,B|480:296|504:256,2,70,2|0|0
416,96,32090,1,0
256,128,32307,1,8
232,160,32416,1,8
216,192,32525,1,8
32,88,32742,2,0,B|120:72|176:136,1,140,8|4
232,304,33394,5,0
264,312,33503,1,0
288,312,33612,2,0,B|336:288|368:248,1,87.4999986961484,8|0
432,128,34046,1,0
328,48,34264,1,0
200,128,34481,2,0,B|208:176|264:216,1,87.4999986961484,8|0
336,152,34916,1,0
392,264,35133,5,0
352,256,35242,1,0
320,272,35351,2,0,B|248:280|208:264,1,87.4999986961484,8|0
136,320,35786,2,0,B|72:248|56:192,1,131.249998044223
56,168,36220,2,0,B|112:136|128:80,1,87.4999986961484,8|0
232,56,36655,1,0
392,96,36872,5,0
384,104,36981,1,0
376,112,37090,2,0,B|376:184|344:224,1,87.4999986961484,8|0
264,248,37525,2,0,B|280:288|328:312,2,87.4999986961484,0|0|8
152,176,38177,2,0,B|120:216|112:256|128:296,1,87.4999986961484
224,336,38612,5,0
264,344,38720,1,0
296,328,38829,1,8
424,256,39046,1,0
384,104,39264,2,0,B|296:104|248:136,1,131.249998044223
240,160,39699,1,8
144,272,39916,1,0
56,208,40133,6,0,B|72:120|184:80,1,157.499995306134,4|0
208,104,40568,2,0,B|200:160|152:200,1,87.4999986961484,8|0
224,280,41003,2,0,B|272:272|312:248,1,87.4999986961484
352,256,41329,1,0
384,288,41438,1,8
496,240,41655,5,0
440,128,41872,2,0,B|384:72|304:56,1,131.249998044223
296,72,42307,1,8
120,88,42525,1,0
144,120,42633,1,0
176,144,42742,2,0,B|216:184|288:200,1,87.4999986961484
368,208,43177,2,0,B|336:240|296:256,1,87.4999986961484,8|0
144,288,43612,6,0,B|96:256|80:224|72:176,1,131.249998044223
88,136,44046,2,0,B|136:152|176:192,1,87.4999986961484,8|0
224,248,44481,1,0
256,256,44590,1,0
288,248,44699,1,0
240,104,44916,2,0,B|280:120|296:176,1,87.4999986961484,8|0
320,320,45351,5,0
424,248,45568,1,0
464,120,45786,1,8
328,80,46003,1,0
160,48,46220,1,8
136,80,46329,1,8
104,96,46438,1,8
56,232,46655,2,0,B|80:192|152:176,1,87.4999986961484,8|0
168,176,46981,1,0
208,192,47090,6,0,B|256:208|280:256,1,87.4999986961484,4|0
296,272,47416,1,0
320,304,47525,2,0,B|376:280|392:224,1,87.4999986961484,8|0
400,64,47959,1,0
248,160,48177,1,0
232,120,48286,1,0
208,88,48394,1,8
40,176,48612,2,0,B|40:240|88:280,1,87.4999986961484
160,320,49046,5,0
200,328,49155,1,0
240,320,49264,2,0,B|280:296|304:240,1,87.4999986961484,8|0
160,208,49699,2,0,B|224:144|304:128,1,131.249998044223
320,144,50133,2,0,B|312:192|272:232,1,87.4999986961484,8|0
264,320,50568,5,0
424,312,50786,1,0
448,288,50894,1,0
456,256,51003,2,0,B|464:184|416:120,1,131.249998044223,8|0
400,104,51438,1,0
224,64,51655,2,0,B|176:96|144:144,1,87.4999986961484,0|8
240,192,52090,1,0
280,192,52199,1,0
320,168,52307,1,0
368,280,52525,5,0
248,336,52742,1,8
120,312,52959,1,0
64,208,53177,2,0,B|112:144|192:136,1,131.249998044223
200,152,53612,1,8
192,264,53829,1,0
392,152,54046,6,0,B|352:72|264:48,1,157.499995306134
224,48,54481,2,0,B|184:104|120:104,1,87.4999986961484,8|0
64,176,54916,1,0
128,296,55133,1,0
160,288,55242,1,0
192,264,55351,1,8
320,336,55568,1,0
440,264,55786,6,0,B|464:176|432:96,1,131.249998044223
416,96,56220,1,8
264,48,56438,2,0,B|248:96|288:152,1,87.4999986961484
384,192,56872,1,0
352,216,56981,1,0
328,256,57090,1,8
216,208,57307,1,0
176,96,57525,6,0,B|80:112,2,87.4999986961484,2|0|2
336,96,58177,1,2
432,216,58394,1,0
320,320,58612,1,2
184,264,58829,1,2
184,264,59046,6,0,B|208:192|272:152,2,140,4|0|0
320,264,60133,1,0
424,184,60351,1,0
400,64,60568,1,0
288,48,60786,1,0
256,56,60894,1,0
224,56,61003,1,4
224,56,61438,5,8
136,112,61655,1,0
160,200,61872,2,0,B|232:232|296:216,1,140,0|8
352,128,62525,1,0
376,136,62633,1,0
392,144,62742,2,0,B|432:192|424:264|408:288,1,140,0|8
288,192,63394,1,0
336,328,63612,2,0,B|256:344|192:312,1,140,0|8
64,104,64264,5,0
80,88,64372,1,0
96,72,64481,2,0,B|168:104|208:168,1,140,0|8
72,200,65133,1,0
160,272,65351,2,0,B|232:280|288:344,1,140,0|8
352,232,66003,5,0
360,264,66112,1,0
360,296,66220,2,0,B|408:272|440:240,1,70
432,160,66655,2,0,B|424:104|400:72,1,70,8|0
304,56,67090,1,0
200,56,67307,1,0
304,56,67525,1,8
264,144,67742,5,0
296,160,67851,1,0
320,176,67959,2,0,B|336:224|296:280,1,105
272,288,68394,1,8
120,160,68612,1,0
96,152,68720,1,0
72,144,68829,2,0,B|32:208|32:280,1,140,0|8
160,224,69481,1,0
184,80,69699,6,0,B|256:104|296:168,1,140,0|8
392,296,70351,1,0
408,288,70459,1,0
424,280,70568,2,0,B|456:208|448:144,1,140,0|8
344,208,71220,1,0
288,96,71438,6,0,B|224:144|144:160,1,140,0|8
32,136,72090,1,0
40,152,72199,1,0
48,168,72307,2,0,B|48:224|80:264,1,70
200,272,72742,1,8
288,240,72959,1,0
200,272,73177,6,0,B|168:224|184:160,1,105
192,144,73612,1,8
384,104,73829,1,0
408,128,73938,1,0
424,160,74046,2,0,B|432:216|416:264,1,105
400,296,74481,1,8
248,248,74699,5,0
264,224,74807,1,0
264,192,74916,2,0,B|264:128|232:56,1,140,0|8
408,64,75786,5,0
432,240,76220,1,8
224,328,76655,1,0
96,200,77090,1,8
256,184,77525,5,0
341,49,77742,1,0
356,210,77959,1,8
248,96,78177,1,0
408,136,78394,1,4
256,192,78503,12,0,80133
104,208,81003,5,0
96,168,81112,1,0
112,128,81220,1,8
144,112,81329,1,0
184,112,81438,2,0,B|208:104|224:88,2,35,8|0|0
256,240,81872,6,0,B|280:288|352:320,1,87.4999986961484,4|0
416,256,82307,2,0,B|440:216|440:168,1,87.4999986961484,8|0
432,136,82633,1,0
408,112,82742,1,0
272,72,82959,2,0,B|240:120|216:144,1,87.4999986961484,0|8
120,240,83394,5,0
56,144,83612,1,0
120,240,83829,1,0
144,128,84046,2,0,B|224:120|264:160,1,87.4999986961484,8|0
264,232,84481,2,0,B|352:232|392:192,1,131.249998044223
400,144,84916,2,0,B|448:192|448:256,1,87.4999986961484,8|0
352,336,85351,5,4
224,344,85568,1,0
200,320,85677,1,0
176,296,85786,1,8
88,224,86003,1,0
168,128,86220,5,0
288,56,86438,1,0
288,88,86546,1,0
288,128,86655,1,8
288,232,86872,1,0
416,120,87090,6,0,B|464:192|456:216,1,87.4999986961484
416,288,87525,2,0,B|368:328|312:304,1,87.4999986961484,8|0
128,312,87959,5,8
80,144,88177,1,8
240,56,88394,1,8
288,192,88612,5,0
272,200,88720,1,0
256,208,88829,2,0,B|304:288|384:296,1,157.499995306134,4|0
432,296,89264,2,0,B|432:240|408:208,1,87.4999986961484,8|0
352,136,89699,1,0
144,64,89916,1,0
152,80,90025,1,0
160,96,90133,2,0,B|112:144|96:192,1,87.4999986961484,8|0
160,280,90568,6,0,B|224:208|240:144,1,131.249998044223
253,147,91003,1,8
360,80,91220,1,0
416,192,91438,1,0
384,328,91655,5,0
352,304,91764,1,0
320,288,91872,2,0,B|264:264|200:272,1,87.4999986961484,8|0
104,224,92307,2,0,B|112:152|176:96,1,131.249998044223,4|0
200,80,92742,2,0,B|248:112|256:160,1,87.4999986961484,8|0
192,240,93177,1,0
400,256,93394,5,0
408,240,93503,1,0
416,224,93612,2,0,B|432:176|432:112,1,87.4999986961484,8|0
344,56,94046,2,0,B|312:144|312:224,1,131.249998044223
344,224,94481,2,0,B|336:288|312:336,1,87.4999986961484,8|0
208,296,94916,1,0
120,168,95133,5,0
128,152,95242,1,0
136,136,95351,2,0,B|200:128|256:144,1,87.4999986961484,8|0
272,248,95786,2,0,B|328:184|328:120,1,131.249998044223
320,96,96220,1,8
440,144,96438,5,0
456,256,96655,1,0
368,320,96872,1,0
328,336,96981,1,0
288,328,97090,1,8
128,208,97307,6,0,B|184:176|272:168|272:168,2,140,4|0|0
344,88,98394,1,8
360,120,98503,1,8
368,152,98612,1,8
472,288,98829,2,0,B|424:320|328:328|296:320,1,174.999997392297,8|4
136,256,99699,5,8
296,88,100133,1,0
248,280,100568,1,8
176,72,101003,5,0
328,200,101438,1,8
104,152,101872,1,0
216,176,102307,2,0,B|288:192,1,70,8|0
