osu file format v9

[General]
AudioFilename: Sekiranun Graffiti Short.mp3
AudioLeadIn: 1000
PreviewTime: 33177
Countdown: 0
SampleSet: Soft
StackLeniency: 0.7
Mode: 0
LetterboxInBreaks: 0

[Editor]
DistanceSpacing: 0.8
BeatDivisor: 4
GridSize: 8

[Metadata]
Title:Sekiranun Graffiti (Short Ver.)
Artist:ryo (supercell) feat. Hatsune Miku
Creator:bestz2541
Version:Easy
Source:Project DIVA extend
Tags:miku vocaloid project diva extend short ryo supercell Dixie Flatline Fallin' Fallin' Fallin' vacalia

[Difficulty]
HPDrainRate:3
CircleSize:3
OverallDifficulty:2
ApproachRate:3
SliderMultiplier:0.8
SliderTickRate:1

[Events]
//Background and Video events
0,0,"seki.jpg"
Video,0,"Sekiranun Graffiti Short video.avi"
//Break Periods
//Storyboard Layer 0 (Background)
//Storyboard Layer 1 (Fail)
//Storyboard Layer 2 (Pass)
//Storyboard Layer 3 (Foreground)
//Storyboard Sound Samples
//Background Colour Transformations
3,100,163,162,255

[TimingPoints]
1873,434.782608695652,4,2,1,40,1,0
5351,-100,4,2,1,30,0,0
19264,-100,4,2,1,60,0,0
31438,-100,4,2,1,40,0,0
32307,-100,4,2,2,70,0,0
33177,-100,4,2,2,80,0,1
59046,-100,4,2,1,60,0,0
61872,-100,4,2,1,60,0,0
81438,-100,4,2,2,70,0,0
81872,-100,4,2,2,80,0,1
97307,-100,4,2,2,80,0,0
99264,-100,4,2,1,80,0,0
102525,-100,4,2,1,5,0,0

[Colours]
Combo1 : 255,190,159
Combo2 : 255,128,128
Combo3 : 128,255,128
Combo4 : 113,208,255

[HitObjects]
96,152,1873,2,0,B|120:88|200:96|216:160,1,160
240,272,3612,2,0,B|264:312|304:328,2,80,0|8|0
352,208,5351,6,0,B|352:128|304:56,1,160,4|2
184,104,7090,1,0
208,232,7959,2,0,B|224:280|256:304,2,80,2|0|2
88,192,9699,5,2
168,96,10568,1,0
280,152,11438,2,0,B|312:120|320:80,2,80,2|0|2
392,216,13177,6,0,B|432:208|464:184,2,80,2|0|2
312,320,14916,1,2
192,272,15786,1,2
216,144,16655,5,2
272,256,17525,2,0,B|368:240|400:152|336:64,1,240,0|2
280,64,19264,6,0,B|192:40|128:96,1,160,4|2
224,176,21003,1,0
256,296,21872,2,0,B|272:336|304:360,2,80,2|0|2
376,256,23612,5,2
400,128,24481,1,0
296,48,25351,2,0,B|336:32|376:32,2,80,2|0|2
176,96,27090,5,2
96,200,27959,1,0
224,224,28829,2,0,B|224:264|200:304,2,80,2|0|2
352,232,30568,1,0
384,112,31438,6,0,B|352:88|304:88,1,80,2|0
256,120,32307,2,8,B|216:128|176:112,1,80
112,128,33177,6,0,B|72:168|72:240|128:280,1,160,4|0
176,296,34481,1,8
240,288,34916,2,0,B|328:256|352:176,1,160
376,120,36220,1,8
352,64,36655,6,0,B|264:40|200:96,1,160
232,152,37959,1,8
280,192,38394,2,0,B|280:256|208:288|152:272,1,160
112,240,39699,1,8
72,192,40133,2,0,B|48:144|56:80|112:48,1,160,0|0
232,88,41872,6,0,B|280:168|280:240,2,160,0|8|0
360,64,44481,1,0
384,128,44916,1,8
384,192,45351,2,0,B|368:288|272:280,1,160,0|8
208,272,46655,1,8
152,240,47090,6,0,B|96:168|144:80,1,160,4|0
200,88,48394,1,8
256,120,48829,2,0,B|288:192|384:208,1,160
432,176,50133,1,8
424,120,50568,6,0,B|384:48|280:40,2,160
424,240,53177,1,8
360,248,53612,1,8
296,240,54046,1,0
216,136,54916,6,0,B|184:112|176:56,2,80,0|8|0
320,64,56655,1,0
368,104,57090,1,8
256,192,57525,12,4,61003
120,80,61872,5,2
248,56,62742,2,0,B|336:56|392:120,1,160,2|2
424,240,64481,5,2
304,288,65351,2,0,B|256:288|224:272,2,80,2|0|2
312,160,67090,2,0,B|352:152|384:128,2,80,2|0|2
208,88,68829,5,2
96,152,69699,2,0,B|48:224|96:304,1,160,2|2
216,256,71438,2,0,B|240:176|336:168,1,160,2|2
400,280,73177,6,0,B|456:216|448:128,1,160,2|2
336,72,74916,2,0,B|296:48|248:48,2,80,2|0|2
344,200,76655,2,0,B|384:224|392:272,2,80,2|0|2
256,192,78394,12,0,80133
88,112,81438,1,8
112,168,81872,2,0,B|160:240|256:248,1,160,4|0
288,128,83612,2,0,B|368:136|432:208,1,160
448,264,84916,1,8
408,312,85351,6,0,B|320:328|248:312,1,160
208,192,87090,2,0,B|184:160|144:128,1,80,0|8
96,96,87959,1,0
136,40,88394,1,8
200,48,88829,6,0,B|288:32|360:80,1,160,0|0
360,200,90568,2,0,B|440:208|504:144,2,160,0|8|4
288,304,93177,5,0
224,304,93612,1,8
160,288,94046,1,0
128,160,94916,5,0
192,136,95351,1,8
256,152,95786,1,0
336,248,96655,6,0,B|288:288|224:288,1,120,0|4
80,216,98394,1,8
96,152,98829,1,8
144,112,99264,6,0,B|216:72|312:96,2,160,4|2|2
232,200,101872,2,0,B|248:328,1,120,2|0
