osu file format v12

[General]
AudioFilename: ODDS&ENDS.mp3
AudioLeadIn: 2000
PreviewTime: 57700
Countdown: 0
SampleSet: Soft
StackLeniency: 0.7
Mode: 0
LetterboxInBreaks: 0

[Editor]
DistanceSpacing: 0.8
BeatDivisor: 4
GridSize: 8

[Metadata]
Title:ODDS&ENDS (Short Ver.)
TitleUnicode:ODDS&ENDS (Short Ver.)
Artist:ryo (supercell)
ArtistUnicode:ryo (supercell)
Creator:Betsuto
Version:Normal
Source:Project DIVA f
Tags:Sega vocaloid crypton SkyDevil Azure Hatsune Miku
BeatmapID:170043
BeatmapSetID:56017

[Difficulty]
HPDrainRate:3
CircleSize:3
OverallDifficulty:3
ApproachRate:4
SliderMultiplier:1.1
SliderTickRate:2

[Events]
//Background and Video events
0,0,"ODDS&ENDS.jpg",0,0
//Break Periods
//Storyboard Layer 0 (Background)
Sprite,Background,Centre,"ODDS&ENDS.jpg",320,240 M,0,-119,,320,240 S,0,-119,,0.6639999 F,0,-119,2640,0,1 F,0,2640,2719,1 F,0,2719,12719,1 F,0,12719,13890,1,0 F,0,13890,13969,0 F,0,13969,87094,0 F,0,87094,87640,0,1 F,0,87640,87719,1 F,0,87719,90219,1 F,0,90219,91000,1,0 F,0,91000,91101,0 F,0,91101,91102,0 F,0,91102,91104,0
Sprite,Background,Centre,"SB\ODDS1.jpg",320,240 F,0,12640,12719,0 S,0,12700,,1.023183 F,0,12719,13031,0,1 M,0,12719,32719,237,184,364,296 F,0,13031,32640,1 F,0,13031,32719,1 F,0,32094,32719,0,1 F,0,32640,32719,1
Sprite,Background,Centre,"SB\ODDS2.jpg",320,240 F,0,32015,32094,0 F,0,32094,32719,0,1 S,0,32719,,0.9712119 F,0,32719,42543,1 M,0,32719,42562,357,189,325,258 F,0,42543,42562,1,0
Sprite,Background,Centre,"SB\ODDS3.jpg",320,240 F,0,42094,42562,0,1 S,0,42562,,0.999241 M,0,42562,55219,296,196,325,292
Sprite,Background,Centre,"SB\ODDS4.jpg",320,240 S,0,57719,,1.147212 M,0,57719,77719,215,272,391,277 F,0,77699,77719,1 F,0,77719,78265,1,0 F,0,78265,78344,0
Sprite,Background,Centre,"SB\ODDS5.jpg",320,240 F,0,77015,77094,0 F,0,77094,77719,0,1 S,0,77719,,0.901197 F,0,77719,87640,1 M,0,77719,87719,283,251,358,251 F,0,87640,87719,1 F,0,87719,88890,1,0 M,0,87719,88969,358,251,369,251 F,0,88890,88969,0
Sprite,Background,Centre,"SB\White.png",320,240 M,0,11469,,320,240 S,0,11469,,0.7040001 F,0,11469,12640,0,0.3400002 F,0,12640,12719,0.3400002,0.6000002 F,0,12719,13890,0.6000002,0 F,0,13890,13969,0 F,0,13969,31469,0 F,0,31469,32640,0,0.3640001 F,0,32640,32719,0.3640001,0.6600001 F,0,32719,33890,0.6600001,0 F,0,33890,33969,0 F,0,33969,41312,0 F,0,41312,42484,0,0.3280001 F,0,42484,42562,0.3280001,0.6418039 F,0,42562,43890,0.6418039,0 F,0,43890,43969,0 F,0,43969,47719,0 F,0,47719,47724,0 F,0,47724,54984,0,1 F,0,54984,55062,1 F,0,55062,57719,1 F,0,57719,58890,1,0 F,0,58890,58969,0 F,0,58969,76469,0 F,0,76469,77640,0,0.3960001 F,0,77640,77719,0.3960001,0.72 F,0,77719,78890,0.72,0 F,0,78890,78969,0 F,0,78969,86469,0 F,0,86469,87640,0,0.4840001 F,0,87640,87719,0.4840001,0.6960002 F,0,87719,88969,0.6960002,0
//Storyboard Layer 1 (Fail)
//Storyboard Layer 2 (Pass)
//Storyboard Layer 3 (Foreground)
Sprite,Foreground,Centre,"SB\L06.png",320,240 F,0,31309,31466,0,1 M,0,31466,,208,189 F,0,31466,34903,1 F,0,34903,35059,1,0 M,0,35059,,208,189
Sprite,Foreground,Centre,"SB\L07.png",320,240 M,0,34903,,190,225 F,0,34903,35059,0,1 M,0,35059,,193,225 F,0,35059,37403,1 F,0,37403,37559,1,0 M,0,37559,,193,225
Sprite,Foreground,Centre,"SB\L08.png",320,240 F,0,37403,37559,0,1 M,0,37559,,233,273 F,0,37559,40684,1 F,0,40684,40997,1,0 M,0,40997,90600,233,273,319,237
Sprite,Foreground,Centre,"SB\L09.png",320,240 F,0,40997,41153,0,1 M,0,41153,,230,297 F,0,41153,42403,1 F,0,42403,42559,1,0 M,0,42559,,230,297
Sprite,Foreground,Centre,"SB\L11.png",320,240 F,0,42403,42559,0,1 M,0,42559,,342,224 F,0,42559,44747,1 F,0,44747,,1 F,0,44747,44903,1,0 M,0,45059,,342,224
Sprite,Foreground,Centre,"SB\L12.png",320,240 F,0,44747,44903,0,1 M,0,44903,,362,256 F,0,44903,47091,1 F,0,47091,47247,1,0 M,0,47247,,362,256
Sprite,Foreground,Centre,"SB\L13.png",320,240 F,0,47247,47403,0,1 M,0,47403,,230,230 F,0,47403,55216,1 M,0,55216,,230,230 F,0,55216,55528,1,0
Sprite,Foreground,Centre,"SB\L14.png",320,240 F,0,49903,50059,0,1 M,0,50059,,371,248 F,0,50059,55216,1 M,0,55216,,371,248 F,0,55216,55528,1,0
Sprite,Foreground,Centre,"SB\L15.png",320,240 F,0,57559,57716,0,1 M,0,57716,,127,125 F,0,57716,61622,1 F,0,61622,61934,1,0 M,0,67559,,127,125
Sprite,Foreground,Centre,"SB\L16.png",320,240 F,0,59903,60059,0,1 M,0,60059,,205,149 F,0,60059,61622,1 F,0,61622,61934,1,0 M,0,67559,,205,149
Sprite,Foreground,Centre,"SB\L17.png",320,240 F,0,61778,61934,0,1 M,0,61934,,245,184 F,0,61934,67247,1 F,0,67247,67559,1,0 M,0,67559,,245,184
Sprite,Foreground,Centre,"SB\L18.png",320,240 F,0,67403,67559,0,1 M,0,67559,,332,227 F,0,67559,72247,1 F,0,72247,72559,1,0 M,0,72559,,332,227
Sprite,Foreground,Centre,"SB\L19.png",320,240 F,0,69903,70059,0,1 M,0,70059,,412,243 F,0,70059,72247,1 F,0,72247,72559,1,0 M,0,72559,,412,243
Sprite,Foreground,Centre,"SB\L21.png",320,240 F,0,72403,72559,0,1 M,0,72559,,400,275 F,0,72559,77247,1 F,0,77247,77559,1,0 M,0,77559,,400,275
Sprite,Foreground,Centre,"SB\L22.png",320,240 F,0,77403,77559,0,1 M,0,77559,,316,229 F,0,77559,79747,1 F,0,79747,79903,1,0 M,0,79903,,316,229
Sprite,Foreground,Centre,"SB\L23.png",320,240 F,0,79903,80059,0,1 M,0,80059,,316,267 F,0,80059,82403,1 F,0,82403,82559,1,0 M,0,82716,,316,267
Sprite,Foreground,Centre,"SB\L24.png",320,240 F,0,82559,82716,0,1 M,0,82716,,159,184 F,0,82716,87403,1 F,0,87403,87559,1,0 M,0,87559,,159,184
Sprite,Foreground,Centre,"SB\L25.png",320,240 F,0,85841,85997,0,1 M,0,85997,,236,211 F,0,85997,87403,1 F,0,87403,87559,1,0 M,0,87559,,236,211
Sprite,Foreground,Centre,"SB\L26.png",320,240 M,0,87403,,324,178 F,0,87403,87559,0,1 F,0,87559,90528,1 F,0,90528,90684,1,0 M,0,90684,,324,178
Sprite,Foreground,Centre,"SB\B01.png",320,240 F,0,2403,2716,0,1 M,0,2716,,463,107 F,0,2716,12403,1,0.9781389 F,0,12403,12716,0.9781389,0 M,0,13184,,463,107
Sprite,Foreground,Centre,"SB\B02.png",320,240 F,0,7403,7716,0,1 M,0,7716,,459,138 F,0,7716,12403,1 F,0,12403,12716,1,0 M,0,13184,,459,138
Sprite,Foreground,Centre,"SB\B03.png",320,240 F,0,9903,10216,0,1 M,0,10216,,461,168 F,0,10216,,1 F,0,10216,12403,1 F,0,12403,12716,1,0 M,0,13184,,461,168
Sprite,Foreground,Centre,"SB\L01.png",320,240 F,0,13028,13184,0,1 M,0,13184,,192,217 F,0,13184,16466,1 F,0,16466,16622,1,0 M,0,16778,,192,217
Sprite,Foreground,Centre,"SB\L02.png",320,240 F,0,16778,16934,0,1 M,0,16934,,241,244 F,0,16934,19591,1 F,0,19591,19747,1,0 M,0,19747,,241,244
Sprite,Foreground,Centre,"SB\B01.png",320,240 F,0,2403,2716,0,1 M,0,2716,,463,107 F,0,2716,12403,1,0.9781389 F,0,12403,12716,0.9781389,0 M,0,13184,,463,107
Sprite,Foreground,Centre,"SB\L01.png",320,240 F,0,13028,13184,0,1 M,0,13184,,192,217 F,0,13184,16466,1 F,0,16466,16622,1,0 M,0,16778,,192,217
Sprite,Foreground,Centre,"SB\L02.png",320,240 F,0,16778,16934,0,1 M,0,16934,,241,244 F,0,16934,19591,1 F,0,19591,19747,1,0 M,0,19747,,241,244
Sprite,Foreground,Centre,"SB\L03.png",320,240 F,0,19747,19903,0,1 M,0,19903,,266,273 F,0,19903,22559,1 F,0,22559,22716,1,0 M,0,22872,,266,273
Sprite,Foreground,Centre,"SB\L04.png",320,240 F,0,22872,23028,0,1 M,0,23028,,403,217 F,0,23028,26778,1 F,0,26778,26934,1,0 M,0,26934,,403,217
Sprite,Foreground,Centre,"SB\L04-1.png",320,240 F,0,24903,25059,0,1 M,0,25059,,473,217 F,0,25059,26778,1 F,0,26778,26934,1,0 M,0,26934,,473,217
Sprite,Foreground,Centre,"SB\L05.png",320,240 F,0,26778,26934,0,1 M,0,26934,,442,187 F,0,26934,30684,1 F,0,30684,30997,1,0 M,0,30993,,442,187
Sprite,Foreground,Centre,"SB\L06.png",320,240 F,0,31309,31466,0,1 M,0,31466,,208,189 F,0,31466,34903,1 F,0,34903,35059,1,0 M,0,35059,,208,189
Sprite,Foreground,Centre,"SB\L07.png",320,240 F,0,34903,35059,0,1 M,0,35059,,193,225 F,0,35059,37403,1 F,0,37403,37559,1,0 M,0,37559,,193,225
Sprite,Foreground,Centre,"SB\L08.png",320,240 F,0,37403,37559,0,1 M,0,37559,,233,273 F,0,37559,40684,1 F,0,40684,40997,1,0 M,0,40997,,233,273
Sprite,Foreground,Centre,"SB\L11.png",320,240 F,0,42403,42559,0,1 M,0,42559,,342,224 F,0,42559,44747,1 F,0,44747,,1 F,0,44747,44903,1,0 M,0,45059,,342,224
Sprite,Foreground,Centre,"SB\L12.png",320,240 F,0,44747,44903,0,1 M,0,44903,,362,256 F,0,44903,47091,1 F,0,47091,47247,1,0 M,0,47247,,362,256
Sprite,Foreground,Centre,"SB\L13.png",320,240 F,0,47247,47403,0,1 M,0,47403,,230,230 F,0,47403,55216,1 M,0,55216,,230,230 F,0,55216,55528,1,0
Sprite,Foreground,Centre,"SB\L16.png",320,240 F,0,59903,60059,0,1 M,0,60059,,205,149 F,0,60059,61622,1 F,0,61622,61934,1,0 M,0,67559,,205,149
Sprite,Foreground,Centre,"SB\L17.png",320,240 F,0,61778,61934,0,1 M,0,61934,,245,184 F,0,61934,67247,1 F,0,67247,67559,1,0 M,0,67559,,245,184
Sprite,Foreground,Centre,"SB\L18.png",320,240 F,0,67403,67559,0,1 M,0,67559,,332,227 F,0,67559,72247,1 F,0,72247,72559,1,0 M,0,72559,,332,227
Sprite,Foreground,Centre,"SB\L19.png",320,240 F,0,69903,70059,0,1 M,0,70059,,412,243 F,0,70059,72247,1 F,0,72247,72559,1,0 M,0,72559,,412,243
Sprite,Foreground,Centre,"SB\L21.png",320,240 F,0,72403,72559,0,1 M,0,72559,,400,275 F,0,72559,77247,1 F,0,77247,77559,1,0 M,0,77559,,400,275
Sprite,Foreground,Centre,"SB\L22.png",320,240 F,0,77403,77559,0,1 M,0,77559,,316,229 F,0,77559,79747,1 F,0,79747,79903,1,0 M,0,79903,,316,229
Sprite,Foreground,Centre,"SB\L23.png",320,240 F,0,79903,80059,0,1 M,0,80059,,316,267 F,0,80059,82403,1 F,0,82403,82559,1,0 M,0,82716,,316,267
Sprite,Foreground,Centre,"SB\L24.png",320,240 F,0,82559,82716,0,1 M,0,82716,,159,184 F,0,82716,87403,1 F,0,87403,87559,1,0 M,0,87559,,159,184
Sprite,Foreground,Centre,"SB\L25.png",320,240 F,0,85841,85997,0,1 M,0,85997,,236,211 F,0,85997,87403,1 F,0,87403,87559,1,0 M,0,87559,,236,211
Sprite,Foreground,Centre,"SB\L26.png",320,240 M,0,87403,,324,178 F,0,87403,87559,0,1 F,0,87559,90528,1 F,0,90528,90684,1,0 M,0,90684,,324,178
Sprite,Foreground,Centre,"SB\L04.png",320,240 F,0,22872,23028,0,1 M,0,23028,,403,217 F,0,23028,26778,1 F,0,26778,26934,1,0 M,0,26934,,403,217
Sprite,Foreground,Centre,"SB\L04-1.png",320,240 F,0,24903,25059,0,1 M,0,25059,,473,217 F,0,25059,26778,1 F,0,26778,26934,1,0 M,0,26934,,473,217
Sprite,Foreground,Centre,"SB\L05.png",320,240 F,0,26778,26934,0,1 M,0,26934,,442,187 F,0,26934,30684,1 F,0,30684,30997,1,0 M,0,30993,,442,187
Sprite,Foreground,Centre,"SB\B02.png",320,240 F,0,7403,7716,0,1 M,0,7716,,459,138 F,0,7716,12403,1 F,0,12403,12716,1,0 M,0,13184,,459,138
Sprite,Foreground,Centre,"SB\L09.png",320,240 F,0,40997,41153,0,1 M,0,41153,,230,297 F,0,41153,42403,1 F,0,42403,42559,1,0 M,0,42559,,230,297
Sprite,Foreground,Centre,"SB\L15.png",320,240 F,0,57559,57716,0,1 M,0,57716,,127,125 F,0,57716,61622,1 F,0,61622,61934,1,0 M,0,67559,,127,125
Sprite,Foreground,Centre,"SB\L14.png",320,240 F,0,49903,50059,0,1 M,0,50059,,371,248 F,0,50059,55216,1 M,0,55216,,371,248 F,0,55216,55528,1,0
Sprite,Foreground,Centre,"SB\L03.png",320,240 F,0,19747,19903,0,1 M,0,19903,,266,273 F,0,19903,22559,1 F,0,22559,22716,1,0 M,0,22872,,266,273
//Storyboard Sound Samples
//Background Colour Transformations
3,100,163,162,255

[TimingPoints]
357,312.5,4,2,1,5,1,0
2857,-100,4,2,1,40,0,0
7857,-100,4,2,2,40,0,0
7935,-100,4,2,1,40,0,0
12857,-100,4,2,2,40,0,0
14028,-100,4,2,4,40,0,0
14185,-100,4,2,2,40,0,0
15591,-100,4,2,4,40,0,0
15747,-100,4,2,2,40,0,0
15903,-100,4,2,4,40,0,0
16060,-100,4,2,2,40,0,0
18091,-100,4,2,4,40,0,0
18247,-100,4,2,2,40,0,0
21841,-100,4,2,4,40,0,0
21997,-100,4,2,2,40,0,0
22153,-100,4,2,4,40,0,0
22310,-100,4,2,3,40,0,0
22466,-100,4,2,2,40,0,0
24185,-100,4,2,4,40,0,0
24341,-100,4,2,3,40,0,0
24497,-100,4,2,4,40,0,0
24653,-100,4,2,2,40,0,0
24810,-100,4,2,4,40,0,0
24966,-100,4,2,3,40,0,0
25122,-100,4,2,2,40,0,0
28091,-100,4,2,3,40,0,0
28247,-100,4,2,2,40,0,0
28560,-100,4,2,4,40,0,0
28716,-100,4,2,2,40,0,0
32857,-100,4,2,2,50,0,0
33169,-100,4,2,4,50,0,0
33247,-100,4,2,2,50,0,0
35669,-100,4,2,4,50,0,0
35747,-100,4,2,2,50,0,0
35982,-100,4,2,4,50,0,0
36060,-100,4,2,2,50,0,0
37232,-100,4,2,4,50,0,0
37310,-100,4,2,2,50,0,0
39419,-100,4,2,4,50,0,0
39497,-100,4,2,2,50,0,0
46919,-100,4,2,4,50,0,0
46997,-100,4,2,2,50,0,0
48169,-100,4,2,4,50,0,0
48247,-100,4,2,2,50,0,0
49419,-100,4,2,4,50,0,0
49497,-100,4,2,2,50,0,0
52232,-100,4,2,2,50,0,0
57857,-100,4,2,2,60,0,1
58169,-100,4,2,3,60,0,1
58247,-100,4,2,2,60,0,1
58794,-100,4,2,3,60,0,1
58872,-100,4,2,2,60,0,1
60669,-100,4,2,3,60,0,1
60747,-100,4,2,2,60,0,1
61294,-100,4,2,3,60,0,1
61372,-100,4,2,2,60,0,1
65669,-100,4,2,3,60,0,1
65747,-100,4,2,2,60,0,1
65982,-100,4,2,4,60,0,1
66060,-100,4,2,2,60,0,1
66607,-100,4,2,1,60,0,1
67700,-100,4,2,2,60,0,1
68169,-100,4,2,3,60,0,1
68247,-100,4,2,2,60,0,1
68794,-100,4,2,3,60,0,1
68872,-100,4,2,2,60,0,1
70669,-100,4,2,3,60,0,1
70747,-100,4,2,2,60,0,1
71294,-100,4,2,3,60,0,1
71372,-100,4,2,2,60,0,1
75669,-100,4,2,3,60,0,1
75747,-100,4,2,2,60,0,1
76294,-100,4,2,3,60,0,1
76372,-100,4,2,2,60,0,1
77700,-100,4,2,2,60,0,0
77857,-100,4,2,2,60,0,1
79419,-100,4,2,3,60,0,1
79497,-100,4,2,2,60,0,1
79732,-100,4,2,4,60,0,1
79810,-100,4,2,2,60,0,1
81919,-100,4,2,3,60,0,1
81997,-100,4,2,2,60,0,1
82232,-100,4,2,4,60,0,1
82310,-100,4,2,2,60,0,1
89888,-100,4,2,2,60,0,1
90200,-100,4,2,2,60,0,0

[Colours]
Combo1 : 45,187,255
Combo2 : 255,128,64
Combo3 : 242,242,242
Combo4 : 255,128,192
SliderBorder : 255,255,255

[HitObjects]
256,192,357,12,4,2857,0:0:0:0:
72,192,3482,5,2,0:0:0:0:
152,232,3794,1,0,0:0:0:0:
232,192,4107,1,2,0:0:0:0:
152,40,4732,2,0,B|152:160,2,110,2|0|2,0:0|0:0|0:0,0:0:0:0:
328,40,5982,5,2,0:0:0:0:
288,120,6294,1,0,0:0:0:0:
328,200,6607,1,2,0:0:0:0:
480,120,7232,2,0,B|360:120,2,110,2|0|2,0:0|0:0|0:0,0:0:0:0:
480,296,8482,5,2,0:0:0:0:
392,296,8794,1,0,0:0:0:0:
304,296,9107,1,2,0:0:0:0:
136,248,9732,2,0,B|104:304|144:360,2,110,2|0|2,0:0|0:0|0:0,0:0:0:0:
168,64,10982,5,2,0:0:0:0:
256,56,11294,1,0,0:0:0:0:
344,64,11607,1,2,0:0:0:0:
400,232,12232,2,0,B|344:272|288:224,2,110,2|0|2,0:0|0:0|0:0,0:0:0:0:
368,104,13325,6,0,L|408:56,2,55,0|2|0,0:0|0:0|0:0,0:0:0:0:
288,80,13950,2,0,P|288:136|336:184,1,110
408,208,14575,2,0,L|464:208,2,55,0|2|0,0:0|0:0|0:0,0:0:0:0:
288,264,15357,6,0,B|112:264,2,165,2|0|2,0:0|0:0|0:0,0:0:0:0:
320,344,16607,2,0,P|368:296|368:240,1,110,2|2,0:0|0:0,0:0:0:0:
320,184,17232,2,0,L|208:184,1,110,2|2,0:0|0:0,0:0:0:0:
120,184,17857,6,0,B|80:120|128:48|208:48|240:88,1,220,2|2,0:0|0:0,0:0:0:0:
280,256,19107,2,0,B|208:168,2,110,2|2|2,0:0|0:0|0:0,0:0:0:0:
408,136,20357,6,0,B|440:192|408:256,2,110,2|2|2,0:0|0:0|0:0,0:0:0:0:
240,192,21607,2,0,B|72:192,2,165,2|0|8,0:0|0:0|0:0,0:0:0:0:
320,152,22857,1,2,0:0:0:0:
256,320,23482,5,2,0:0:0:0:
168,168,24107,2,0,B|208:88|320:88|352:184,2,220,2|0|2,0:0|0:0|0:0,0:0:0:0:
256,48,25982,1,2,0:0:0:0:
256,224,26607,2,0,B|256:336,2,110,2|8|2,0:0|0:0|0:0,0:0:0:0:
184,64,27857,6,0,B|224:16|304:16|336:80,2,165,2|2|8,0:0|0:0|0:0,0:0:0:0:
256,120,29107,1,2,0:0:0:0:
204,288,29732,2,0,B|316:288,2,110,2|8|2,0:0|0:0|0:0,0:0:0:0:
256,192,30669,12,0,32232,0:0:0:0:
160,264,32857,6,0,P|256:312|360:248,1,220,2|2,0:0|0:0,0:0:0:0:
336,176,33794,2,0,P|296:192|280:208,2,55,2|12|2,0:0|0:0|0:0,0:0:0:0:
384,104,34419,2,0,P|416:144|416:208,2,110,2|2|2,0:0|0:0|0:0,0:0:0:0:
296,96,35357,6,0,B|120:96,2,165,2|0|2,0:0|0:0|0:0,0:0:0:0:
336,176,36607,1,2,0:0:0:0:
264,232,36919,2,0,B|344:304|424:216,1,165,2|0,0:0|0:0,0:0:0:0:
416,96,37857,6,0,B|360:56|304:96,2,110,2|2|2,0:0|0:0|0:0,0:0:0:0:
360,168,38794,1,2,0:0:0:0:
432,216,39107,2,0,B|352:296|272:200,1,165,2|0,0:0|0:0,0:0:0:0:
264,136,39888,2,0,P|224:160|208:224,1,110
72,208,40669,6,0,P|104:264|152:280,2,110,2|2|2,0:0|0:0|0:0,0:0:0:0:
160,192,41607,1,2,0:0:0:0:
208,112,41919,1,2,0:0:0:0:
296,88,42232,2,0,B|320:152|272:192,1,110,2|8,0:0|0:0,0:0:0:0:
232,192,42700,6,0,B|64:192,1,165,4|2,0:0|0:0,0:0:0:0:
40,112,43482,1,2,0:0:0:0:
80,32,43794,1,2,0:0:0:0:
120,112,44107,2,0,B|232:112,1,110,2|2,0:0|0:0,0:0:0:0:
320,112,44732,6,0,P|360:128|352:200,1,110,2|10,0:0|0:0,0:0:0:0:
320,192,45200,2,0,B|152:192,1,165,4|2,0:0|0:0,0:0:0:0:
64,192,45982,1,2,0:0:0:0:
64,104,46294,1,2,0:0:0:0:
152,104,46607,2,0,B|320:104,1,165,2|0,0:0|0:0,0:0:0:0:
256,224,47544,5,0,0:0:0:0:
176,248,47857,2,0,B|200:344|336:320|336:240,1,220,6|2,0:0|0:0,0:0:0:0:
400,184,48794,1,2,0:0:0:0:
344,112,49107,2,0,B|320:40|192:32|168:120,1,220,2|2,0:0|0:0,0:0:0:0:
256,280,50357,5,2,0:0:0:0:
200,160,50825,2,0,B|256:192|312:160,2,110,0|2|0,0:0|0:0|0:0,0:0:0:0:
256,88,51763,1,2,0:0:0:0:
344,88,52075,1,0,0:0:0:0:
392,160,52388,1,2,0:0:0:0:
344,232,52700,1,4,0:0:0:0:
256,192,53013,12,4,55200,0:0:0:0:
256,104,55982,6,8,B|136:104,2,110,8|8|8,0:0|0:0|0:0,0:0:0:0:
256,192,56919,1,8,0:0:0:0:
256,280,57232,2,8,B|256:336,1,55
384,296,57857,6,0,B|456:184|376:72,2,220,4|2|2,0:0|0:0|0:0,0:0:0:0:
320,240,59419,2,0,B|360:184|312:128,1,110,8|2,0:0|0:0,0:0:0:0:
256,192,60044,1,8,0:0:0:0:
208,112,60357,6,0,B|112:136|128:272|224:272,2,220,2|2|2,0:0|0:0|0:0,0:0:0:0:
256,192,61919,2,0,B|368:192,1,110,8|2,0:0|0:0,0:0:0:0:
440,248,62544,6,0,B|480:184|432:128,1,110,8|6,0:0|0:0,0:0:0:0:
384,80,63169,1,8,0:0:0:0:
296,80,63482,1,2,0:0:0:0:
224,128,63794,2,0,B|192:176|224:232,1,110,8|6,0:0|0:0,0:0:0:0:
296,176,64419,1,8,0:0:0:0:
368,232,64732,2,0,P|384:200|384:160,2,55,2|2|8,0:0|0:0|0:0,0:0:0:0:
336,312,65357,6,0,B|256:360|176:312,2,165,6|0|8,0:0|0:0|0:0,0:0:0:0:
344,224,66607,1,2,0:0:0:0:
304,144,66919,1,8,0:0:0:0:
208,144,67232,1,2,0:0:0:0:
168,224,67544,1,10,0:0:0:0:
256,248,67857,6,0,B|216:192|304:88|248:24,2,220,4|2|2,0:0|0:0|0:0,0:0:0:0:
208,320,69419,2,0,B|256:352|312:320,1,110,8|2,0:0|0:0,0:0:0:0:
352,240,70044,1,8,0:0:0:0:
272,208,70357,6,0,B|296:128|416:128|440:216,2,220,2|2|2,0:0|0:0|0:0,0:0:0:0:
288,296,71919,1,8,0:0:0:0:
376,288,72232,2,0,B|376:264|352:240,2,55,2|2|8,0:0|0:0|0:0,0:0:0:0:
336,368,72857,5,4,0:0:0:0:
248,368,73169,1,8,0:0:0:0:
184,304,73482,2,0,B|184:240,2,55,2|2|8,0:0|0:0|0:0,0:0:0:0:
272,280,74107,1,2,0:0:0:0:
336,224,74419,1,8,0:0:0:0:
392,296,74732,2,0,B|392:352,2,55,2|2|8,0:0|0:0|0:0,0:0:0:0:
480,272,75357,6,0,P|520:184|472:128,1,165,4|4,0:0|0:0,0:0:0:0:
440,64,76138,2,0,P|400:144|448:208,1,165,4|8,0:0|0:0,0:0:0:0:
384,272,76919,1,8,0:0:0:0:
336,344,77232,1,8,0:0:0:0:
288,272,77544,1,8,0:0:0:0:
288,184,77857,6,0,B|176:184,1,110,6|8,0:0|0:0,0:0:0:0:
96,144,78482,1,2,0:0:0:0:
96,232,78794,1,8,0:0:0:0:
168,280,79107,2,0,B|336:280,2,165,2|0|8,0:0|0:0|0:0,0:0:0:0:
168,192,80357,6,0,B|176:128|248:112,1,110,2|8,0:0|0:0,0:0:0:0:
256,200,80982,1,2,0:0:0:0:
344,192,81294,1,8,0:0:0:0:
392,264,81607,2,0,B|440:224|440:144|376:104,2,165,2|0|8,0:0|0:0|0:0,0:0:0:0:
328,320,82857,5,12,0:0:0:0:
256,272,83169,1,8,0:0:0:0:
184,320,83482,2,8,B|80:248,1,110
24,208,84107,1,8,0:0:0:0:
96,160,84419,1,8,0:0:0:0:
168,208,84732,2,8,B|272:136,1,110
256,56,85357,6,0,B|424:56,1,165,6|2,0:0|0:0,0:0:0:0:
464,56,85982,1,8,0:0:0:0:
448,144,86294,1,0,0:0:0:0:
432,232,86607,2,0,L|320:232,1,110,2|2,0:0|0:0,0:0:0:0:
232,232,87232,1,8,0:0:0:0:
152,200,87544,1,2,0:0:0:0:
120,120,87857,1,6,0:0:0:0:
120,296,88482,6,0,B|192:256|248:336|344:288,1,220,8|2,0:0|0:0,0:0:0:0:
408,240,89419,2,0,P|440:192|440:136,1,110,2|0,0:0|0:0,0:0:0:0:
416,104,89888,2,0,L|416:40,2,55,8|8|12,0:0|0:0|0:0,0:0:0:0:
