osu file format v12

[General]
AudioFilename: ODDS&ENDS.mp3
AudioLeadIn: 2000
PreviewTime: 57700
Countdown: 0
SampleSet: Soft
StackLeniency: 0.7
Mode: 0
LetterboxInBreaks: 0

[Editor]
DistanceSpacing: 1
BeatDivisor: 4
GridSize: 4

[Metadata]
Title:ODDS&ENDS (Short Ver.)
TitleUnicode:ODDS&ENDS (Short Ver.)
Artist:ryo (supercell)
ArtistUnicode:ryo (supercell)
Creator:Betsuto
Version:Insane
Source:Project DIVA f
Tags:Sega vocaloid crypton SkyDevil Azure Hatsune Miku
BeatmapID:169639
BeatmapSetID:56017

[Difficulty]
HPDrainRate:6
CircleSize:4
OverallDifficulty:8
ApproachRate:9
SliderMultiplier:1.7
SliderTickRate:2

[Events]
//Background and Video events
0,0,"ODDS&ENDS.jpg",0,0
//Break Periods
//Storyboard Layer 0 (Background)
Sprite,Background,Centre,"ODDS&ENDS.jpg",320,240 M,0,-119,,320,240 S,0,-119,,0.6639999 F,0,-119,2640,0,1 F,0,2640,2719,1 F,0,2719,12719,1 F,0,12719,13890,1,0 F,0,13890,13969,0 F,0,13969,87094,0 F,0,87094,87640,0,1 F,0,87640,87719,1 F,0,87719,90219,1 F,0,90219,91000,1,0 F,0,91000,91101,0 F,0,91101,91102,0 F,0,91102,91104,0
Sprite,Background,Centre,"SB\ODDS1.jpg",320,240 F,0,12640,12719,0 S,0,12700,,1.023183 F,0,12719,13031,0,1 M,0,12719,32719,237,184,364,296 F,0,13031,32640,1 F,0,13031,32719,1 F,0,32094,32719,0,1 F,0,32640,32719,1
Sprite,Background,Centre,"SB\ODDS2.jpg",320,240 F,0,32015,32094,0 F,0,32094,32719,0,1 S,0,32719,,0.9712119 F,0,32719,42543,1 M,0,32719,42562,357,189,325,258 F,0,42543,42562,1,0
Sprite,Background,Centre,"SB\ODDS3.jpg",320,240 F,0,42094,42562,0,1 S,0,42562,,0.999241 M,0,42562,55219,296,196,325,292
Sprite,Background,Centre,"SB\ODDS4.jpg",320,240 S,0,57719,,1.147212 M,0,57719,77719,215,272,391,277 F,0,77699,77719,1 F,0,77719,78265,1,0 F,0,78265,78344,0
Sprite,Background,Centre,"SB\ODDS5.jpg",320,240 F,0,77015,77094,0 F,0,77094,77719,0,1 S,0,77719,,0.901197 F,0,77719,87640,1 M,0,77719,87719,283,251,358,251 F,0,87640,87719,1 F,0,87719,88890,1,0 M,0,87719,88969,358,251,369,251 F,0,88890,88969,0
Sprite,Background,Centre,"SB\White.png",320,240 M,0,11469,,320,240 S,0,11469,,0.7040001 F,0,11469,12640,0,0.3400002 F,0,12640,12719,0.3400002,0.6000002 F,0,12719,13890,0.6000002,0 F,0,13890,13969,0 F,0,13969,31469,0 F,0,31469,32640,0,0.3640001 F,0,32640,32719,0.3640001,0.6600001 F,0,32719,33890,0.6600001,0 F,0,33890,33969,0 F,0,33969,41312,0 F,0,41312,42484,0,0.3280001 F,0,42484,42562,0.3280001,0.6418039 F,0,42562,43890,0.6418039,0 F,0,43890,43969,0 F,0,43969,47719,0 F,0,47719,47724,0 F,0,47724,54984,0,1 F,0,54984,55062,1 F,0,55062,57719,1 F,0,57719,58890,1,0 F,0,58890,58969,0 F,0,58969,76469,0 F,0,76469,77640,0,0.3960001 F,0,77640,77719,0.3960001,0.72 F,0,77719,78890,0.72,0 F,0,78890,78969,0 F,0,78969,86469,0 F,0,86469,87640,0,0.4840001 F,0,87640,87719,0.4840001,0.6960002 F,0,87719,88969,0.6960002,0
//Storyboard Layer 1 (Fail)
//Storyboard Layer 2 (Pass)
//Storyboard Layer 3 (Foreground)
Sprite,Foreground,Centre,"SB\L06.png",320,240 F,0,31309,31466,0,1 M,0,31466,,208,189 F,0,31466,34903,1 F,0,34903,35059,1,0 M,0,35059,,208,189
Sprite,Foreground,Centre,"SB\L07.png",320,240 M,0,34903,,190,225 F,0,34903,35059,0,1 M,0,35059,,193,225 F,0,35059,37403,1 F,0,37403,37559,1,0 M,0,37559,,193,225
Sprite,Foreground,Centre,"SB\L08.png",320,240 F,0,37403,37559,0,1 M,0,37559,,233,273 F,0,37559,40684,1 F,0,40684,40997,1,0 M,0,40997,90600,233,273,319,237
Sprite,Foreground,Centre,"SB\L09.png",320,240 F,0,40997,41153,0,1 M,0,41153,,230,297 F,0,41153,42403,1 F,0,42403,42559,1,0 M,0,42559,,230,297
Sprite,Foreground,Centre,"SB\L11.png",320,240 F,0,42403,42559,0,1 M,0,42559,,342,224 F,0,42559,44747,1 F,0,44747,,1 F,0,44747,44903,1,0 M,0,45059,,342,224
Sprite,Foreground,Centre,"SB\L12.png",320,240 F,0,44747,44903,0,1 M,0,44903,,362,256 F,0,44903,47091,1 F,0,47091,47247,1,0 M,0,47247,,362,256
Sprite,Foreground,Centre,"SB\L13.png",320,240 F,0,47247,47403,0,1 M,0,47403,,230,230 F,0,47403,55216,1 M,0,55216,,230,230 F,0,55216,55528,1,0
Sprite,Foreground,Centre,"SB\L14.png",320,240 F,0,49903,50059,0,1 M,0,50059,,371,248 F,0,50059,55216,1 M,0,55216,,371,248 F,0,55216,55528,1,0
Sprite,Foreground,Centre,"SB\L15.png",320,240 F,0,57559,57716,0,1 M,0,57716,,127,125 F,0,57716,61622,1 F,0,61622,61934,1,0 M,0,67559,,127,125
Sprite,Foreground,Centre,"SB\L16.png",320,240 F,0,59903,60059,0,1 M,0,60059,,205,149 F,0,60059,61622,1 F,0,61622,61934,1,0 M,0,67559,,205,149
Sprite,Foreground,Centre,"SB\L17.png",320,240 F,0,61778,61934,0,1 M,0,61934,,245,184 F,0,61934,67247,1 F,0,67247,67559,1,0 M,0,67559,,245,184
Sprite,Foreground,Centre,"SB\L18.png",320,240 F,0,67403,67559,0,1 M,0,67559,,332,227 F,0,67559,72247,1 F,0,72247,72559,1,0 M,0,72559,,332,227
Sprite,Foreground,Centre,"SB\L19.png",320,240 F,0,69903,70059,0,1 M,0,70059,,412,243 F,0,70059,72247,1 F,0,72247,72559,1,0 M,0,72559,,412,243
Sprite,Foreground,Centre,"SB\L21.png",320,240 F,0,72403,72559,0,1 M,0,72559,,400,275 F,0,72559,77247,1 F,0,77247,77559,1,0 M,0,77559,,400,275
Sprite,Foreground,Centre,"SB\L22.png",320,240 F,0,77403,77559,0,1 M,0,77559,,316,229 F,0,77559,79747,1 F,0,79747,79903,1,0 M,0,79903,,316,229
Sprite,Foreground,Centre,"SB\L23.png",320,240 F,0,79903,80059,0,1 M,0,80059,,316,267 F,0,80059,82403,1 F,0,82403,82559,1,0 M,0,82716,,316,267
Sprite,Foreground,Centre,"SB\L24.png",320,240 F,0,82559,82716,0,1 M,0,82716,,159,184 F,0,82716,87403,1 F,0,87403,87559,1,0 M,0,87559,,159,184
Sprite,Foreground,Centre,"SB\L25.png",320,240 F,0,85841,85997,0,1 M,0,85997,,236,211 F,0,85997,87403,1 F,0,87403,87559,1,0 M,0,87559,,236,211
Sprite,Foreground,Centre,"SB\L26.png",320,240 M,0,87403,,324,178 F,0,87403,87559,0,1 F,0,87559,90528,1 F,0,90528,90684,1,0 M,0,90684,,324,178
Sprite,Foreground,Centre,"SB\B01.png",320,240 F,0,2403,2716,0,1 M,0,2716,,463,107 F,0,2716,12403,1,0.9781389 F,0,12403,12716,0.9781389,0 M,0,13184,,463,107
Sprite,Foreground,Centre,"SB\B02.png",320,240 F,0,7403,7716,0,1 M,0,7716,,459,138 F,0,7716,12403,1 F,0,12403,12716,1,0 M,0,13184,,459,138
Sprite,Foreground,Centre,"SB\B03.png",320,240 F,0,9903,10216,0,1 M,0,10216,,461,168 F,0,10216,,1 F,0,10216,12403,1 F,0,12403,12716,1,0 M,0,13184,,461,168
Sprite,Foreground,Centre,"SB\L01.png",320,240 F,0,13028,13184,0,1 M,0,13184,,192,217 F,0,13184,16466,1 F,0,16466,16622,1,0 M,0,16778,,192,217
Sprite,Foreground,Centre,"SB\L02.png",320,240 F,0,16778,16934,0,1 M,0,16934,,241,244 F,0,16934,19591,1 F,0,19591,19747,1,0 M,0,19747,,241,244
Sprite,Foreground,Centre,"SB\B01.png",320,240 F,0,2403,2716,0,1 M,0,2716,,463,107 F,0,2716,12403,1,0.9781389 F,0,12403,12716,0.9781389,0 M,0,13184,,463,107
Sprite,Foreground,Centre,"SB\L01.png",320,240 F,0,13028,13184,0,1 M,0,13184,,192,217 F,0,13184,16466,1 F,0,16466,16622,1,0 M,0,16778,,192,217
Sprite,Foreground,Centre,"SB\L02.png",320,240 F,0,16778,16934,0,1 M,0,16934,,241,244 F,0,16934,19591,1 F,0,19591,19747,1,0 M,0,19747,,241,244
Sprite,Foreground,Centre,"SB\L03.png",320,240 F,0,19747,19903,0,1 M,0,19903,,266,273 F,0,19903,22559,1 F,0,22559,22716,1,0 M,0,22872,,266,273
Sprite,Foreground,Centre,"SB\L04.png",320,240 F,0,22872,23028,0,1 M,0,23028,,403,217 F,0,23028,26778,1 F,0,26778,26934,1,0 M,0,26934,,403,217
Sprite,Foreground,Centre,"SB\L04-1.png",320,240 F,0,24903,25059,0,1 M,0,25059,,473,217 F,0,25059,26778,1 F,0,26778,26934,1,0 M,0,26934,,473,217
Sprite,Foreground,Centre,"SB\L05.png",320,240 F,0,26778,26934,0,1 M,0,26934,,442,187 F,0,26934,30684,1 F,0,30684,30997,1,0 M,0,30993,,442,187
Sprite,Foreground,Centre,"SB\L06.png",320,240 F,0,31309,31466,0,1 M,0,31466,,208,189 F,0,31466,34903,1 F,0,34903,35059,1,0 M,0,35059,,208,189
Sprite,Foreground,Centre,"SB\L07.png",320,240 F,0,34903,35059,0,1 M,0,35059,,193,225 F,0,35059,37403,1 F,0,37403,37559,1,0 M,0,37559,,193,225
Sprite,Foreground,Centre,"SB\L08.png",320,240 F,0,37403,37559,0,1 M,0,37559,,233,273 F,0,37559,40684,1 F,0,40684,40997,1,0 M,0,40997,,233,273
Sprite,Foreground,Centre,"SB\L11.png",320,240 F,0,42403,42559,0,1 M,0,42559,,342,224 F,0,42559,44747,1 F,0,44747,,1 F,0,44747,44903,1,0 M,0,45059,,342,224
Sprite,Foreground,Centre,"SB\L12.png",320,240 F,0,44747,44903,0,1 M,0,44903,,362,256 F,0,44903,47091,1 F,0,47091,47247,1,0 M,0,47247,,362,256
Sprite,Foreground,Centre,"SB\L13.png",320,240 F,0,47247,47403,0,1 M,0,47403,,230,230 F,0,47403,55216,1 M,0,55216,,230,230 F,0,55216,55528,1,0
Sprite,Foreground,Centre,"SB\L16.png",320,240 F,0,59903,60059,0,1 M,0,60059,,205,149 F,0,60059,61622,1 F,0,61622,61934,1,0 M,0,67559,,205,149
Sprite,Foreground,Centre,"SB\L17.png",320,240 F,0,61778,61934,0,1 M,0,61934,,245,184 F,0,61934,67247,1 F,0,67247,67559,1,0 M,0,67559,,245,184
Sprite,Foreground,Centre,"SB\L18.png",320,240 F,0,67403,67559,0,1 M,0,67559,,332,227 F,0,67559,72247,1 F,0,72247,72559,1,0 M,0,72559,,332,227
Sprite,Foreground,Centre,"SB\L19.png",320,240 F,0,69903,70059,0,1 M,0,70059,,412,243 F,0,70059,72247,1 F,0,72247,72559,1,0 M,0,72559,,412,243
Sprite,Foreground,Centre,"SB\L21.png",320,240 F,0,72403,72559,0,1 M,0,72559,,400,275 F,0,72559,77247,1 F,0,77247,77559,1,0 M,0,77559,,400,275
Sprite,Foreground,Centre,"SB\L22.png",320,240 F,0,77403,77559,0,1 M,0,77559,,316,229 F,0,77559,79747,1 F,0,79747,79903,1,0 M,0,79903,,316,229
Sprite,Foreground,Centre,"SB\L23.png",320,240 F,0,79903,80059,0,1 M,0,80059,,316,267 F,0,80059,82403,1 F,0,82403,82559,1,0 M,0,82716,,316,267
Sprite,Foreground,Centre,"SB\L24.png",320,240 F,0,82559,82716,0,1 M,0,82716,,159,184 F,0,82716,87403,1 F,0,87403,87559,1,0 M,0,87559,,159,184
Sprite,Foreground,Centre,"SB\L25.png",320,240 F,0,85841,85997,0,1 M,0,85997,,236,211 F,0,85997,87403,1 F,0,87403,87559,1,0 M,0,87559,,236,211
Sprite,Foreground,Centre,"SB\L26.png",320,240 M,0,87403,,324,178 F,0,87403,87559,0,1 F,0,87559,90528,1 F,0,90528,90684,1,0 M,0,90684,,324,178
Sprite,Foreground,Centre,"SB\L04.png",320,240 F,0,22872,23028,0,1 M,0,23028,,403,217 F,0,23028,26778,1 F,0,26778,26934,1,0 M,0,26934,,403,217
Sprite,Foreground,Centre,"SB\L04-1.png",320,240 F,0,24903,25059,0,1 M,0,25059,,473,217 F,0,25059,26778,1 F,0,26778,26934,1,0 M,0,26934,,473,217
Sprite,Foreground,Centre,"SB\L05.png",320,240 F,0,26778,26934,0,1 M,0,26934,,442,187 F,0,26934,30684,1 F,0,30684,30997,1,0 M,0,30993,,442,187
Sprite,Foreground,Centre,"SB\B02.png",320,240 F,0,7403,7716,0,1 M,0,7716,,459,138 F,0,7716,12403,1 F,0,12403,12716,1,0 M,0,13184,,459,138
Sprite,Foreground,Centre,"SB\L09.png",320,240 F,0,40997,41153,0,1 M,0,41153,,230,297 F,0,41153,42403,1 F,0,42403,42559,1,0 M,0,42559,,230,297
Sprite,Foreground,Centre,"SB\L15.png",320,240 F,0,57559,57716,0,1 M,0,57716,,127,125 F,0,57716,61622,1 F,0,61622,61934,1,0 M,0,67559,,127,125
Sprite,Foreground,Centre,"SB\L14.png",320,240 F,0,49903,50059,0,1 M,0,50059,,371,248 F,0,50059,55216,1 M,0,55216,,371,248 F,0,55216,55528,1,0
Sprite,Foreground,Centre,"SB\L03.png",320,240 F,0,19747,19903,0,1 M,0,19903,,266,273 F,0,19903,22559,1 F,0,22559,22716,1,0 M,0,22872,,266,273
//Storyboard Sound Samples
//Background Colour Transformations
3,100,163,162,255

[TimingPoints]
357,312.5,4,2,1,5,1,0
2700,-100,4,2,1,5,0,0
2857,-100,4,2,1,40,0,0
7700,-100,4,2,2,40,0,0
7935,-100,4,2,1,40,0,0
12857,-100,4,2,2,40,0,0
14341,-100,4,2,4,40,0,0
14497,-100,4,2,2,40,0,0
14966,-100,4,2,4,40,0,0
15122,-100,4,2,2,40,0,0
21919,-100,4,2,4,40,0,0
21997,-100,4,2,2,40,0,0
22700,-100,4,2,1,40,0,0
22857,-100,4,2,2,40,0,0
25513,-100,4,2,4,40,0,0
25591,-100,4,2,2,40,0,0
26138,-100,4,2,4,40,0,0
26216,-100,4,2,2,40,0,0
26763,-100,4,2,4,40,0,0
26841,-100,4,2,2,40,0,0
27388,-100,4,2,4,40,0,0
27466,-100,4,2,2,40,0,0
29263,-100,4,2,4,40,0,0
29341,-100,4,2,2,40,0,0
32778,-100,4,2,1,5,0,0
32857,-100,4,2,2,45,0,0
37778,-100,4,2,2,5,0,0
37857,-100,4,2,2,45,0,0
40200,-100,4,2,1,45,0,0
40357,-100,4,2,2,45,0,0
48169,-100,4,2,2,10,0,0
48794,-100,4,2,2,10,0,0
49419,-100,4,2,2,20,0,0
50044,-100,4,2,2,30,0,0
50669,-100,4,2,2,40,0,0
51294,-100,4,2,2,50,0,0
57857,-100,4,2,2,60,0,1
59575,-100,4,2,4,60,0,1
59653,-100,4,2,2,60,0,1
66607,-100,4,2,1,60,0,1
67700,-100,4,2,2,60,0,1
77700,-100,4,2,2,60,0,0
77857,-100,4,2,2,60,0,1
80825,-100,4,2,4,60,0,1
80903,-100,4,2,2,60,0,1
81450,-100,4,2,4,60,0,1
81528,-100,4,2,2,60,0,1
89888,-100,4,2,2,60,0,1
90200,-100,4,2,2,60,0,0

[Colours]
Combo1 : 45,187,255
Combo2 : 255,128,64
Combo3 : 242,242,242
Combo4 : 255,128,192
SliderBorder : 255,255,255

[HitObjects]
256,192,357,12,0,2701,0:0:0:0:
144,100,2857,6,0,L|188:180,1,85,4|0,0:0|0:0,0:0:0:0:
228,248,3170,1,0,0:0:0:0:
412,160,3482,2,0,P|372:68|296:44,1,170,2|0,0:0|0:0,0:0:0:0:
228,248,4107,6,0,L|228:340,1,85,0|0,0:0|0:0,0:0:0:0:
156,288,4420,1,0,0:0:0:0:
200,44,4732,2,0,P|140:68|100:160,1,170,2|0,0:0|0:0,0:0:0:0:
368,284,5357,6,0,L|324:204,1,85,0|0,0:0|0:0,0:0:0:0:
284,136,5670,1,0,0:0:0:0:
100,224,5982,2,0,P|140:316|216:340,1,170,2|0,0:0|0:0,0:0:0:0:
284,136,6607,6,0,L|284:44,1,85,0|0,0:0|0:0,0:0:0:0:
356,96,6920,1,0,0:0:0:0:
312,340,7232,2,0,P|372:316|412:224,1,170,2|0,0:0|0:0,0:0:0:0:
304,224,7701,1,2,0:0:0:0:
200,224,7857,6,0,L|192:140,1,85,2|0,0:0|0:0,0:0:0:0:
180,44,8170,1,0,0:0:0:0:
408,140,8482,2,0,P|436:228|424:312,1,170,2|0,0:0|0:0,0:0:0:0:
224,304,9107,6,0,L|136:288,1,85,0|0,0:0|0:0,0:0:0:0:
200,224,9420,1,0,0:0:0:0:
256,64,9732,2,0,P|328:120|344:200,1,170,2|0,0:0|0:0,0:0:0:0:
120,200,10357,6,0,L|136:288,1,85,0|0,0:0|0:0,0:0:0:0:
200,224,10670,1,0,0:0:0:0:
384,192,10982,2,0,P|328:120|248:104,1,170,2|0,0:0|0:0,0:0:0:0:
276,216,11607,5,0,0:0:0:0:
420,308,11920,1,0,0:0:0:0:
500,160,12232,1,2,0:0:0:0:
364,72,12545,2,0,L|376:160,1,85,2|0,0:0|0:0,0:0:0:0:
448,88,12857,1,2,0:0:0:0:
160,188,13170,5,2,0:0:0:0:
160,188,13326,2,0,L|188:100,1,85,0|2,0:0|0:0,0:0:0:0:
244,168,13638,2,0,L|268:84,1,85
324,152,13950,2,0,L|348:68,1,85
404,176,14264,2,0,P|408:272|344:300,1,170
348,224,14732,1,2,0:0:0:0:
324,152,14889,2,0,B|296:152|256:164|256:220|256:220|256:252|256:300,1,170
176,344,15357,6,0,L|176:172,1,170,2|2,0:0|0:0,0:0:0:0:
64,96,15826,1,0,0:0:0:0:
120,32,15982,2,0,P|149:84|141:123,1,85,2|0,0:0|0:0,0:0:0:0:
64,180,16295,2,0,L|64:264,1,85,2|0,0:0|0:0,0:0:0:0:
96,336,16607,2,0,P|192:336|244:280,1,170,2|2,0:0|0:0,0:0:0:0:
256,192,17076,5,0,0:0:0:0:
188,152,17232,2,0,P|256:108|328:164,1,170,2|2,0:0|0:0,0:0:0:0:
256,192,17701,1,2,0:0:0:0:
256,192,17857,2,0,P|260:272|352:296,1,170,2|2,0:0|0:0,0:0:0:0:
320,228,18326,2,0,P|348:192|392:184,1,85,0|2,0:0|0:0,0:0:0:0:
444,252,18639,1,0,0:0:0:0:
460,132,18795,2,0,P|460:84|436:52,1,85,2|0,0:0|0:0,0:0:0:0:
376,112,19107,6,0,L|204:112,1,170,2|2,0:0|0:0,0:0:0:0:
124,112,19576,1,0,0:0:0:0:
160,180,19732,2,0,P|204:104|140:36,1,170,2|2,0:0|0:0,0:0:0:0:
92,112,20201,1,0,0:0:0:0:
72,204,20357,2,0,P|72:296|132:348,1,170,2|2,0:0|0:0,0:0:0:0:
160,252,20826,6,0,L|240:280,1,85,0|2,0:0|0:0,0:0:0:0:
268,192,21138,2,0,P|276:152|324:116,1,85,0|2,0:0|0:0,0:0:0:0:
432,52,21451,1,0,0:0:0:0:
464,136,21607,1,2,0:0:0:0:
492,220,21764,2,0,P|404:232|340:184,1,170
328,88,22232,1,2,0:0:0:0:
256,44,22389,5,8,0:0:0:0:
256,44,22467,1,8,0:0:0:0:
256,44,22545,2,0,L|256:128,1,85,8|2,0:0|0:0,0:0:0:0:
184,92,22857,6,0,P|180:148|160:172,1,85,2|2,0:0|0:0,0:0:0:0:
112,116,23169,1,8,0:0:0:0:
120,232,23325,2,0,P|160:244|204:232,1,85,2|0,0:0|0:0,0:0:0:0:
308,156,23638,2,0,L|308:244,2,85,2|8|0,0:0|0:0|0:0,0:0:0:0:
392,96,24107,1,0,0:0:0:0:
468,104,24264,2,0,P|452:148|420:168,1,85,2|8,0:0|0:0,0:0:0:0:
396,240,24576,1,2,0:0:0:0:
432,312,24732,2,0,P|464:284|476:240,1,85,0|2,0:0|0:0,0:0:0:0:
420,168,25045,1,8,0:0:0:0:
348,80,25201,1,0,0:0:0:0:
224,52,25357,6,0,L|224:228,1,170,2|8,0:0|0:0,0:0:0:0:
192,300,25826,1,2,0:0:0:0:
148,208,25982,2,0,P|208:144|280:168,1,170,2|8,0:0|0:0,0:0:0:0:
288,272,26451,1,0,0:0:0:0:
116,284,26607,2,0,P|68:236|104:140,1,170,2|8,0:0|0:0,0:0:0:0:
144,80,27076,5,2,0:0:0:0:
256,48,27232,2,0,B|288:132|224:128|256:224,1,170,0|8,0:0|0:0,0:0:0:0:
328,176,27701,1,2,0:0:0:0:
328,176,27857,2,0,P|348:128|348:84,1,85,2|0,0:0|0:0,0:0:0:0:
420,176,28170,1,8,0:0:0:0:
488,252,28326,1,2,0:0:0:0:
420,176,28482,2,0,L|420:84,1,85,0|2,0:0|0:0,0:0:0:0:
488,252,28795,2,0,L|500:168,1,85,8|0,0:0|0:0,0:0:0:0:
408,252,29107,6,0,L|280:252,1,127.5,2|0,0:0|0:0,0:0:0:0:
232,252,29420,1,8,0:0:0:0:
264,184,29576,2,0,P|308:256|256:324,1,170,2|2,0:0|0:0,0:0:0:0:
144,256,30045,2,0,P|128:172|180:96,2,170,8|2|8,0:0|0:0|0:0,0:0:0:0:
112,332,30826,6,0,P|152:340|196:320,1,85,2|0,0:0|0:0,0:0:0:0:
232,252,31139,1,2,0:0:0:0:
52,160,31295,2,0,P|48:208|60:252,1,85,8|0,0:0|0:0,0:0:0:0:
200,184,31607,6,0,P|244:176|280:192,1,85,2|2,0:0|0:0,0:0:0:0:
344,260,31920,2,0,L|416:312,1,85,8|2,0:0|0:0,0:0:0:0:
432,324,32154,1,2,0:0:0:0:
452,336,32232,2,0,P|484:304|488:264,1,85,2|2,0:0|0:0,0:0:0:0:
352,188,32545,2,0,P|300:132|316:80,1,127.5,8|0,0:0|0:0,0:0:0:0:
276,76,32857,5,2,0:0:0:0:
240,84,32936,1,2,0:0:0:0:
204,88,33014,1,2,0:0:0:0:
176,84,33092,1,2,0:0:0:0:
144,76,33169,2,0,P|104:60|44:72,1,85,2|0,0:0|0:0,0:0:0:0:
84,188,33482,2,0,P|88:252|180:284,1,170,2|2,0:0|0:0,0:0:0:0:
156,212,33951,1,12,0:0:0:0:
256,148,34107,6,0,B|284:216|216:240|264:328,2,170,2|2|2,0:0|0:0|0:0,0:0:0:0:
324,264,34889,1,0,0:0:0:0:
360,192,35045,2,0,P|400:240|400:268,1,85,2|2,0:0|0:0,0:0:0:0:
401,259,35279,1,2,0:0:0:0:
401,259,35357,1,2,0:0:0:0:
476,216,35514,6,0,L|464:128,1,85,0|2,0:0|0:0,0:0:0:0:
380,40,35826,2,0,L|392:132,1,85,0|2,0:0|0:0,0:0:0:0:
472,304,36139,1,0,0:0:0:0:
360,192,36295,2,0,P|324:268|376:332,1,170,2|2,0:0|0:0,0:0:0:0:
448,260,36764,5,8,0:0:0:0:
256,332,37076,1,2,0:0:0:0:
64,260,37389,1,2,0:0:0:0:
160,300,37545,1,2,0:0:0:0:
256,192,37857,5,2,0:0:0:0:
264,160,37936,1,2,0:0:0:0:
268,128,38014,1,2,0:0:0:0:
264,96,38092,1,2,0:0:0:0:
256,64,38170,1,2,0:0:0:0:
156,88,38326,1,0,0:0:0:0:
60,120,38482,2,0,P|32:88|28:40,2,85,2|0|2,0:0|0:0|0:0,0:0:0:0:
156,88,38951,1,12,0:0:0:0:
132,180,39107,6,0,P|160:272|228:304,1,170,2|2,0:0|0:0,0:0:0:0:
224,216,39576,1,0,0:0:0:0:
300,268,39732,2,0,L|380:228,1,85,2|0,0:0|0:0,0:0:0:0:
316,168,40045,2,0,L|316:80,1,85,2|2,0:0|0:0,0:0:0:0:
220,128,40357,6,0,P|136:160|84:100,2,170,2|2|2,0:0|0:0|0:0,0:0:0:0:
316,84,41139,1,0,0:0:0:0:
416,112,41295,1,2,0:0:0:0:
476,192,41451,1,2,0:0:0:0:
476,192,41529,1,2,0:0:0:0:
476,192,41607,2,0,P|424:192|400:216,1,85,2|0,0:0|0:0,0:0:0:0:
456,264,41920,1,2,0:0:0:0:
388,316,42076,2,0,L|308:344,1,85,0|2,0:0|0:0,0:0:0:0:
324,256,42389,2,0,L|236:232,1,85,2|8,0:0|0:0,0:0:0:0:
256,32,42701,6,0,B|212:68|224:136|148:168,1,170,6|0,0:0|0:0,0:0:0:0:
160,256,43170,2,0,L|248:232,1,85,2|0,0:0|0:0,0:0:0:0:
352,128,43482,2,0,L|264:152,1,85,2|0,0:0|0:0,0:0:0:0:
132,304,43795,2,4,L|216:280,1,85,2|0,0:0|0:0,0:0:0:0:
380,80,44107,2,0,L|296:104,1,85,2|0,0:0|0:0,0:0:0:0:
184,136,44420,1,2,0:0:0:0:
328,248,44576,1,0,0:0:0:0:
256,192,44732,1,2,0:0:0:0:
340,160,44889,2,0,P|392:172|432:148,1,85,0|2,0:0|0:0,0:0:0:0:
448,136,45123,5,0,0:0:0:0:
448,136,45201,2,0,L|448:220,1,85,4|2,0:0|0:0,0:0:0:0:
376,280,45514,2,0,L|376:196,1,85,0|2,0:0|0:0,0:0:0:0:
480,88,45826,2,0,L|480:180,1,85,0|2,0:0|0:0,0:0:0:0:
332,316,46139,2,0,L|332:232,1,85,0|2,0:0|0:0,0:0:0:0:
256,72,46451,5,0,0:0:0:0:
156,116,46607,2,0,L|200:192,1,85,2|0,0:0|0:0,0:0:0:0:
356,116,46920,2,0,L|312:192,1,85,2|0,0:0|0:0,0:0:0:0:
256,340,47232,2,0,P|164:320|144:248,2,170,2|2|2,0:0|0:0|0:0,0:0:0:0:
256,128,48170,6,8,L|336:184,1,85,10|8,0:0|0:0,0:0:0:0:
256,256,48482,2,8,L|176:200,1,85,10|8,0:0|0:0,0:0:0:0:
312,112,48795,2,8,L|392:168,1,85,8|8,0:0|0:0,0:0:0:0:
200,272,49107,2,8,L|120:216,1,85,8|8,0:0|0:0,0:0:0:0:
368,100,49420,2,8,L|448:156,1,85,8|8,0:0|0:0,0:0:0:0:
140,284,49732,2,8,L|60:228,1,85,8|8,0:0|0:0,0:0:0:0:
256,128,50045,6,0,L|256:44,2,85,8|8|8,0:0|0:0|0:0,0:0:0:0:
152,136,50514,1,8,0:0:0:0:
200,220,50670,1,8,0:0:0:0:
312,220,50826,1,8,0:0:0:0:
360,136,50982,1,8,0:0:0:0:
412,216,51139,6,0,P|444:180|452:132,2,85,8|8|8,0:0|0:0|0:0,0:0:0:0:
360,296,51607,1,8,0:0:0:0:
256,320,51764,1,8,0:0:0:0:
152,296,51919,1,8,0:0:0:0:
100,216,52075,2,0,P|68:180|60:132,2,85,2|8|2,0:0|0:0|0:0,0:0:0:0:
256,192,52545,1,8,0:0:0:0:
188,148,52701,6,0,P|256:108|336:176,1,170,4|2,0:0|0:0,0:0:0:0:
160,216,53170,2,0,L|80:252,1,85,8|2,0:0|0:0,0:0:0:0:
352,216,53482,2,0,L|432:252,1,85,8|2,0:0|0:0,0:0:0:0:
224,256,53795,2,0,L|212:340,1,85,8|2,0:0|0:0,0:0:0:0:
256,356,54029,1,2,0:0:0:0:
300,340,54107,2,0,L|288:256,1,85,8|2,0:0|0:0,0:0:0:0:
208,96,54420,2,0,P|184:52|136:40,1,85,8|2,0:0|0:0,0:0:0:0:
304,96,54732,2,0,P|328:52|376:40,1,85,8|2,0:0|0:0,0:0:0:0:
256,152,55045,1,8,0:0:0:0:
188,192,55201,6,0,P|256:232|336:168,1,170,4|2,0:0|0:0,0:0:0:0:
140,112,55670,2,0,L|64:152,1,85,8|2,0:0|0:0,0:0:0:0:
372,112,55982,2,0,L|448:152,1,85,8|2,0:0|0:0,0:0:0:0:
256,256,56295,2,0,L|256:344,1,85,8|2,0:0|0:0,0:0:0:0:
472,312,56607,6,0,L|444:264,3,42.5,8|8|8|8,0:0|0:0|0:0|0:0,0:0:0:0:
420,248,56920,1,2,0:0:0:0:
380,224,56998,1,2,0:0:0:0:
336,220,57076,1,2,0:0:0:0:
292,228,57154,1,2,0:0:0:0:
256,256,57232,5,8,0:0:0:0:
256,56,57389,1,8,0:0:0:0:
256,56,57701,5,0,0:0:0:0:
200,312,57857,2,0,B|164:256|196:208|196:208|160:160,1,170,4|8,0:0|0:0,0:0:0:0:
356,140,58326,2,0,P|352:192|336:220,1,85,2|2,0:0|0:0,0:0:0:0:
164,84,58639,1,2,0:0:0:0:
256,56,58795,2,0,P|256:108|240:148,1,85,8|2,0:0|0:0,0:0:0:0:
60,76,59107,6,0,P|20:148|56:232,1,170,2|8,0:0|0:0,0:0:0:0:
160,220,59576,1,0,0:0:0:0:
244,140,59732,1,2,0:0:0:0:
240,248,59889,2,0,P|216:288|180:304,1,85,2|8,0:0|0:0,0:0:0:0:
116,152,60201,1,2,0:0:0:0:
256,56,60357,6,0,P|340:20|416:40,1,170,2|8,0:0|0:0,0:0:0:0:
376,128,60826,1,2,0:0:0:0:
472,140,60982,2,0,L|448:224,1,85,2|2,0:0|0:0,0:0:0:0:
364,268,61295,1,8,0:0:0:0:
304,192,61451,1,2,0:0:0:0:
304,192,61607,2,0,P|276:232|272:288,2,85,2|0|8,0:0|0:0|0:0,0:0:0:0:
348,84,62076,5,2,0:0:0:0:
216,128,62232,2,0,P|176:152|128:140,1,85,2|2,0:0|0:0,0:0:0:0:
92,36,62545,2,0,B|40:52|28:112,1,85,8|0,0:0|0:0,0:0:0:0:
64,192,62857,6,0,B|92:232|92:232|84:276|104:308|132:328|172:324,1,170,4|8,0:0|0:0,0:0:0:0:
272,176,63326,2,0,P|288:132|272:80,1,85,0|2,0:0|0:0,0:0:0:0:
168,248,63639,1,2,0:0:0:0:
276,280,63795,2,0,L|360:284,1,85,8|0,0:0|0:0,0:0:0:0:
476,192,64107,6,0,B|424:252|424:252|444:304|408:336,1,170,6|8,0:0|0:0,0:0:0:0:
352,192,64576,2,0,P|368:148|368:104,1,85,2|2,0:0|0:0,0:0:0:0:
260,128,64889,2,0,P|256:76|240:44,1,85,2|8,0:0|0:0,0:0:0:0:
64,88,65201,5,0,0:0:0:0:
64,88,65279,1,0,0:0:0:0:
64,88,65357,2,0,P|56:160|100:184,1,127.5,4|0,0:0|0:0,0:0:0:0:
128,176,65670,2,0,L|76:248,1,85,8|0,0:0|0:0,0:0:0:0:
88,352,65982,2,0,L|140:284,1,85,2|2,0:0|0:0,0:0:0:0:
264,184,66295,2,0,L|212:256,1,85,8|0,0:0|0:0,0:0:0:0:
328,300,66607,6,0,P|368:308|420:288,1,85,2|0,0:0|0:0,0:0:0:0:
364,212,66920,2,0,P|412:192|436:164,1,85,10|8,0:0|0:0,0:0:0:0:
433,168,67154,1,0,0:0:0:0:
433,168,67232,1,2,0:0:0:0:
360,116,67389,2,0,P|392:80|396:36,1,85,8|10,0:0|0:0,0:0:0:0:
256,48,67701,5,0,0:0:0:0:
168,88,67857,2,0,P|172:144|264:208,1,170,4|8,0:0|0:0,0:0:0:0:
196,268,68326,2,0,P|152:244|120:200,1,85,2|2,0:0|0:0,0:0:0:0:
96,144,68639,1,2,0:0:0:0:
20,120,68795,2,0,P|48:80|88:64,1,85,8|2,0:0|0:0,0:0:0:0:
212,68,69107,5,2,0:0:0:0:
276,144,69264,1,0,0:0:0:0:
284,252,69420,2,0,P|276:304|244:340,1,85,8|2,0:0|0:0,0:0:0:0:
112,232,69732,1,2,0:0:0:0:
184,168,69889,1,2,0:0:0:0:
276,144,70045,2,0,P|336:136|364:148,1,85,8|2,0:0|0:0,0:0:0:0:
340,316,70357,6,0,P|292:332|240:324,1,85,2|0,0:0|0:0,0:0:0:0:
176,272,70670,1,8,0:0:0:0:
220,84,70826,1,2,0:0:0:0:
344,208,70982,2,0,P|384:224|412:264,1,85,2|2,0:0|0:0,0:0:0:0:
400,348,71295,1,8,0:0:0:0:
268,240,71451,1,2,0:0:0:0:
300,68,71607,6,0,P|296:120|264:152,1,85,2|0,0:0|0:0,0:0:0:0:
136,64,71920,1,8,0:0:0:0:
132,220,72076,1,0,0:0:0:0:
256,288,72232,2,0,P|304:276|336:236,1,85,2|2,0:0|0:0,0:0:0:0:
368,72,72545,1,8,0:0:0:0:
256,192,72701,5,0,0:0:0:0:
256,192,72779,1,0,0:0:0:0:
256,192,72857,2,0,P|200:180|176:120,1,127.5,4|0,0:0|0:0,0:0:0:0:
184,88,73170,2,0,L|104:128,1,85,8|0,0:0|0:0,0:0:0:0:
128,292,73482,1,2,0:0:0:0:
256,336,73639,1,2,0:0:0:0:
384,292,73795,2,0,P|424:264|432:224,1,85,8|0,0:0|0:0,0:0:0:0:
256,116,74107,5,2,0:0:0:0:
320,248,74264,1,2,0:0:0:0:
192,248,74420,1,8,0:0:0:0:
256,192,74576,1,0,0:0:0:0:
256,192,74654,1,0,0:0:0:0:
256,192,74732,2,0,L|256:276,1,85,2|2,0:0|0:0,0:0:0:0:
168,332,75045,1,8,0:0:0:0:
344,332,75201,1,0,0:0:0:0:
472,236,75357,6,0,P|444:152|408:136,1,127.5,4|0,0:0|0:0,0:0:0:0:
376,128,75670,1,8,0:0:0:0:
256,48,75826,2,0,L|340:60,1,85,4|2,0:0|0:0,0:0:0:0:
256,128,76139,2,0,L|172:116,1,85,6|8,0:0|0:0,0:0:0:0:
88,172,76451,1,0,0:0:0:0:
192,348,76607,6,0,L|272:316,1,85,6|8,0:0|0:0,0:0:0:0:
296,300,76842,1,8,0:0:0:0:
316,280,76920,2,0,P|328:224|308:192,1,85,8|8,0:0|0:0,0:0:0:0:
296,180,77154,1,0,0:0:0:0:
272,160,77232,1,8,0:0:0:0:
248,140,77311,1,0,0:0:0:0:
224,120,77389,1,8,0:0:0:0:
200,100,77467,1,0,0:0:0:0:
176,80,77545,1,8,0:0:0:0:
56,52,77701,5,8,0:0:0:0:
88,172,77857,2,0,P|160:200|176:288,1,170,4|8,0:0|0:0,0:0:0:0:
96,260,78326,1,0,0:0:0:0:
24,132,78482,2,0,P|64:100|104:96,1,85,2|2,0:0|0:0,0:0:0:0:
224,120,78795,2,0,P|268:120|308:96,1,85,8|2,0:0|0:0,0:0:0:0:
400,48,79107,6,0,P|440:96|424:160,1,127.5,2|0,0:0|0:0,0:0:0:0:
404,176,79420,2,0,L|492:176,1,85,8|2,0:0|0:0,0:0:0:0:
460,272,79732,1,2,0:0:0:0:
364,336,79889,1,2,0:0:0:0:
256,320,80045,2,0,L|164:300,1,85,8|2,0:0|0:0,0:0:0:0:
256,192,80357,6,0,P|328:128|320:56,2,170,2|8|2,0:0|0:0|0:0,0:0:0:0:
244,100,81139,1,2,0:0:0:0:
168,56,81295,2,0,B|124:72|124:124|124:124|124:216,1,170,8|2,0:0|0:0,0:0:0:0:
200,304,81764,1,0,0:0:0:0:
300,256,81920,1,8,0:0:0:0:
328,132,82076,1,0,0:0:0:0:
424,44,82232,5,2,0:0:0:0:
448,180,82389,1,2,0:0:0:0:
384,312,82545,1,2,0:0:0:0:
256,348,82701,1,2,0:0:0:0:
176,240,82857,6,0,P|148:200|148:160,1,85,12|2,0:0|0:0,0:0:0:0:
232,176,83170,2,0,P|236:128|264:96,1,85,8|2,0:0|0:0,0:0:0:0:
312,164,83482,2,0,P|340:128|384:120,1,85,12|2,0:0|0:0,0:0:0:0:
384,200,83795,2,0,P|432:200|464:224,1,85,8|2,0:0|0:0,0:0:0:0:
272,276,84107,6,0,L|192:312,1,85,12|2,0:0|0:0,0:0:0:0:
164,308,84342,1,2,0:0:0:0:
132,308,84420,2,0,L|52:344,1,85,8|2,0:0|0:0,0:0:0:0:
80,224,84732,2,0,L|160:188,1,85,12|2,0:0|0:0,0:0:0:0:
168,160,84967,1,2,0:0:0:0:
180,128,85045,2,0,L|260:92,1,85,8|2,0:0|0:0,0:0:0:0:
312,164,85357,5,6,0:0:0:0:
400,116,85514,1,2,0:0:0:0:
480,272,85826,1,2,0:0:0:0:
396,332,85982,2,0,P|320:364|232:344,1,170,8|0,0:0|0:0,0:0:0:0:
96,140,86607,5,2,0:0:0:0:
152,208,86764,1,8,0:0:0:0:
152,208,86842,1,0,0:0:0:0:
152,208,86920,2,0,L|232:176,1,85,2|2,0:0|0:0,0:0:0:0:
216,84,87232,1,8,0:0:0:0:
304,120,87389,2,0,P|320:196|260:264,1,170,2|0,0:0|0:0,0:0:0:0:
152,208,87857,5,6,0:0:0:0:
96,140,88014,1,2,0:0:0:0:
304,120,88326,2,0,L|352:192,1,85,2|8,0:0|0:0,0:0:0:0:
400,264,88639,1,2,0:0:0:0:
256,316,88951,5,8,0:0:0:0:
256,228,89107,1,2,0:0:0:0:
256,140,89264,2,0,P|304:112|236:36,1,170,2|2,0:0|0:0,0:0:0:0:
257,32,89889,5,8,0:0:0:0:
152,224,90045,1,8,0:0:0:0:
364,224,90201,1,12,0:0:0:0:
