osu file format v12

[General]
AudioFilename: ODDS&ENDS.mp3
AudioLeadIn: 2000
PreviewTime: 57700
Countdown: 0
SampleSet: Soft
StackLeniency: 0.7
Mode: 0
LetterboxInBreaks: 0

[Editor]
DistanceSpacing: 0.8
BeatDivisor: 4
GridSize: 8

[Metadata]
Title:ODDS&ENDS (Short Ver.)
TitleUnicode:ODDS&ENDS (Short Ver.)
Artist:ryo (supercell)
ArtistUnicode:ryo (supercell)
Creator:Betsuto
Version:Easy
Source:Project DIVA f
Tags:Sega vocaloid crypton SkyDevil Azure Hatsune Miku
BeatmapID:170087
BeatmapSetID:56017

[Difficulty]
HPDrainRate:1
CircleSize:3
OverallDifficulty:1
ApproachRate:2
SliderMultiplier:0.7
SliderTickRate:1

[Events]
//Background and Video events
0,0,"ODDS&ENDS.jpg",0,0
//Break Periods
//Storyboard Layer 0 (Background)
Sprite,Background,Centre,"ODDS&ENDS.jpg",320,240 M,0,-119,,320,240 S,0,-119,,0.6639999 F,0,-119,2640,0,1 F,0,2640,2719,1 F,0,2719,12719,1 F,0,12719,13890,1,0 F,0,13890,13969,0 F,0,13969,87094,0 F,0,87094,87640,0,1 F,0,87640,87719,1 F,0,87719,90219,1 F,0,90219,91000,1,0 F,0,91000,91101,0 F,0,91101,91102,0 F,0,91102,91104,0
Sprite,Background,Centre,"SB\ODDS1.jpg",320,240 F,0,12640,12719,0 S,0,12700,,1.023183 F,0,12719,13031,0,1 M,0,12719,32719,237,184,364,296 F,0,13031,32640,1 F,0,13031,32719,1 F,0,32094,32719,0,1 F,0,32640,32719,1
Sprite,Background,Centre,"SB\ODDS2.jpg",320,240 F,0,32015,32094,0 F,0,32094,32719,0,1 S,0,32719,,0.9712119 F,0,32719,42543,1 M,0,32719,42562,357,189,325,258 F,0,42543,42562,1,0
Sprite,Background,Centre,"SB\ODDS3.jpg",320,240 F,0,42094,42562,0,1 S,0,42562,,0.999241 M,0,42562,55219,296,196,325,292
Sprite,Background,Centre,"SB\ODDS4.jpg",320,240 S,0,57719,,1.147212 M,0,57719,77719,215,272,391,277 F,0,77699,77719,1 F,0,77719,78265,1,0 F,0,78265,78344,0
Sprite,Background,Centre,"SB\ODDS5.jpg",320,240 F,0,77015,77094,0 F,0,77094,77719,0,1 S,0,77719,,0.901197 F,0,77719,87640,1 M,0,77719,87719,283,251,358,251 F,0,87640,87719,1 F,0,87719,88890,1,0 M,0,87719,88969,358,251,369,251 F,0,88890,88969,0
Sprite,Background,Centre,"SB\White.png",320,240 M,0,11469,,320,240 S,0,11469,,0.7040001 F,0,11469,12640,0,0.3400002 F,0,12640,12719,0.3400002,0.6000002 F,0,12719,13890,0.6000002,0 F,0,13890,13969,0 F,0,13969,31469,0 F,0,31469,32640,0,0.3640001 F,0,32640,32719,0.3640001,0.6600001 F,0,32719,33890,0.6600001,0 F,0,33890,33969,0 F,0,33969,41312,0 F,0,41312,42484,0,0.3280001 F,0,42484,42562,0.3280001,0.6418039 F,0,42562,43890,0.6418039,0 F,0,43890,43969,0 F,0,43969,47719,0 F,0,47719,47724,0 F,0,47724,54984,0,1 F,0,54984,55062,1 F,0,55062,57719,1 F,0,57719,58890,1,0 F,0,58890,58969,0 F,0,58969,76469,0 F,0,76469,77640,0,0.3960001 F,0,77640,77719,0.3960001,0.72 F,0,77719,78890,0.72,0 F,0,78890,78969,0 F,0,78969,86469,0 F,0,86469,87640,0,0.4840001 F,0,87640,87719,0.4840001,0.6960002 F,0,87719,88969,0.6960002,0
//Storyboard Layer 1 (Fail)
//Storyboard Layer 2 (Pass)
//Storyboard Layer 3 (Foreground)
Sprite,Foreground,Centre,"SB\L06.png",320,240 F,0,31309,31466,0,1 M,0,31466,,208,189 F,0,31466,34903,1 F,0,34903,35059,1,0 M,0,35059,,208,189
Sprite,Foreground,Centre,"SB\L07.png",320,240 M,0,34903,,190,225 F,0,34903,35059,0,1 M,0,35059,,193,225 F,0,35059,37403,1 F,0,37403,37559,1,0 M,0,37559,,193,225
Sprite,Foreground,Centre,"SB\L08.png",320,240 F,0,37403,37559,0,1 M,0,37559,,233,273 F,0,37559,40684,1 F,0,40684,40997,1,0 M,0,40997,90600,233,273,319,237
Sprite,Foreground,Centre,"SB\L09.png",320,240 F,0,40997,41153,0,1 M,0,41153,,230,297 F,0,41153,42403,1 F,0,42403,42559,1,0 M,0,42559,,230,297
Sprite,Foreground,Centre,"SB\L11.png",320,240 F,0,42403,42559,0,1 M,0,42559,,342,224 F,0,42559,44747,1 F,0,44747,,1 F,0,44747,44903,1,0 M,0,45059,,342,224
Sprite,Foreground,Centre,"SB\L12.png",320,240 F,0,44747,44903,0,1 M,0,44903,,362,256 F,0,44903,47091,1 F,0,47091,47247,1,0 M,0,47247,,362,256
Sprite,Foreground,Centre,"SB\L13.png",320,240 F,0,47247,47403,0,1 M,0,47403,,230,230 F,0,47403,55216,1 M,0,55216,,230,230 F,0,55216,55528,1,0
Sprite,Foreground,Centre,"SB\L14.png",320,240 F,0,49903,50059,0,1 M,0,50059,,371,248 F,0,50059,55216,1 M,0,55216,,371,248 F,0,55216,55528,1,0
Sprite,Foreground,Centre,"SB\L15.png",320,240 F,0,57559,57716,0,1 M,0,57716,,127,125 F,0,57716,61622,1 F,0,61622,61934,1,0 M,0,67559,,127,125
Sprite,Foreground,Centre,"SB\L16.png",320,240 F,0,59903,60059,0,1 M,0,60059,,205,149 F,0,60059,61622,1 F,0,61622,61934,1,0 M,0,67559,,205,149
Sprite,Foreground,Centre,"SB\L17.png",320,240 F,0,61778,61934,0,1 M,0,61934,,245,184 F,0,61934,67247,1 F,0,67247,67559,1,0 M,0,67559,,245,184
Sprite,Foreground,Centre,"SB\L18.png",320,240 F,0,67403,67559,0,1 M,0,67559,,332,227 F,0,67559,72247,1 F,0,72247,72559,1,0 M,0,72559,,332,227
Sprite,Foreground,Centre,"SB\L19.png",320,240 F,0,69903,70059,0,1 M,0,70059,,412,243 F,0,70059,72247,1 F,0,72247,72559,1,0 M,0,72559,,412,243
Sprite,Foreground,Centre,"SB\L21.png",320,240 F,0,72403,72559,0,1 M,0,72559,,400,275 F,0,72559,77247,1 F,0,77247,77559,1,0 M,0,77559,,400,275
Sprite,Foreground,Centre,"SB\L22.png",320,240 F,0,77403,77559,0,1 M,0,77559,,316,229 F,0,77559,79747,1 F,0,79747,79903,1,0 M,0,79903,,316,229
Sprite,Foreground,Centre,"SB\L23.png",320,240 F,0,79903,80059,0,1 M,0,80059,,316,267 F,0,80059,82403,1 F,0,82403,82559,1,0 M,0,82716,,316,267
Sprite,Foreground,Centre,"SB\L24.png",320,240 F,0,82559,82716,0,1 M,0,82716,,159,184 F,0,82716,87403,1 F,0,87403,87559,1,0 M,0,87559,,159,184
Sprite,Foreground,Centre,"SB\L25.png",320,240 F,0,85841,85997,0,1 M,0,85997,,236,211 F,0,85997,87403,1 F,0,87403,87559,1,0 M,0,87559,,236,211
Sprite,Foreground,Centre,"SB\L26.png",320,240 M,0,87403,,324,178 F,0,87403,87559,0,1 F,0,87559,90528,1 F,0,90528,90684,1,0 M,0,90684,,324,178
Sprite,Foreground,Centre,"SB\B01.png",320,240 F,0,2403,2716,0,1 M,0,2716,,463,107 F,0,2716,12403,1,0.9781389 F,0,12403,12716,0.9781389,0 M,0,13184,,463,107
Sprite,Foreground,Centre,"SB\B02.png",320,240 F,0,7403,7716,0,1 M,0,7716,,459,138 F,0,7716,12403,1 F,0,12403,12716,1,0 M,0,13184,,459,138
Sprite,Foreground,Centre,"SB\B03.png",320,240 F,0,9903,10216,0,1 M,0,10216,,461,168 F,0,10216,,1 F,0,10216,12403,1 F,0,12403,12716,1,0 M,0,13184,,461,168
Sprite,Foreground,Centre,"SB\L01.png",320,240 F,0,13028,13184,0,1 M,0,13184,,192,217 F,0,13184,16466,1 F,0,16466,16622,1,0 M,0,16778,,192,217
Sprite,Foreground,Centre,"SB\L02.png",320,240 F,0,16778,16934,0,1 M,0,16934,,241,244 F,0,16934,19591,1 F,0,19591,19747,1,0 M,0,19747,,241,244
Sprite,Foreground,Centre,"SB\B01.png",320,240 F,0,2403,2716,0,1 M,0,2716,,463,107 F,0,2716,12403,1,0.9781389 F,0,12403,12716,0.9781389,0 M,0,13184,,463,107
Sprite,Foreground,Centre,"SB\L01.png",320,240 F,0,13028,13184,0,1 M,0,13184,,192,217 F,0,13184,16466,1 F,0,16466,16622,1,0 M,0,16778,,192,217
Sprite,Foreground,Centre,"SB\L02.png",320,240 F,0,16778,16934,0,1 M,0,16934,,241,244 F,0,16934,19591,1 F,0,19591,19747,1,0 M,0,19747,,241,244
Sprite,Foreground,Centre,"SB\L03.png",320,240 F,0,19747,19903,0,1 M,0,19903,,266,273 F,0,19903,22559,1 F,0,22559,22716,1,0 M,0,22872,,266,273
Sprite,Foreground,Centre,"SB\L04.png",320,240 F,0,22872,23028,0,1 M,0,23028,,403,217 F,0,23028,26778,1 F,0,26778,26934,1,0 M,0,26934,,403,217
Sprite,Foreground,Centre,"SB\L04-1.png",320,240 F,0,24903,25059,0,1 M,0,25059,,473,217 F,0,25059,26778,1 F,0,26778,26934,1,0 M,0,26934,,473,217
Sprite,Foreground,Centre,"SB\L05.png",320,240 F,0,26778,26934,0,1 M,0,26934,,442,187 F,0,26934,30684,1 F,0,30684,30997,1,0 M,0,30993,,442,187
Sprite,Foreground,Centre,"SB\L06.png",320,240 F,0,31309,31466,0,1 M,0,31466,,208,189 F,0,31466,34903,1 F,0,34903,35059,1,0 M,0,35059,,208,189
Sprite,Foreground,Centre,"SB\L07.png",320,240 F,0,34903,35059,0,1 M,0,35059,,193,225 F,0,35059,37403,1 F,0,37403,37559,1,0 M,0,37559,,193,225
Sprite,Foreground,Centre,"SB\L08.png",320,240 F,0,37403,37559,0,1 M,0,37559,,233,273 F,0,37559,40684,1 F,0,40684,40997,1,0 M,0,40997,,233,273
Sprite,Foreground,Centre,"SB\L11.png",320,240 F,0,42403,42559,0,1 M,0,42559,,342,224 F,0,42559,44747,1 F,0,44747,,1 F,0,44747,44903,1,0 M,0,45059,,342,224
Sprite,Foreground,Centre,"SB\L12.png",320,240 F,0,44747,44903,0,1 M,0,44903,,362,256 F,0,44903,47091,1 F,0,47091,47247,1,0 M,0,47247,,362,256
Sprite,Foreground,Centre,"SB\L13.png",320,240 F,0,47247,47403,0,1 M,0,47403,,230,230 F,0,47403,55216,1 M,0,55216,,230,230 F,0,55216,55528,1,0
Sprite,Foreground,Centre,"SB\L16.png",320,240 F,0,59903,60059,0,1 M,0,60059,,205,149 F,0,60059,61622,1 F,0,61622,61934,1,0 M,0,67559,,205,149
Sprite,Foreground,Centre,"SB\L17.png",320,240 F,0,61778,61934,0,1 M,0,61934,,245,184 F,0,61934,67247,1 F,0,67247,67559,1,0 M,0,67559,,245,184
Sprite,Foreground,Centre,"SB\L18.png",320,240 F,0,67403,67559,0,1 M,0,67559,,332,227 F,0,67559,72247,1 F,0,72247,72559,1,0 M,0,72559,,332,227
Sprite,Foreground,Centre,"SB\L19.png",320,240 F,0,69903,70059,0,1 M,0,70059,,412,243 F,0,70059,72247,1 F,0,72247,72559,1,0 M,0,72559,,412,243
Sprite,Foreground,Centre,"SB\L21.png",320,240 F,0,72403,72559,0,1 M,0,72559,,400,275 F,0,72559,77247,1 F,0,77247,77559,1,0 M,0,77559,,400,275
Sprite,Foreground,Centre,"SB\L22.png",320,240 F,0,77403,77559,0,1 M,0,77559,,316,229 F,0,77559,79747,1 F,0,79747,79903,1,0 M,0,79903,,316,229
Sprite,Foreground,Centre,"SB\L23.png",320,240 F,0,79903,80059,0,1 M,0,80059,,316,267 F,0,80059,82403,1 F,0,82403,82559,1,0 M,0,82716,,316,267
Sprite,Foreground,Centre,"SB\L24.png",320,240 F,0,82559,82716,0,1 M,0,82716,,159,184 F,0,82716,87403,1 F,0,87403,87559,1,0 M,0,87559,,159,184
Sprite,Foreground,Centre,"SB\L25.png",320,240 F,0,85841,85997,0,1 M,0,85997,,236,211 F,0,85997,87403,1 F,0,87403,87559,1,0 M,0,87559,,236,211
Sprite,Foreground,Centre,"SB\L26.png",320,240 M,0,87403,,324,178 F,0,87403,87559,0,1 F,0,87559,90528,1 F,0,90528,90684,1,0 M,0,90684,,324,178
Sprite,Foreground,Centre,"SB\L04.png",320,240 F,0,22872,23028,0,1 M,0,23028,,403,217 F,0,23028,26778,1 F,0,26778,26934,1,0 M,0,26934,,403,217
Sprite,Foreground,Centre,"SB\L04-1.png",320,240 F,0,24903,25059,0,1 M,0,25059,,473,217 F,0,25059,26778,1 F,0,26778,26934,1,0 M,0,26934,,473,217
Sprite,Foreground,Centre,"SB\L05.png",320,240 F,0,26778,26934,0,1 M,0,26934,,442,187 F,0,26934,30684,1 F,0,30684,30997,1,0 M,0,30993,,442,187
Sprite,Foreground,Centre,"SB\B02.png",320,240 F,0,7403,7716,0,1 M,0,7716,,459,138 F,0,7716,12403,1 F,0,12403,12716,1,0 M,0,13184,,459,138
Sprite,Foreground,Centre,"SB\L09.png",320,240 F,0,40997,41153,0,1 M,0,41153,,230,297 F,0,41153,42403,1 F,0,42403,42559,1,0 M,0,42559,,230,297
Sprite,Foreground,Centre,"SB\L15.png",320,240 F,0,57559,57716,0,1 M,0,57716,,127,125 F,0,57716,61622,1 F,0,61622,61934,1,0 M,0,67559,,127,125
Sprite,Foreground,Centre,"SB\L14.png",320,240 F,0,49903,50059,0,1 M,0,50059,,371,248 F,0,50059,55216,1 M,0,55216,,371,248 F,0,55216,55528,1,0
Sprite,Foreground,Centre,"SB\L03.png",320,240 F,0,19747,19903,0,1 M,0,19903,,266,273 F,0,19903,22559,1 F,0,22559,22716,1,0 M,0,22872,,266,273
//Storyboard Sound Samples
//Background Colour Transformations
3,100,163,162,255

[TimingPoints]
357,312.5,4,2,1,5,1,0
2857,-100,4,2,1,40,0,0
7857,-100,4,2,2,40,0,0
7935,-100,4,2,1,40,0,0
12857,-100,4,2,2,40,0,0
15591,-100,4,2,4,40,0,0
15747,-100,4,2,2,40,0,0
15903,-100,4,2,4,40,0,0
16060,-100,4,2,2,40,0,0
19341,-100,4,2,4,40,0,0
19497,-100,4,2,2,40,0,0
19653,-100,4,2,4,40,0,0
19810,-100,4,2,2,40,0,0
20591,-100,4,2,4,40,0,0
21372,-100,4,2,2,40,0,0
26216,-100,4,2,3,40,0,0
26372,-100,4,2,2,40,0,0
32857,-100,4,2,2,50,0,0
34419,-100,4,2,4,50,0,0
34497,-100,4,2,2,50,0,0
34732,-100,4,2,4,50,0,0
34810,-100,4,2,2,50,0,0
35669,-100,4,2,4,50,0,0
35747,-100,4,2,2,50,0,0
36294,-100,4,2,4,50,0,0
36372,-100,4,2,2,50,0,0
41919,-100,4,2,4,50,0,0
41997,-100,4,2,2,50,0,0
43794,-100,4,2,4,50,0,0
43872,-100,4,2,2,50,0,0
44419,-100,4,2,4,50,0,0
44497,-100,4,2,2,50,0,0
45669,-100,4,2,4,50,0,0
45747,-100,4,2,2,50,0,0
46294,-100,4,2,4,50,0,0
46372,-100,4,2,2,50,0,0
51919,-100,4,2,4,50,0,0
51997,-100,4,2,2,50,0,0
52232,-100,4,2,2,50,0,0
57857,-100,4,2,2,60,0,1
58169,-100,4,2,3,60,0,1
58247,-100,4,2,2,60,0,1
58403,-100,4,2,4,60,0,1
58560,-100,4,2,2,60,0,1
58794,-100,4,2,3,60,0,1
58872,-100,4,2,2,60,0,1
62544,-100,4,2,3,60,0,1
62622,-100,4,2,2,60,0,1
63794,-100,4,2,3,60,0,1
63872,-100,4,2,2,60,0,1
65669,-100,4,2,3,60,0,1
65747,-100,4,2,2,60,0,1
66607,-100,4,2,1,60,0,1
67388,-100,4,2,2,60,0,1
68169,-100,4,2,3,60,0,1
68247,-100,4,2,2,60,0,1
68794,-100,4,2,3,60,0,1
68872,-100,4,2,2,60,0,1
73169,-100,4,2,3,60,0,1
73247,-100,4,2,2,60,0,1
74419,-100,4,2,3,60,0,1
74497,-100,4,2,2,60,0,1
77700,-100,4,2,2,60,0,0
77857,-100,4,2,2,60,0,1
80669,-100,4,2,3,60,0,1
80747,-100,4,2,2,60,0,1
81919,-100,4,2,3,60,0,1
81997,-100,4,2,2,60,0,1
83169,-100,4,2,3,60,0,1
83247,-100,4,2,2,60,0,1
84419,-100,4,2,3,60,0,1
84497,-100,4,2,2,60,0,1
89888,-100,4,2,2,60,0,1
90200,-100,4,2,2,60,0,0

[Colours]
Combo1 : 45,187,255
Combo2 : 255,128,64
Combo3 : 242,242,242
Combo4 : 255,128,192
SliderBorder : 255,255,255

[HitObjects]
256,192,357,12,4,2857,0:0:0:0:
64,112,4107,5,2,0:0:0:0:
176,112,4732,1,0,0:0:0:0:
256,32,5357,1,2,0:0:0:0:
448,112,6607,5,2,0:0:0:0:
336,112,7232,1,0,0:0:0:0:
256,32,7857,1,2,0:0:0:0:
256,256,9107,5,2,0:0:0:0:
200,352,9732,1,0,0:0:0:0:
312,352,10357,1,2,0:0:0:0:
320,128,11607,2,0,B|256:80|192:128,2,140,2|0|2,0:0|0:0|0:0,0:0:0:0:
152,272,14107,5,2,0:0:0:0:
256,320,14732,1,2,0:0:0:0:
360,272,15357,2,0,B|360:168,2,105,2|0|2,0:0|0:0|0:0,0:0:0:0:
328,320,16607,1,2,0:0:0:0:
144,192,17857,5,2,0:0:0:0:
256,192,18482,1,2,0:0:0:0:
368,192,19107,2,0,B|472:192,2,105,2|0|2,0:0|0:0|0:0,0:0:0:0:
360,248,20357,6,0,B|328:352|176:352|152:248,1,280,2|2,0:0|0:0,0:0:0:0:
256,216,22232,2,0,B|256:136,2,70,2|8|6,0:0|0:0|0:0,0:0:0:0:
256,48,24107,5,2,0:0:0:0:
200,144,24732,1,0,0:0:0:0:
312,144,25357,1,2,0:0:0:0:
256,240,25982,2,0,B|232:296|288:320|256:376,1,140,2|2,0:0|0:0,0:0:0:0:
120,192,27857,6,0,B|120:112,2,70,2|8|2,0:0|0:0|0:0,0:0:0:0:
208,264,29107,1,2,0:0:0:0:
296,192,29732,1,0,0:0:0:0:
256,192,30357,12,2,32857,0:0:0:0:
208,240,34107,6,0,B|152:272|96:232,2,105,2|0|2,0:0|0:0|0:0,0:0:0:0:
256,208,35357,2,0,B|256:64,2,140,2|2|2,0:0|0:0|0:0,0:0:0:0:
224,316,37232,2,0,B|256:336|300:312,2,70,2|2|2,0:0|0:0|0:0,0:0:0:0:
152,104,39107,5,2,0:0:0:0:
256,64,39732,1,2,0:0:0:0:
360,104,40357,1,2,0:0:0:0:
184,248,41607,2,0,B|256:296|328:240,1,140,2|2,0:0|0:0,0:0:0:0:
376,192,42700,5,4,0:0:0:0:
256,136,43482,2,0,B|112:136,2,140,2|2|2,0:0|0:0|0:0,0:0:0:0:
296,64,45200,6,0,P|336:112|296:208,1,175,4|2,0:0|0:0,0:0:0:0:
192,248,46607,1,2,0:0:0:0:
80,232,47232,1,2,0:0:0:0:
256,192,47857,12,0,50357,0:0:0:0:
192,248,51607,6,0,B|232:288|288:288|328:240,1,140,2|8,0:0|0:0,0:0:0:0:
344,200,52544,2,0,L|344:152,1,35,8|4,0:0|0:0,0:0:0:0:
256,192,53169,12,4,56607,0:0:0:0:
160,208,57857,6,0,B|176:328|352:312|352:200,1,280,4|2,0:0|0:0,0:0:0:0:
256,144,59732,2,0,B|256:64,2,70,2|8|2,0:0|0:0|0:0,0:0:0:0:
256,256,60982,2,0,B|256:336,2,70,2|8|2,0:0|0:0|0:0,0:0:0:0:
360,208,62232,6,0,B|360:96,2,105,2|4|8,0:0|0:0|0:0,0:0:0:0:
360,264,63482,2,0,B|464:264,2,105,2|4|8,0:0|0:0|0:0,0:0:0:0:
256,312,65044,1,8,0:0:0:0:
256,256,65357,6,0,B|256:144,2,105,4|4|8,0:0|0:0|0:0,0:0:0:0:
200,256,66607,1,2,0:0:0:0:
88,256,67232,1,2,0:0:0:0:
144,160,67857,6,0,B|176:88|256:64|336:88|368:168,1,280,4|2,0:0|0:0,0:0:0:0:
256,192,69732,2,0,B|256:264,2,70,2|8|2,0:0|0:0|0:0,0:0:0:0:
208,88,70982,1,2,0:0:0:0:
256,64,71294,1,8,0:0:0:0:
304,88,71607,1,2,0:0:0:0:
256,192,72232,1,2,0:0:0:0:
208,296,72857,6,0,B|256:328|312:296,2,105,4|0|8,0:0|0:0|0:0,0:0:0:0:
160,264,74107,2,0,B|160:152,2,105,2|0|8,0:0|0:0|0:0,0:0:0:0:
160,320,75357,1,2,0:0:0:0:
256,192,75513,12,4,77857,0:0:0:0:
256,192,79107,2,0,B|256:112,2,70,2|8|2,0:0|0:0|0:0,0:0:0:0:
160,248,80357,2,0,B|56:248,2,105,2|0|8,0:0|0:0|0:0,0:0:0:0:
216,248,81607,2,0,B|360:248,1,140,2|2,0:0|0:0,0:0:0:0:
352,136,82857,6,8,B|200:136,1,140,12|8,0:0|0:0,0:0:0:0:
144,48,84107,2,8,B|288:48,1,140,12|8,0:0|0:0,0:0:0:0:
392,48,85357,6,0,B|424:96|360:144|400:192,1,140,6|8,0:0|0:0,0:0:0:0:
328,280,86607,2,0,B|328:360,2,70,0|2|8,0:0|0:0|0:0,0:0:0:0:
296,232,87544,1,2,0:0:0:0:
256,192,87857,6,0,B|256:48,1,140,6|8,0:0|0:0,0:0:0:0:
368,72,89107,2,0,B|368:192,1,105,2|2,0:0|0:0,0:0:0:0:
368,232,89888,2,8,B|368:272,2,35,8|8|12,0:0|0:0|0:0,0:0:0:0:
