osu file format v9

[General]
AudioFilename: Over.MP3
AudioLeadIn: 500
PreviewTime: 88991
Countdown: 0
SampleSet: Soft
StackLeniency: 0.5
Mode: 0
LetterboxInBreaks: 1

[Editor]
DistanceSpacing: 1
BeatDivisor: 4
GridSize: 8

[Metadata]
Title:Over
Artist:riya
Creator:Rorry
Version:mamuru
Source:
Tags:AisamaDX swish

[Difficulty]
HPDrainRate:7
CircleSize:4
OverallDifficulty:7
ApproachRate:7
SliderMultiplier:1.5
SliderTickRate:1

[Events]
//Background and Video events
0,0,"Untitled-1.jpg"
//Break Periods
//Storyboard Layer 0 (Background)
//Storyboard Layer 1 (Fail)
//Storyboard Layer 2 (Pass)
//Storyboard Layer 3 (Foreground)
//Storyboard Sound Samples
//Background Colour Transformations
3,100,163,162,255

[TimingPoints]
1639,441.176470588235,4,2,0,50,1,0
13661,-100,4,2,0,5,0,0
14763,-100,4,1,0,50,0,0
15977,-100,4,2,0,50,0,0
44763,-100,4,2,0,40,0,0
56013,-100,4,2,0,25,0,0
57999,-100,4,2,0,50,0,0
64837,-200,4,2,0,50,0,0
66602,-100,4,2,0,50,0,0
72172,-100,4,2,0,45,0,0
88054,-100,4,2,0,30,0,0
88550,-100,4,2,0,40,0,0
88991,-100,4,2,0,50,0,0
89433,-100,4,1,0,40,0,0
89874,-90.9090909090909,4,2,0,50,0,1
105425,-100,4,2,0,50,0,1
106308,-90.9090909090909,4,2,0,50,0,1
110333,-90.9090909090909,4,1,0,50,0,1
110940,-90.9090909090909,4,2,0,50,0,1
113642,-90.9090909090909,4,1,0,50,0,1
113863,-90.9090909090909,4,2,0,50,0,1
114083,-90.9090909090909,4,1,0,50,0,1
114194,-90.9090909090909,4,2,0,50,0,1
114304,-90.9090909090909,4,1,0,50,0,1
114414,-90.9090909090909,4,2,0,50,0,1
114525,-90.9090909090909,4,1,0,50,0,1
114690,-100,4,2,0,50,0,0

[Colours]
Combo1 : 255,255,128
Combo2 : 66,160,255

[HitObjects]
144,168,1638,2,0,B|304:192,1,150,0|2
200,72,2521,1,0
272,96,2741,1,0
256,24,2962,1,2
200,72,3183,2,0,B|192:136|208:200|262:239|328:256,1,225
424,152,4286,1,0
480,200,4506,1,0
409,225,4727,1,2
272,288,5168,6,0,B|440:312,1,150,0|2
344,176,6050,1,0
272,152,6271,1,0
328,104,6491,1,2
344,176,6712,2,0,B|328:232|288:272|224:288|152:280,1,225
96,256,7594,1,0
120,120,7815,5,2
96,256,8036,1,0
216,200,8256,1,2
96,256,8477,1,0
112,328,8697,1,4
112,328,9139,6,0,B|272:344,1,150
280,272,9800,1,0
336,328,10021,1,2
261,342,10241,2,0,B|200:328|160:288|152:224|184:168,1,225
320,112,11344,1,0
368,56,11565,1,0
392,128,11786,1,2
472,256,12227,6,0,B|376:280,1,75
328,256,12668,2,0,B|232:280,1,75
184,256,13109,1,0
168,256,13219,1,0
152,256,13330,1,0
136,256,13440,1,0
120,256,13550,1,2
256,192,13771,12,0,14653
320,152,14874,5,0
336,152,14984,1,0
312,224,15205,1,0
296,224,15315,1,0
288,296,15536,1,0
288,296,15756,1,4
288,296,16197,6,0,B|120:336,1,150
72,312,16859,1,0
128,256,17080,1,2
57,237,17300,2,0,B|128:176|64:96,1,150
216,64,17962,1,0
216,64,18183,1,0
360,104,18403,1,0
360,104,18624,1,0
240,192,18844,1,0
240,192,19065,1,0
168,208,19286,6,0,B|336:272,1,150
352,200,19947,1,0
384,272,20168,1,0
256,320,20388,1,0
320,128,20609,1,2
416,344,20830,1,0
344,336,21050,6,0,B|264:352,1,75
200,336,21491,2,0,B|120:352,1,75
112,280,21933,2,0,B|192:264,1,75,2|0
256,280,22374,2,0,B|336:264,1,75,2|0
400,248,22815,1,4
400,248,23256,6,0,B|448:168|352:88,1,150
304,136,23918,1,0
320,64,24138,1,2
377,111,24359,2,0,B|352:192|256:208,1,150
192,208,25021,1,0
232,272,25241,1,0
209,164,25462,1,2
214,315,25683,1,0
246,132,25903,1,2
246,132,26344,6,0,B|336:152,1,75
392,160,26786,1,0
344,216,27006,1,0
416,232,27227,1,0
368,288,27447,1,0
440,304,27668,1,2
392,360,27888,1,0
320,344,28109,6,0,B|288:360|232:360,1,75
16,304,28550,2,0,B|104:328,1,75
72,136,28991,2,0,B|128:208,1,75,2|0
248,56,29433,2,0,B|248:160,1,75,2|0
248,208,29874,1,4
248,208,30315,6,0,B|336:208|384:296,1,150
352,352,30977,1,0
296,296,31197,1,2
373,278,31418,2,0,B|408:200|352:112,1,150
304,88,32080,2,0,B|224:120,1,75
72,272,32521,2,0,B|152:240,1,75
304,88,32962,5,2
304,88,33183,1,0
360,144,33403,2,0,B|296:304,1,150
248,232,34065,2,0,B|208:216|152:248,1,75
216,304,34506,5,2
232,144,34727,1,0
400,256,34947,1,0
376,328,35168,2,0,B|296:344,2,75
448,312,35830,1,0
400,256,36050,1,2
472,240,36271,1,0
424,184,36491,2,0,B|392:184,4,18.75,2|2|2|2|2
352,184,36933,5,0
248,136,37263,1,0
168,216,37594,1,2
216,272,37815,1,0
224,288,37925,1,0
216,304,38036,1,0
144,288,38256,2,0,B|64:312,1,75
72,309,38587,1,0
72,309,38697,5,2
96,200,39028,1,0
56,96,39359,1,0
112,40,39580,2,0,B|272:64,1,150,2|0
275,65,40131,1,0
291,65,40241,1,0
307,65,40352,1,0
323,65,40462,1,0
256,192,40572,12,4,43991
352,96,44874,5,0
376,168,45094,1,0
320,224,45315,1,0
296,152,45536,1,0
296,152,45756,2,0,B|200:280,1,150,0|0
136,248,46418,1,0
144,320,46639,1,0
144,320,46859,1,0
216,344,47080,1,2
216,344,47300,1,0
288,328,47521,6,0,B|344:368|376:296|464:344,1,150
464,264,48183,1,0
400,224,48403,2,0,B|312:240,1,75
256,256,48844,1,0
208,200,49065,2,0,B|248:208|304:200|352:160|376:112,1,187.5
336,104,49727,2,0,B|304:144|256:152,1,75
64,96,50168,2,0,B|96:56|144:48,1,75
192,80,50609,5,2
264,56,50830,1,0
280,56,50940,1,0
296,56,51050,2,0,B|448:104,1,150
392,160,51712,1,0
432,224,51933,1,0
384,280,52153,1,0
456,296,52374,1,0
432,224,52594,1,0
384,280,52815,6,0,B|296:312,1,75
128,104,53256,2,2,B|216:72,1,75
352,88,53918,2,0,B|320:120|264:120,2,75,2|0|0
416,48,54580,1,0
424,120,54800,1,0
416,192,55021,1,0
424,264,55241,2,0,B|400:360|280:328,1,150,2|0
256,280,55903,1,0
184,248,56124,5,2
168,256,56234,1,2
152,264,56344,1,2
168,152,56675,1,2
264,96,57006,1,2
224,32,57227,2,2,B|112:40,1,112.5
74,40,57668,1,2
74,40,57889,1,2
48,192,58109,6,0,B|40:240|72:256,1,75
144,280,58550,2,0,B|240:280,1,75
288,248,58991,1,0
336,192,59212,1,0
360,264,59433,1,0
312,320,59653,1,0
240,336,59874,2,0,B|72:336,1,150,0|0
32,288,60536,2,0,B|120:288,1,75
184,288,60977,1,0
240,240,61197,1,2
168,216,61418,1,0
224,168,61639,6,0,B|256:192|296:192,1,75
456,48,62080,2,0,B|424:24|384:24,1,75
400,96,62521,1,0
336,128,62741,1,0
400,96,62962,1,0
336,56,63183,2,0,B|264:16|144:32,1,187.5
136,64,63844,2,0,B|64:96,1,75
104,160,64286,1,0
88,232,64506,5,0
291,118,64727,1,2
281,343,64947,2,0,B|376:344,1,75
472,152,65609,1,0
256,224,65830,2,0,B|176:224,1,75
360,88,66491,1,0
256,192,66712,12,0,67815
224,72,68036,6,0,B|264:88|320:80,1,75,0|2
360,128,68477,1,0
360,128,68587,1,0
360,128,68697,1,0
328,200,68918,1,0
400,224,69139,2,0,B|480:208,2,75
344,272,69800,1,0
272,272,70021,1,0
200,272,70241,2,0,B|40:272,1,150
50,272,70793,1,0
50,272,70903,1,0
64,200,71124,5,0
128,160,71344,1,0
160,88,71565,1,0
304,40,71786,1,4
296,192,72006,1,0
352,240,72227,6,0,B|432:224,1,75,0|8
176,328,72668,2,0,B|96:344,1,75,0|8
192,128,73109,2,0,B|272:112,2,75,0|8|8
120,144,73771,1,0
112,216,73991,6,0,B|80:288,1,75,0|8
256,104,74433,2,0,B|288:32,1,75,0|8
408,264,74874,2,0,B|376:336,2,75,0|8|8
440,192,75536,1,0
392,136,75756,5,0
168,192,75977,1,8
16,32,76197,1,0
240,88,76418,1,8
368,272,76638,2,0,B|416:352,2,75,0|8|8
328,208,77300,1,0
256,224,77521,6,0,B|216:232|184:192,1,75,2|0
320,16,77962,2,0,B|360:8|392:48,1,75,2|0
472,256,78403,2,0,B|480:296|440:328,1,75,2|0
216,328,78844,2,0,B|176:336|144:296,1,75,2|0
96,248,79286,5,0
96,248,79506,1,8
416,248,79727,1,0
416,248,79947,1,8
96,168,80168,2,0,B|176:192,1,75,0|8
416,168,80609,2,0,B|336:192,1,75,8|0
288,136,81050,5,0
312,64,81271,1,8
240,80,81491,1,0
216,152,81712,2,0,B|256:240|160:312,1,150,8|0
120,248,82374,1,8
120,248,82594,1,8
288,240,82815,6,0,B|296:288|360:304,1,75
488,232,83256,2,0,B|480:184|416:168,1,75
297,162,83697,2,0,B|331:196|392:173,1,75
456,40,84138,2,0,B|421:5|360:28,1,75
280,64,84580,6,0,B|192:88,1,75
200,160,85021,2,0,B|288:136,1,75
264,216,85462,2,0,B|176:240,1,75
184,312,85903,2,0,B|272:288,1,75
328,312,86344,1,4
256,192,86455,12,0,87668
88,96,88109,5,0
112,96,88219,1,0
136,96,88330,1,0
160,96,88440,1,0
160,128,88550,5,0
192,136,88661,1,0
224,144,88771,1,0
256,152,88881,1,0
288,128,88991,5,0
328,120,89102,1,0
368,112,89212,1,0
408,104,89322,1,0
440,72,89433,5,0
448,112,89543,1,0
456,152,89653,1,0
464,192,89763,1,0
472,240,89874,1,4
400,280,90094,5,0
352,344,90315,2,0,B|256:320,1,82.4999975413085
264,240,90756,1,0
192,288,90977,1,0
112,280,91197,1,2
104,200,91418,6,0,B|192:200|272:136,1,164.999995082617
192,96,92080,1,0
112,80,92300,2,0,B|24:112,2,82.4999975413085
168,16,92962,1,2
168,16,93183,1,0
248,40,93403,6,0,B|296:48|304:104,1,82.4999975413085
152,288,93844,2,0,B|104:280|96:224,1,82.4999975413085
176,208,94286,1,0
232,272,94506,1,0
312,288,94727,1,2
392,256,94947,1,0
368,176,95168,6,0,B|456:184,1,82.4999975413085,0|0
240,16,95609,2,0,B|304:96,1,82.4999975413085,0|0
280,160,96050,1,2
280,160,96271,1,2
200,192,96491,1,0
184,192,96602,1,0
168,192,96712,1,0
152,192,96822,1,0
136,192,96933,1,4
96,264,97153,5,0
16,296,97374,2,0,B|32:336|88:352,2,82.4999975413085
32,216,98036,1,0
48,136,98256,2,0,B|144:160,1,82.4999975413085,2|0
288,288,98697,2,0,B|192:264,2,82.4999975413085
272,208,99359,1,0
352,232,99580,6,0,B|448:240|488:144,1,164.999995082617,0|2
408,112,100241,1,0
328,144,100462,1,0
272,208,100683,1,0
296,88,100903,1,0
272,208,101124,1,0
264,32,101344,1,0
272,208,101565,1,0
224,272,101786,6,0,B|136:296,1,82.4999975413085,2|0
48,64,102227,2,0,B|136:40,2,82.4999975413085
32,144,102888,1,0
16,224,103109,1,0
39,246,103219,1,0
66,264,103330,1,0
97,274,103440,1,0
129,274,103550,1,0
162,270,103661,1,0
193,260,103771,1,0
222,245,103881,1,0
248,225,103991,1,4
328,256,104212,5,0
408,232,104433,2,0,B|440:272|496:280,1,82.4999975413085
488,192,104874,1,0
416,144,105094,1,0
480,88,105315,1,2
408,40,105536,2,0,B|384:80|320:112|240:120|200:80,1,225
272,32,106418,5,0
320,104,106638,2,0,B|336:152|296:200,1,82.4999975413085,0|0
264,256,107080,2,0,B|232:288|184:288,1,82.4999975413085,2|0
120,240,107521,5,0
192,208,107741,1,0
128,160,107962,1,2
200,128,108183,1,0
136,80,108403,2,0,B|96:96|48:88,2,82.4999975413085,0|0|0
208,48,109065,2,0,B|248:32|296:40,2,82.4999975413085,0|0|0
200,128,109727,1,0
200,128,109947,1,0
256,192,110168,5,0
336,160,110388,2,0,B|400:168,1,41.2499987706542,0|0
464,360,110719,2,0,B|400:352,1,41.2499987706542,0|0
352,336,111050,2,0,B|312:360|256:336,2,75
400,280,111712,1,0
176,64,112153,5,0
176,64,112263,1,0
176,64,112374,1,0
56,160,112815,2,0,B|88:216|160:224,2,123.749996311963,2|0|0
136,136,113697,1,0
176,144,113808,1,0
296,128,114028,1,0
256,120,114139,1,0
312,56,114359,1,0
392,80,114580,1,4
392,80,115021,5,0
392,80,115462,1,0
464,104,115683,1,0
448,32,115903,1,2
392,80,116124,2,0,B|392:160|336:232,1,150
288,272,116786,2,0,B|192:304,1,75
72,256,117227,2,0,B|168:224,1,75
216,208,117668,1,0
216,208,118109,6,0,B|248:232|304:224,1,75
320,64,118550,2,0,B|288:40|232:48,1,75
176,56,118991,1,0
160,128,119212,1,0
104,80,119433,1,0
120,8,119653,1,0
104,80,119874,6,0,B|48:144,1,75
160,128,120315,2,0,B|143:211,1,75
248,184,120756,2,0,B|275:264,1,75,2|0
368,216,121197,2,0,B|432:271,2,75,2|0|4
456,96,122080,5,0
456,96,122521,1,0
392,136,122741,1,0
392,64,122962,1,2
456,96,123183,2,0,B|448:176|488:256,1,150
456,312,123844,1,0
384,336,124065,1,0
312,304,124286,1,0
240,336,124506,1,2
240,336,124727,1,2
240,336,125168,6,0,B|144:352,2,75
264,208,125830,1,0
264,208,126050,1,0
288,80,126271,2,0,B|384:64,2,75,0|2|0
240,136,126933,1,0
240,136,127153,1,0
168,168,127374,6,0,B|152:120|184:80,1,75,0|0
360,144,127815,2,0,B|376:192|344:232,1,75,2|0
184,304,128256,2,0,B|136:320|96:288,1,75,2|0
168,168,128697,1,4
112,32,129138,5,0
112,32,129580,1,0
88,104,129800,1,0
40,48,130021,1,2
112,32,130241,2,0,B|168:88|280:80,1,150
328,72,130903,1,0
249,80,131124,1,0
376,104,131344,1,0
249,80,131565,1,0
424,136,131786,1,0
249,80,132006,1,0
296,144,132227,6,0,B|265:244,1,75
163,268,132668,2,0,B|265:243,1,75
337,320,133109,1,0
280,272,133330,2,0,B|256:312|208:320,2,75,2|0|0
432,104,133991,2,0,B|456:144|504:152,2,75
360,104,134653,1,0
312,48,134874,1,2
288,120,135094,1,0
240,64,135315,2,0,B|208:64,4,18.75,2|0|2|0|2
168,64,135756,5,0
136,168,136087,1,0
216,248,136418,1,2
264,304,136638,1,0
256,320,136749,1,0
240,328,136859,1,0
312,336,137080,2,0,B|400:344,1,75
386,342,137411,1,0
386,342,137521,1,2
432,240,137852,5,0
408,128,138183,1,0
336,144,138403,2,2,B|184:160,1,150
168,160,138955,1,0
152,160,139065,1,0
136,160,139175,1,0
120,160,139286,1,4
256,192,139396,12,4,142815
