osu file format v8

[General]
AudioFilename: BGM33.mp3
AudioLeadIn: 0
PreviewTime: 105442
Countdown: 0
SampleSet: Soft
StackLeniency: 0.4
Mode: 0
LetterboxInBreaks: 1

[Editor]
Bookmarks: 6064,14068,22072,30075,38079,46082,54086,62089,70093,78097,86100,90102,98105,106109,114113,122116,130121
DistanceSpacing: 0.9
BeatDivisor: 2
GridSize: 8

[Metadata]
Title:Kage Futatsu
Artist:riya
Creator:impossiblexu
Version:Normal
Source:Clannad
Tags:Two Shadows furukawa nagisa

[Difficulty]
HPDrainRate:4
CircleSize:3
OverallDifficulty:4
ApproachRate:4
SliderMultiplier:0.9
SliderTickRate:1

[Events]
//Background and Video events
0,0,"Clannad2.jpg"
//Break Periods
//Storyboard Layer 0 (Background)
//Storyboard Layer 1 (Fail)
//Storyboard Layer 2 (Pass)
//Storyboard Layer 3 (Foreground)
//Storyboard Sound Samples
//Background Colour Transformations
3,100,245,70,56

[TimingPoints]
6053,333.555703802535,3,2,0,40,1,0
130131,363.636363636364,3,1,0,30,1,0
131221,384.615384615385,3,1,0,30,1,0
132374,405.405405405405,3,1,0,30,1,0
133590,545.454545454545,3,1,0,30,1,0
135226,857.142857142857,3,2,0,0,1,0

[Colours]
Combo1 : 245,70,56
Combo2 : 243,52,215
Combo3 : 62,2,185

[HitObjects]
133,63,6052,2,0,B|95:119|109:197,1,135,4|0
108,192,6720,1,0
179,153,7053,2,0,B|270:153,2,90,8|0|0
235,94,8054,6,0,B|303:79|288:39|346:14,1,135,2|0
341,16,8721,1,0
375,89,9055,2,0,B|342:129|350:183,2,90,8|0|0
440,137,10055,5,2
456,216,10389,1,0
391,264,10722,1,0
315,233,11056,2,0,B|230:268|128:249,1,180,8|0
72,202,12057,6,0,B|72:60,2,135,2|0|8
131,146,13391,1,0
211,147,13724,1,0
249,218,14058,6,0,B|293:274|371:271,1,135,4|0
367,271,14725,1,0
331,198,15059,2,0,B|316:154|343:112,2,90,8|0|0
269,145,16059,6,0,B|75:145,1,180,2|0
40,209,17060,1,8
64,285,17393,1,0
145,288,17727,1,0
186,218,18061,6,0,B|221:286|301:298,2,135,2|0|8
267,217,19395,1,0
341,184,19728,1,0
371,108,20062,6,0,B|371:12,2,90,2|0|0
289,104,21063,2,0,B|262:135|206:130,1,90,8|0
182,52,21730,1,0
127,113,22063,6,0,B|90:151|109:213,2,90,4|0|0
180,173,23064,2,0,B|256:223|367:197,1,180,8|0
428,170,24065,5,2
479,232,24398,1,0
431,297,24732,1,0
355,268,25065,2,0,B|319:298|315:353,2,90,8|0|0
274,281,26066,6,0,B|184:318|93:285,1,180,2|0
160,234,27067,2,0,B|258:241|337:194,1,180,8|0
343,115,28067,5,2
271,77,28401,1,0
217,137,28734,1,0
137,119,29068,2,0,B|114:80|130:28,1,90,8|0
208,15,29735,1,0
281,47,30069,6,0,B|369:11|369:72|469:29,1,180,4|0
443,114,31069,2,0,B|428:159|456:202,2,90,8|0|0
362,123,32070,5,2
311,186,32403,1,0
236,155,32737,1,0
281,87,33071,2,0,B|196:51|92:68,1,180,8|0
55,130,34071,6,0,B|14:209|67:225|15:306,1,180,2|0
96,318,35072,2,0,B|145:240|92:224|133:145,1,180,8|0
187,85,36073,5,2
262,114,36406,1,0
254,194,36740,1,0
174,208,37073,2,0,B|190:305|305:328,1,180,8|0
285,244,38074,6,0,B|319:272|371:265,2,90,4|0|0
344,188,39075,2,0,B|344:94|254:34,1,180,8|0
178,45,40075,5,2
132,112,40409,1,0
208,140,40742,1,0
157,203,41076,2,0,B|141:252|173:290,2,90,8|0|0
231,236,42077,6,0,B|271:255|320:235,2,90,2|0|0
271,165,43077,1,8
342,126,43411,2,0,B|324:85,2,45
423,123,44078,6,0,B|472:194|414:226|475:313,1,180,2|0
382,293,45079,2,0,B|360:335|311:340,2,90,8|0|0
306,262,46079,6,0,B|112:262,1,180,4|0
170,194,47080,1,8
250,194,47413,1,0
331,194,47747,1,0
381,131,48081,6,0,B|356:93|368:42,2,90,2|0|0
305,100,49081,2,0,B|221:137|126:109,1,180,8|0
77,172,50082,5,6
77,172,50415,1,0
77,172,50749,1,0
126,236,51083,1,4
126,236,51416,1,0
126,236,51750,1,0
206,223,52083,6,0,B|223:290|290:334|378:328|440:273,1,270,4|8
459,208,53417,1,0
410,143,53751,5,0
410,143,53918,1,0
410,143,54085,2,0,B|358:159|315:133,1,90,4|0
256,89,54752,1,0
191,137,55085,2,0,B|167:177|171:226,1,90,8|0
195,300,55752,1,0
268,266,56086,6,0,B|328:252|336:304|406:293,1,135,2|0
437,291,56753,2,0,B|444:264|437:239,1,45
414,213,57087,2,0,B|314:187|291:72,1,180,8|0
221,55,58087,5,2
140,42,58421,1,0
85,101,58754,1,0
119,178,59088,2,0,B|131:223|111:267,2,90,8|0|0
197,201,60089,6,0,B|334:201,1,135,2|0
322,240,60756,2,0,B|430:240,1,90,0|8
455,306,61423,1,0
395,360,61756,1,0
322,326,62090,6,0,B|280:347|232:331,2,90,4|0|0
270,262,63091,2,0,B|220:244|173:264,2,90,8|0|0
238,187,64091,6,0,B|165:129|167:19,1,180,2|0
85,31,65092,1,8
29,89,65425,1,0
70,158,65759,1,0
148,139,66093,6,0,B|177:232|114:314,1,180,2|0
188,349,67093,1,8
263,320,67427,2,0,B|263:367,2,45
304,250,68094,6,0,B|272:191|286:108,1,135,2|0
284,118,68761,1,0
346,67,69095,2,0,B|368:81|393:82,1,45,8|0
427,93,69428,1,0
427,93,69762,1,0
458,168,70095,6,0,B|388:231|383:335,1,180,4|0
323,272,71096,2,0,B|297:310|244:311,2,90,8|0|0
251,232,72097,5,2
99,175,72764,1,0
99,94,73097,2,0,B|89:45|120:11,2,90,8|0|0
176,68,74098,6,0,B|254:117|275:65|371:103,1,180,2|0
395,163,75099,1,8
346,226,75432,2,0,B|307:258|311:317,1,90
260,242,76099,6,0,B|194:262|124:238,1,135,2|0
127,239,76766,1,0
87,168,77100,2,0,B|61:124|90:72,2,90,8|0|0
154,123,78101,6,0,B|244:156|334:121,1,180,4|0
387,180,79101,2,0,B|411:179|434:167,2,45,8|0|0
368,258,79768,1,0
291,283,80102,6,0,B|209:329|95:299,1,180,2|0
43,267,81103,1,8
13,191,81436,1,0
50,118,81770,1,0
129,104,82103,6,0,B|211:147|311:115,1,180,2|0
356,179,83104,2,0,B|338:225|359:271,2,90,8|0|0
423,223,84105,6,0,B|470:145|419:129|464:30,1,180,2|0
377,74,85105,2,0,B|305:134|202:122,1,180,8|0
127,118,86106,6,0,B|93:85|97:29,2,90,4|2|8
50,145,87107,2,0,B|37:192|59:239,2,90,4|2|8
121,183,88107,6,0,B|206:219|319:188,1,180,4|8
289,273,89108,2,0,B|197:298|112:262,1,180,0|8
45,217,90109,5,4
29,137,90442,1,0
91,85,90776,1,0
110,163,91109,2,0,B|184:210|292:193,1,180,8|0
352,151,92110,5,2
415,200,92443,2,0,B|470:187,2,45
421,280,93111,2,0,B|391:316|338:308,2,90,8|0|0
354,232,94111,5,2
283,192,94445,1,0
315,117,94778,1,0
247,72,95112,2,0,B|204:94|155:79,2,90,8|0|0
222,149,96113,6,0,B|167:191|206:217|137:262,1,135,2|0
145,256,96780,1,0
226,260,97113,2,0,B|300:308|402:280,1,180,8|0
445,214,98114,5,4
398,58,98781,1,0
321,31,99115,2,0,B|273:41|221:17,2,90,8|0|0
273,97,100115,5,2
341,139,100449,2,0,B|397:139,2,45
375,212,101116,1,8
331,280,101449,2,0,B|279:280,2,45
289,349,102117,6,0,B|188:373|102:327,1,180,2|0
181,289,103117,1,8
102,269,103451,1,0
81,190,103784,1,0
119,119,104118,6,0,B|217:119,2,90,2|0|0
166,184,105119,1,8
166,184,105285,1,0
166,184,105452,2,0,B|268:184,1,90
256,264,106119,6,0,B|261:316|306:344|366:336|401:286,1,180,4|0
332,242,107120,2,0,B|299:203|298:146|348:109|410:123,1,180,8|0
407,201,108121,6,0,B|441:233|490:235,2,90,2|0|0
466,145,109121,2,0,B|445:101|459:54,2,90,8|0|0
390,113,110122,5,2
338,175,110455,2,0,B|294:175,2,45
365,251,111123,2,0,B|291:304|172:277,1,180,4|0
117,248,112123,5,2
91,171,112457,2,0,B|45:171,2,45
137,104,113124,2,0,B|210:53|238:105|319:48,1,180,4|0
389,110,114125,5,4
418,204,114458,1,2
357,282,114792,1,8
259,267,115125,5,0
225,173,115459,1,2
291,100,115792,1,8
322,193,116126,6,0,B|284:224|225:215,2,90,4|2|8
322,193,117127,6,0,B|363:164|419:171,2,90,4|2|8
256,192,118127,12,8,121129
151,134,122130,6,0,B|116:170|123:223,2,90,4|0|0
197,200,123131,1,8
258,252,123464,1,0
334,225,123798,1,0
273,171,124131,6,0,B|292:77|388:30,1,180,2|0
452,71,125132,2,0,B|476:76|496:71,2,45,8|0|0
465,151,125799,1,0
393,189,126133,6,0,B|335:260|338:362,1,180,2|0
287,292,127133,2,0,B|243:208|287:110,1,180,8|0
225,174,128134,6,0,B|152:235|43:230,1,180,2|0
12,163,129135,1,8
56,95,129468,1,0
137,92,129802,1,0
168,159,130131,6,0,B|213:174|257:159,2,90
192,231,131221,6,0,B|152:252|97:242,2,90
260,265,132374,6,0,B|237:308|248:359,2,90
305,304,133590,6,0,B|351:324|404:307,2,90
256,192,137797,12,0,145511
