osu file format v8

[General]
AudioFilename: BGM33.mp3
AudioLeadIn: 0
PreviewTime: 105442
Countdown: 0
SampleSet: Soft
StackLeniency: 0.4
Mode: 0
LetterboxInBreaks: 1

[Editor]
Bookmarks: 6064,14068,22072,30075,38079,46082,54086,62089,70093,78097,86100,90102,98105,106109,114113,122116,130121
DistanceSpacing: 1
BeatDivisor: 4
GridSize: 8

[Metadata]
Title:Kage Futatsu
Artist:riya
Creator:impossiblexu
Version:Hard
Source:Clannad
Tags:Two Shadows furukawa nagisa

[Difficulty]
HPDrainRate:6
CircleSize:4
OverallDifficulty:6
ApproachRate:7
SliderMultiplier:1.3
SliderTickRate:1

[Events]
//Background and Video events
0,0,"Clannad3.jpg"
//Break Periods
//Storyboard Layer 0 (Background)
//Storyboard Layer 1 (Fail)
//Storyboard Layer 2 (Pass)
//Storyboard Layer 3 (Foreground)
//Storyboard Sound Samples
//Background Colour Transformations
3,100,245,70,56

[TimingPoints]
6053,333.555703802535,3,2,0,40,1,0
19978,-100,3,1,0,25,0,0
21813,-100,3,2,0,40,0,0
53000,-100,3,1,0,25,0,0
54001,-100,3,2,0,40,0,0
69011,-100,3,1,0,25,0,0
69845,-100,3,2,0,40,0,0
105031,-100,3,1,0,25,0,0
106032,-100,3,2,0,40,0,0
117210,-100,3,1,0,25,0,0
118044,-100,3,2,0,40,0,0
130131,363.636363636364,3,1,0,30,1,0
131221,384.615384615385,3,1,0,30,1,0
132374,405.405405405405,3,1,0,30,1,0
133590,545.454545454545,3,1,0,30,1,0
135226,857.142857142857,3,2,0,0,1,0

[Colours]
Combo1 : 245,70,56
Combo2 : 243,52,215
Combo3 : 62,2,185

[HitObjects]
106,34,6053,2,0,B|49:113|86:228,1,195,4|0
127,173,6720,1,0
191,178,6886,1,0
238,222,7053,2,0,B|222:293|151:326,2,130,8|0|0
337,305,8054,6,0,B|415:244|367:207|458:139,1,195,2|0
437,83,8721,2,0,B|398:82|376:55,1,65
316,40,9055,1,8
190,73,9388,1,0
215,200,9722,1,0
342,174,10055,6,0,B|313:277|196:313,1,195,2|0
146,312,10722,1,0
89,280,10889,1,0
93,215,11056,2,0,B|110:146|76:148|84:70,2,130,8|0|0
190,128,12057,5,2
367,47,12557,1,0
397,104,12724,1,0
365,160,12890,1,0
301,147,13057,2,0,B|244:189|239:268,2,130,8|0|0
198,66,14058,5,4
198,66,14225,1,0
198,66,14391,2,0,B|134:100|124:176,2,130,0|0|8
260,48,15225,1,0
317,77,15392,2,0,B|367:117|440:112,1,130
330,183,16059,6,0,B|241:226|269:271|169:321,1,195,2|0
121,311,16726,1,0
128,181,17060,2,0,B|102:117|134:47,2,130,8|0|0
255,155,18061,6,0,B|361:174|452:121,2,195,2|0|8
159,243,19395,1,0
238,346,19728,1,0
340,266,20062,5,0
340,266,20229,1,0
435,95,20562,1,0
435,95,20729,1,0
256,16,21063,1,0
160,36,21229,1,0
128,128,21396,2,0,B|78:128,2,32.5,0|0|0
177,212,21730,1,0
370,207,22063,6,0,B|356:272|294:316,1,130,4|0
235,327,22564,1,0
173,307,22730,1,8
99,199,23064,2,0,B|60:206|32:187,2,65,2|0|0
102,68,23731,1,8
160,38,23898,1,0
222,55,24065,5,2
250,113,24231,2,0,B|291:113,2,32.5
217,170,24565,1,0
152,177,24732,2,0,B|129:244|161:311,1,130,8|2
273,363,25399,1,0
337,370,25566,1,0
367,313,25732,1,8
340,253,25899,1,0
300,304,26066,6,0,B|233:276|216:194,1,130,2|0
228,143,26566,1,0
272,95,26733,2,0,B|307:104|339:91,1,65,8|0
400,85,27067,2,0,B|441:132|411:157|459:198,1,130,2|0
444,261,27567,1,0
444,261,27650,1,0
444,261,27734,1,8
321,304,28067,6,0,B|256:337|173:310,2,130,2|0|8
247,197,29068,2,0,B|141:216|50:169,1,195,2|0
37,76,29735,1,8
118,23,29902,1,0
207,63,30069,6,0,B|235:89|284:83,2,65,4|0|0
154,100,30569,1,0
169,163,30736,2,0,B|197:227|166:303,1,130,8|2
299,268,31403,1,0
354,301,31570,1,0
413,275,31736,2,0,B|425:241|464:232,1,65,8|0
403,199,32070,6,0,B|336:178|319:107,2,130,2|0|8
415,135,32904,1,0
415,135,32987,1,0
415,135,33071,2,0,B|374:77|382:8,1,130,2|0
252,27,33738,1,8
204,71,33904,1,0
227,131,34071,6,0,B|209:198|131:229,2,130,2|0|8
301,237,35072,2,0,B|359:273|438:259,2,130,2|0|8
253,280,35906,1,0
189,267,36073,6,0,B|117:267,1,65,2|0
138,203,36406,2,0,B|63:202,1,65
101,143,36740,2,0,B|87:112|99:78,1,65,8|0
187,38,37073,2,0,B|216:61|256:50,2,65,2|2|8
243,117,37574,2,0,B|278:133|319:120,2,65,0|2|8
304,193,38074,6,0,B|283:256|313:334,1,130,4|0
437,339,38741,1,8
465,280,38908,1,0
423,229,39075,2,0,B|395:212|391:172,1,65,2|0
456,169,39408,2,0,B|435:136|440:99,1,65
403,52,39742,1,8
337,53,39908,1,0
304,108,40075,6,0,B|255:151|173:147,1,130,2|0
151,204,40576,2,0,B|117:204,2,32.5,0|0|8
168,266,40909,1,0
232,271,41076,2,0,B|309:319|429:305,1,195,2|0
469,262,41743,1,8
469,262,41910,1,0
430,209,42077,6,0,B|401:147|426:75,2,130,2|0|8
368,227,42910,1,0
306,206,43077,2,0,B|282:146|310:60,2,130,2|0|8
253,244,43911,1,0
188,233,44078,6,0,B|122:249|113:216|47:238,2,130,2|0|8
149,180,44912,1,0
179,122,45079,2,0,B|179:55,1,65,2|0
271,90,45412,2,0,B|337:90,1,65,2|0
302,181,45746,2,0,B|302:246,1,65,8|0
209,211,46079,6,0,B|139:224|107:298,1,130,4|0
176,293,46580,2,0,B|129:245|131:170,1,130
154,114,47080,1,2
214,91,47247,1,0
271,121,47413,2,0,B|302:136|337:125,1,65
392,154,47747,2,0,B|364:176|331:175,1,65,8|0
281,216,48081,6,0,B|244:272|280:285|237:350,2,130,2|0|8
230,174,48914,1,0
230,174,48998,1,0
230,174,49081,2,0,B|172:215|86:199,1,130,2|0
37,91,49748,1,8
151,29,50082,6,0,B|217:29,1,65,4|0
281,29,50415,1,0
214,140,50749,1,8
285,248,51083,2,0,B|341:171|329:59,1,195,2|0
381,102,51750,2,0,B|451:102,1,65,8|0
425,163,52083,6,0,B|401:229|436:293,1,130,4|0
386,333,52584,1,0
320,332,52750,1,8
135,268,53084,1,0
83,185,53251,1,0
166,134,53417,1,0
225,211,53584,1,0
310,164,53751,2,0,B|298:132|313:126|301:99,1,65,0|0
363,24,54085,6,0,B|407:66|487:64,1,130,4|0
434,107,54585,2,0,B|399:170|421:242,1,130
388,290,55085,1,2
266,334,55419,1,0
159,258,55752,1,8
165,193,55919,1,0
229,186,56086,6,0,B|266:174|278:135,2,65,2|0|0
264,240,56586,1,0
326,224,56753,2,0,B|391:246|471:215,1,130,8|2
468,91,57420,1,0
416,50,57587,1,0
354,29,57754,2,0,B|287:29,1,65,8|0
317,86,58087,6,0,B|272:138|188:132,1,130,2|0
105,221,58754,1,8
168,334,59088,2,0,B|245:334,1,65,2|0
270,280,59421,2,0,B|205:280,1,65
237,223,59755,1,8
317,121,60089,6,0,B|396:176|393:187|379:192|378:177|387:169|480:227,2,195,2|2|2
241,59,61256,1,0
148,90,61423,2,0,B|145:124|117:149,1,65
216,156,61756,2,0,B|206:191|227:221,1,65,8|0
131,248,62090,6,0,B|102:311|132:379,2,130,4|0|8
98,191,62924,1,0
139,141,63091,2,0,B|162:111|154:75,1,65,2|0
217,97,63424,2,0,B|350:97,2,130,0|8|2
246,154,64258,5,0
309,169,64425,2,0,B|326:202|309:232,1,65
244,236,64758,1,8
229,299,64925,1,0
164,292,65092,2,0,B|92:308|34:276,2,130,2|0|8
121,168,66093,6,0,B|218:105|196:164|309:95,1,195,2|0
365,107,66760,1,8
365,107,66843,1,0
365,107,66926,1,0
414,149,67093,2,0,B|431:181|419:220,1,65,2|0
356,203,67427,2,0,B|351:236|372:264,1,65
433,286,67760,2,0,B|414:319|375:324,1,65,8|0
320,299,68094,6,0,B|122:298,1,195,2|0
91,242,68761,2,0,B|47:242,2,32.5,8|0|0
107,145,69095,1,0
165,67,69261,1,0
146,162,69428,1,0
208,86,69595,1,0
183,180,69762,1,0
375,150,70095,6,0,B|385:218|336:281,1,130,4|0
219,314,70762,1,8
154,303,70929,1,0
125,244,71096,2,0,B|80:193|89:112,2,130,2|0|8
158,187,71930,1,0
219,208,72097,6,0,B|352:209,1,130,2|0
442,117,72764,1,8
348,26,73097,2,0,B|266:78|155:61,1,195,2|0
98,82,73764,1,8
98,82,73848,1,0
98,82,73931,1,0
60,134,74098,6,0,B|40:167|50:201,2,65,2|0|0
179,186,74765,1,8
268,280,75099,2,0,B|329:309|399:292,1,130,2|0
447,254,75599,1,0
423,193,75766,2,0,B|408:162|418:127,1,65,8|0
364,167,76099,6,0,B|157:167,1,195,2|0
108,192,76766,1,8
95,255,76933,1,0
181,299,77100,2,0,B|261:299,1,65,2|0
343,298,77433,2,0,B|264:298,1,65,8|0
257,202,77767,1,2
257,104,77934,1,0
173,53,78101,6,0,B|140:110|53:128,1,130,4|0
78,60,78601,2,0,B|117:122|94:193,1,130
161,185,79101,2,0,B|177:218|211:223,2,65,2|0|0
185,124,79602,1,0
249,130,79768,2,0,B|300:171|381:168,1,130,8|2
413,217,80269,6,0,B|397:246|404:281,1,65
360,328,80602,1,0
299,305,80769,2,0,B|236:291|245:252|182:237,1,130,8|2
143,192,81269,2,0,B|143:124,1,65
82,152,81603,2,0,B|82:221,1,65,0|8
66,280,81936,1,0
113,324,82103,6,0,B|173:356|245:341,2,130,2|0|8
194,222,83104,1,2
194,222,83271,1,0
255,240,83437,1,0
255,240,83604,1,0
307,201,83771,1,8
307,201,83938,1,0
285,139,84105,6,0,B|298:72|366:39,1,130,2|0
360,105,84605,2,0,B|360:172|416:227,1,130,0|0
387,316,85105,2,0,B|372:348|334:356,1,65,2|0
260,294,85439,2,0,B|237:320|192:318,1,65,2|0
173,224,85772,2,0,B|109:252|26:236,1,130,8|4
256,192,86189,12,0,89108
180,117,89441,6,0,B|159:151|173:192,2,65,0|0|8
299,168,90109,2,0,B|315:236|393:263,1,130,4|0
386,194,90609,2,0,B|323:234|306:302,1,130
251,262,91109,1,2
198,300,91276,1,0
144,262,91443,1,0
154,197,91610,2,0,B|175:166|168:132,1,65,0|8
282,72,92110,6,0,B|313:87|346:75,2,65,2|0|0
309,131,92610,2,0,B|282:149|246:143,2,65,0|8|0
362,168,93111,2,0,B|320:216|356:239|301:293,2,130,2|0|8
425,153,93944,1,0
460,207,94111,6,0,B|461:271,1,65,2|0
400,246,94445,2,0,B|400:317,1,65
340,336,94778,1,8
209,333,95112,1,2
167,282,95279,2,0,B|130:281,2,32.5
173,217,95612,1,0
228,182,95779,2,0,B|247:152|240:117,1,65,8|0
294,156,96113,6,0,B|490:156,1,195,2|0
489,156,96780,1,8
329,46,97113,1,2
133,52,97447,1,2
29,216,97780,1,8
223,198,98114,6,0,B|234:268|308:301,1,130,4|0
359,320,98614,1,0
420,297,98781,2,0,B|419:265|444:240,1,65,8|0
379,247,99115,2,0,B|341:196|361:124,2,130,2|0|8
319,220,99948,1,0
264,255,100115,6,0,B|192:255,1,65,2|0
232,199,100449,2,0,B|206:139|232:72,1,130,0|8
289,42,100949,1,0
340,81,101116,2,0,B|384:129|468:124,1,130,2|0
477,186,101616,1,0
438,238,101783,2,0,B|364:238,1,65,8|0
403,296,102117,6,0,B|359:345|276:337,2,130,2|0|8
285,241,103117,2,0,B|285:171,1,65,2|0
228,208,103451,2,0,B|158:208,1,65
196,152,103784,2,0,B|196:79,1,65,8|0
136,114,104118,6,0,B|50:162|27:272,1,195,2|0
89,249,104785,2,0,B|159:249,1,65,8|0
237,300,105119,2,0,B|237:332,2,32.5
327,336,105452,2,0,B|327:297,2,32.5
425,337,105786,2,0,B|424:269,1,65
445,210,106119,6,0,B|345:184|290:77,1,195,4|0
273,151,106786,2,0,B|194:151,1,65,8|0
246,203,107120,2,0,B|220:264|247:341,2,130,2|2|8
135,271,108121,6,0,B|81:207|132:159|52:82,1,195,4|0
82,31,108788,1,8
146,28,108954,1,0
191,74,109121,2,0,B|179:142|224:203,1,130,2|2
308,101,109788,1,8
256,192,110122,12,4,113124
256,126,113457,6,0,B|229:183|279:183|251:256,1,130,8|8
123,232,114125,2,0,B|93:280|100:335|155:365|218:345,1,195,4|0
263,309,114792,2,0,B|291:331|333:321,1,65,8|0
375,282,115125,2,0,B|375:215,2,65,2|0|2
422,327,115626,1,0
486,326,115792,1,8
474,196,116126,6,0,B|451:133|464:64,1,130,4|0
404,39,116626,1,0
342,60,116793,1,8
255,157,117127,1,2
209,203,117293,2,0,B|209:239,2,32.5,0|0|0
149,176,117627,2,0,B|67:162|106:134|12:117,1,130,0|0
256,192,118127,12,2,121129
131,77,122130,6,0,B|82:122|94:201,2,130,4|0|8
194,64,122964,1,0
247,101,123131,2,0,B|251:136|284:152,1,65,2|0
225,181,123464,2,0,B|244:217|287:225,1,65
338,214,123798,1,8
414,318,124131,6,0,B|359:353|283:336,1,130,2|0
227,316,124632,1,0
216,252,124798,2,0,B|201:221|212:183,1,65,8|0
245,132,125132,1,2
245,132,125215,1,0
245,132,125299,1,0
304,106,125465,1,0
436,101,125799,1,8
373,215,126133,6,0,B|269:232|177:182,1,195,2|0
163,123,126800,1,8
98,123,126966,1,0
70,181,127133,2,0,B|84:250|38:312,2,130,2|0|8
153,281,128134,6,0,B|221:281,2,65,2|0|0
197,233,128634,2,0,B|262:233,2,65,0|8|0
135,148,129135,1,2
163,55,129301,1,0
256,28,129468,1,2
349,55,129635,1,0
387,144,129802,1,8
256,279,130131,6,0,B|256:134,2,130
150,191,131221,6,0,B|15:191,2,130
362,191,132374,6,0,B|498:191,2,130
257,81,133590,6,0,B|236:146|278:144|254:219,2,130
256,192,137797,12,0,145511
