osu file format v8

[General]
AudioFilename: BGM33.mp3
AudioLeadIn: 0
PreviewTime: 105442
Countdown: 0
SampleSet: Soft
StackLeniency: 0.4
Mode: 0
LetterboxInBreaks: 1

[Editor]
Bookmarks: 6064,14068,22072,30075,38079,46082,54086,62089,70093,78097,86100,90102,98105,106109,114113,122116,130121
DistanceSpacing: 1
BeatDivisor: 1
GridSize: 8

[Metadata]
Title:Kage Futatsu
Artist:riya
Creator:impossiblexu
Version:Easy
Source:Clannad
Tags:Two Shadows furukawa nagisa

[Difficulty]
HPDrainRate:1
CircleSize:3
OverallDifficulty:2
ApproachRate:2
SliderMultiplier:0.6
SliderTickRate:1

[Events]
//Background and Video events
0,0,"Clannad1.jpg"
//Break Periods
//Storyboard Layer 0 (Background)
//Storyboard Layer 1 (Fail)
//Storyboard Layer 2 (Pass)
//Storyboard Layer 3 (Foreground)
//Storyboard Sound Samples
//Background Colour Transformations
3,100,245,70,56

[TimingPoints]
6053,333.555703802535,3,2,0,40,1,0
130131,363.636363636364,3,1,0,30,1,0
131221,384.615384615385,3,1,0,30,1,0
132374,405.405405405405,3,1,0,30,1,0
133590,545.454545454545,3,1,0,30,1,0
135226,857.142857142857,3,2,0,0,1,0

[Colours]
Combo1 : 245,70,56
Combo2 : 243,52,215
Combo3 : 62,2,185

[HitObjects]
107,74,6053,2,0,B|107:258,1,180,4|8
208,318,7720,1,0
207,257,8054,6,0,B|207:64,1,180,2|8
309,15,9722,1,0
309,75,10055,6,0,B|309:263,1,180,2|8
142,320,12057,5,2
106,272,12390,1,0
141,223,12724,1,0
176,270,13057,2,0,B|271:291|354:253,1,180,8|4
274,91,15059,6,0,B|201:90,2,60,8|0|0
257,148,16059,6,0,B|241:209|262:269,1,120,2|0
320,254,17060,2,0,B|321:331,2,60,8|0|0
377,270,18061,6,0,B|419:229|397:206|444:169,1,120,2|0
442,110,19061,2,0,B|400:69|422:46|375:9,1,120,8|0
351,64,20062,6,0,B|334:92|341:124,2,60,2|0|0
291,69,21063,2,0,B|258:97|229:98|210:74|224:22,1,120,8|0
162,27,22063,6,0,B|112:72|123:145,1,120,4|0
172,136,23064,2,0,B|217:175|291:162,1,120,8|0
318,212,24065,6,0,B|307:237|318:242|300:271,2,60,2|0|0
258,216,25065,2,0,B|208:255|130:246,1,120,8|0
161,189,26066,6,0,B|96:189|56:141,1,120,2|0
28,87,27067,1,8
130,24,27734,1,0
187,47,28067,6,0,B|179:115|230:176,1,120,2|0
260,117,29068,2,0,B|299:171|296:247,1,120,8|0
236,239,30069,6,0,B|219:265|222:298,2,60,4|0|0
177,252,31069,2,0,B|132:205|142:126,1,120,8|0
198,156,32070,6,0,B|261:176|323:147,1,120,2|0
353,196,33071,2,0,B|327:251|358:263|322:318,1,120,8|0
280,273,34071,5,2
224,296,34405,1,0
166,278,34738,1,0
144,221,35072,2,0,B|150:151|110:98,1,120,8|0
147,55,36073,6,0,B|173:79|213:74,2,60,2|0|0
87,66,37073,1,8
34,174,37740,1,0
48,232,38074,6,0,B|53:295|93:283|99:359,1,120,4|0
136,294,39075,2,0,B|187:331|264:318,1,120,8|0
307,303,40075,5,2
328,246,40409,1,0
296,195,40742,1,0
235,196,41076,1,8
267,80,41743,1,0
327,82,42077,5,2
365,193,42744,1,0
360,253,43077,2,0,B|314:301|232:293,1,120,8|0
203,256,44078,6,0,B|167:294|78:331|114:260|163:212,1,180,2|8
140,160,45412,1,0
178,113,45746,1,0
237,120,46079,6,0,B|291:147|356:134,1,120,4|0
318,182,47080,2,0,B|302:209|308:247,2,60,8|0|0
259,196,48081,6,0,B|219:243|138:244,1,120,2|0
94,228,49081,1,8
64,111,49748,1,0
105,67,50082,6,0,B|136:80|166:72,2,60,4|0|0
133,119,51083,2,0,B|172:166|252:157,1,120,8|0
208,208,52083,6,0,B|209:315,2,90,4|0|8
258,175,53417,1,0
313,150,53751,1,0
365,179,54085,6,0,B|353:245|393:309,1,120,4|0
347,341,55085,1,8
287,332,55419,1,0
270,274,55752,1,0
300,222,56086,6,0,B|295:161|230:121,1,120,2|0
229,184,57087,2,0,B|172:208|94:183,1,120,8|0
148,140,58087,6,0,B|147:77,1,60,2|0
204,63,58754,1,0
261,80,59088,2,0,B|316:108|396:93,1,120,8|0
372,155,60089,6,0,B|309:167|254:139,1,120,2|0
270,197,61089,2,0,B|249:228|251:265,2,60,8|0|0
210,200,62090,5,4
90,190,62757,1,0
91,130,63091,1,8
210,129,63758,1,0
211,68,64091,5,2
330,68,64758,1,0
389,69,65092,2,0,B|416:96|454:92,2,60,8|0|0
389,129,66093,6,0,B|355:182|388:201|346:253,1,120,2|0
303,210,67093,1,8
260,251,67427,1,0
201,237,67760,1,0
188,178,68094,6,0,B|82:116,1,120,2|0
131,78,69095,2,0,B|241:136,1,120,8|0
258,193,70095,6,0,B|229:241|263:260|225:315,1,120,4|0
183,269,71096,2,0,B|166:300|137:307,2,60,8|0|0
128,244,72097,6,0,B|82:204|85:124,1,120,2|0
140,157,73097,2,0,B|198:179|268:154,1,120,8|0
303,118,74098,5,2
445,227,75099,2,0,B|425:256|429:290,2,60,8|0|0
385,233,76099,6,0,B|343:281|260:283,1,120,2|0
289,222,77100,2,0,B|232:245|166:227,1,120,8|0
122,192,78101,5,4
136,72,78768,1,0
186,40,79101,2,0,B|211:59|243:51,2,60,8|0|0
206,96,80102,6,0,B|217:157|248:137|271:211,1,120,2|0
301,245,81103,1,8
360,250,81436,1,0
408,215,81770,1,0
408,154,82103,6,0,B|351:121|346:48,1,120,2|0
301,96,83104,2,0,B|224:96,2,60,8|0|0
281,152,84105,6,0,B|261:209|282:270,1,120,2|0
221,269,85105,2,0,B|241:208|221:151,1,120,8|0
256,192,86106,12,0,89108
126,77,90109,6,0,B|80:161|124:249,1,180,4|8
284,166,92110,6,0,B|356:166,2,60,2|0|0
294,225,93111,2,0,B|276:289|215:311,1,120,8|0
216,250,94111,6,0,B|88:251,1,120,2|0
121,196,95112,2,0,B|121:134,2,60,8|0|0
180,186,96113,6,0,B|234:164|211:130|274:101,1,120,2|0
325,109,97113,1,8
370,148,97447,1,0
357,206,97780,1,0
296,208,98114,6,0,B|233:252|241:262|238:273|226:269|222:258|142:310,1,180,2|8
90,290,99448,2,0,B|77:262|80:222,1,60
138,240,100115,6,0,B|155:181|131:117,1,120,2|0
190,138,101116,2,0,B|249:158|309:137,1,120,8|0
363,114,102117,5,2
443,275,103117,2,0,B|418:300|423:339,2,60,8|0|0
382,273,104118,6,0,B|359:311|298:339|251:287|253:232,1,180,2|8
211,199,105452,1,0
244,148,105786,1,0
301,166,106119,6,0,B|428:166,1,120,4|0
400,109,107120,2,0,B|271:109,1,120,8|0
231,144,108121,6,0,B|212:174|223:217,2,60,2|0|0
172,155,109121,2,0,B|141:167|111:154,2,60,8|0|0
256,192,110122,12,4,113124
175,53,114125,6,0,B|151:85|172:119|211:134|254:117|269:85|251:52,1,180,4|8
310,40,115459,2,0,B|373:54,1,60
420,82,116126,5,4
406,262,117127,1,8
235,245,118127,6,0,B|137:259|57:206,1,180,4|8
41,153,119461,1,0
84,112,119795,1,0
137,139,120129,6,0,B|218:178|328:151,1,180,2|8
433,156,121796,1,0
448,214,122130,6,0,B|401:262|404:330,1,120,4|0
369,272,123131,2,0,B|312:295|241:269,1,120,8|0
200,241,124131,5,2
165,191,124465,1,0
199,141,124798,1,0
257,155,125132,2,0,B|305:116|312:40,1,120,8|0
362,80,126133,6,0,B|424:80,2,60,4|0|0
386,135,127133,2,0,B|384:197|419:194|413:266,1,120,8|0
362,219,128134,6,0,B|298:219,2,60,2|0|0
346,277,129135,2,0,B|308:330|228:330,1,120,8|0
206,284,130131,6,0,B|108:206,1,120
166,193,131221,6,0,B|68:115,1,120
128,120,132374,6,0,B|226:42,1,120
229,89,133590,6,0,B|327:11,1,120
256,192,137797,12,0,145511
