osu file format v12

[General]
AudioFilename: cotoribbon - mint tears.mp3
AudioLeadIn: 0
PreviewTime: 26046
Countdown: 0
SampleSet: Soft
StackLeniency: 0.7
Mode: 1
LetterboxInBreaks: 0
WidescreenStoryboard: 0

[Editor]
Bookmarks: 87323
DistanceSpacing: 1
BeatDivisor: 4
GridSize: 4
TimelineZoom: 1.4

[Metadata]
Title:mint tears
TitleUnicode:mint tears
Artist:ribbon room
ArtistUnicode:ribbon room
Creator:TaMul
Version:Muzukashii
Source:太鼓の達人
Tags:alacat cotoribbon silver coin
BeatmapID:432940
BeatmapSetID:171223

[Difficulty]
HPDrainRate:4
CircleSize:4
OverallDifficulty:4
ApproachRate:4
SliderMultiplier:1.4
SliderTickRate:2

[Events]
//Background and Video events
0,0,"366552-1366x768.jpg",0,90
//Break Periods
//Storyboard Layer 0 (Background)
//Storyboard Layer 1 (Fail)
//Storyboard Layer 2 (Pass)
//Storyboard Layer 3 (Foreground)
//Storyboard Sound Samples
//Background Colour Transformations
3,100,163,162,255

[TimingPoints]
515,319.148936170213,4,2,1,100,1,0
26046,-100,4,2,1,100,0,1
46472,-100,4,2,2,100,0,0
97536,-100,4,2,1,100,0,1
97536,-100,4,2,1,100,0,0
107589,-100,4,2,1,100,0,0

[Colours]
Combo1 : 128,128,255
Combo2 : 0,128,128
Combo3 : 255,128,64
Combo4 : 255,255,0

[HitObjects]
256,192,4344,5,4,0:0:0:0:
256,192,4663,1,4,0:0:0:0:
256,192,4983,1,0,0:0:0:0:
256,192,5142,1,0,0:0:0:0:
256,192,5222,1,0,0:0:0:0:
256,192,5302,1,0,0:0:0:0:
256,192,5621,1,0,0:0:0:0:
256,192,5940,1,8,0:0:0:0:
256,192,6100,1,0,0:0:0:0:
256,192,6259,1,0,0:0:0:0:
256,192,6578,1,8,0:0:0:0:
256,192,6897,1,0,0:0:0:0:
256,192,7057,1,8,0:0:0:0:
256,192,7137,1,8,0:0:0:0:
256,192,7217,1,8,0:0:0:0:
256,192,7376,1,0,0:0:0:0:
256,192,7536,1,0,0:0:0:0:
256,192,7855,1,8,0:0:0:0:
256,192,8174,1,0,0:0:0:0:
256,192,8493,1,8,0:0:0:0:
256,192,8653,1,0,0:0:0:0:
256,192,8812,1,0,0:0:0:0:
256,192,9132,1,8,0:0:0:0:
256,192,9451,1,0,0:0:0:0:
256,192,9610,1,8,0:0:0:0:
256,192,9690,1,8,0:0:0:0:
256,192,9770,1,8,0:0:0:0:
256,192,9929,1,0,0:0:0:0:
256,192,10089,1,0,0:0:0:0:
256,192,10727,1,0,0:0:0:0:
256,192,11046,1,8,0:0:0:0:
256,192,11206,1,0,0:0:0:0:
256,192,11366,1,0,0:0:0:0:
256,192,11685,1,8,0:0:0:0:
256,192,12004,1,0,0:0:0:0:
256,192,12163,1,8,0:0:0:0:
256,192,12243,1,8,0:0:0:0:
256,192,12323,1,8,0:0:0:0:
256,192,12483,1,0,0:0:0:0:
256,192,12642,1,0,0:0:0:0:
256,192,12961,1,8,0:0:0:0:
256,192,13280,1,0,0:0:0:0:
256,192,13600,1,8,0:0:0:0:
256,192,13759,1,0,0:0:0:0:
256,192,13919,1,0,0:0:0:0:
256,192,14238,1,8,0:0:0:0:
256,192,14397,1,0,0:0:0:0:
256,192,14557,1,0,0:0:0:0:
256,192,14717,1,8,0:0:0:0:
256,192,14796,1,8,0:0:0:0:
256,192,14876,1,8,0:0:0:0:
256,192,15036,1,8,0:0:0:0:
256,192,15195,1,8,0:0:0:0:
256,192,15515,1,0,0:0:0:0:
256,192,15834,1,0,0:0:0:0:
256,192,16153,1,8,0:0:0:0:
256,192,16312,1,0,0:0:0:0:
256,192,16472,1,0,0:0:0:0:
256,192,16632,1,8,0:0:0:0:
256,192,16791,1,8,0:0:0:0:
256,192,17110,1,0,0:0:0:0:
256,192,17270,1,8,0:0:0:0:
256,192,17349,1,8,0:0:0:0:
256,192,17429,1,8,0:0:0:0:
256,192,17589,1,0,0:0:0:0:
256,192,17749,1,0,0:0:0:0:
256,192,18068,1,8,0:0:0:0:
256,192,18387,1,0,0:0:0:0:
256,192,18706,1,8,0:0:0:0:
256,192,18866,1,0,0:0:0:0:
256,192,19025,1,0,0:0:0:0:
256,192,19185,1,8,0:0:0:0:
256,192,19344,1,8,0:0:0:0:
256,192,19663,1,0,0:0:0:0:
256,192,19823,1,8,0:0:0:0:
256,192,19903,1,8,0:0:0:0:
256,192,19983,1,8,0:0:0:0:
256,192,20142,1,0,0:0:0:0:
256,192,20302,1,0,0:0:0:0:
256,192,20621,1,8,0:0:0:0:
256,192,20940,1,0,0:0:0:0:
256,192,21259,1,8,0:0:0:0:
256,192,21419,1,0,0:0:0:0:
256,192,21578,1,0,0:0:0:0:
256,192,21738,1,8,0:0:0:0:
256,192,21897,1,8,0:0:0:0:
256,192,22217,1,0,0:0:0:0:
256,192,22376,1,8,0:0:0:0:
256,192,22456,1,8,0:0:0:0:
256,192,22536,1,8,0:0:0:0:
256,192,22695,1,0,0:0:0:0:
256,192,22855,1,0,0:0:0:0:
256,192,23015,1,0,0:0:0:0:
256,192,23174,1,8,0:0:0:0:
168,228,23493,2,8,P|176:136|348:208,1,350
256,192,24610,1,0,0:0:0:0:
256,192,24690,1,0,0:0:0:0:
256,192,24770,1,0,0:0:0:0:
256,192,24929,1,8,0:0:0:0:
256,192,25089,1,8,0:0:0:0:
256,192,25249,1,8,0:0:0:0:
256,192,25408,1,8,0:0:0:0:
256,192,25568,1,8,0:0:0:0:
256,192,25647,1,8,0:0:0:0:
256,192,25727,1,8,0:0:0:0:
256,192,26046,1,0,0:0:0:0:
256,192,26126,1,0,0:0:0:0:
256,192,26206,1,0,0:0:0:0:
256,192,26366,1,8,0:0:0:0:
256,192,26525,1,0,0:0:0:0:
256,192,26605,1,0,0:0:0:0:
256,192,26685,1,0,0:0:0:0:
256,192,26844,1,8,0:0:0:0:
256,192,27004,1,0,0:0:0:0:
256,192,27084,1,0,0:0:0:0:
256,192,27164,1,0,0:0:0:0:
256,192,27483,1,8,0:0:0:0:
256,192,27961,1,8,0:0:0:0:
256,192,28041,1,8,0:0:0:0:
256,192,28120,1,8,0:0:0:0:
256,192,28280,1,8,0:0:0:0:
256,192,28360,1,8,0:0:0:0:
256,192,28439,1,8,0:0:0:0:
256,192,28599,1,0,0:0:0:0:
256,192,28679,1,0,0:0:0:0:
256,192,28759,1,0,0:0:0:0:
256,192,28918,1,8,0:0:0:0:
256,192,29078,1,0,0:0:0:0:
256,192,29158,1,0,0:0:0:0:
256,192,29237,1,0,0:0:0:0:
256,192,29397,5,8,0:0:0:0:
256,192,29556,1,0,0:0:0:0:
256,192,29636,1,0,0:0:0:0:
256,192,29716,1,0,0:0:0:0:
256,192,30195,1,8,0:0:0:0:
256,192,30515,1,8,0:0:0:0:
256,192,30595,1,8,0:0:0:0:
256,192,30675,1,8,0:0:0:0:
256,192,30834,1,8,0:0:0:0:
256,192,31153,1,0,0:0:0:0:
256,192,31233,1,0,0:0:0:0:
256,192,31313,1,0,0:0:0:0:
256,192,31472,1,8,0:0:0:0:
256,192,31632,1,0,0:0:0:0:
256,192,31712,1,0,0:0:0:0:
256,192,31791,1,0,0:0:0:0:
256,192,31951,5,8,0:0:0:0:
256,192,32110,1,0,0:0:0:0:
256,192,32270,1,8,0:0:0:0:
256,192,32429,1,0,0:0:0:0:
256,192,32509,1,0,0:0:0:0:
256,192,32589,1,0,0:0:0:0:
256,192,32749,1,8,0:0:0:0:
256,192,32908,1,0,0:0:0:0:
256,192,32988,1,0,0:0:0:0:
256,192,33068,1,0,0:0:0:0:
256,192,33227,1,8,0:0:0:0:
256,192,33387,1,0,0:0:0:0:
256,192,33706,1,0,0:0:0:0:
256,192,33786,1,0,0:0:0:0:
256,192,33866,1,0,0:0:0:0:
256,192,34025,1,8,0:0:0:0:
256,192,34185,1,0,0:0:0:0:
256,192,34265,1,0,0:0:0:0:
256,192,34344,1,0,0:0:0:0:
256,192,34504,5,8,0:0:0:0:
256,192,34663,1,0,0:0:0:0:
256,192,34743,1,0,0:0:0:0:
256,192,34823,1,0,0:0:0:0:
256,192,35142,1,8,0:0:0:0:
256,192,35302,1,8,0:0:0:0:
256,192,35461,1,8,0:0:0:0:
256,192,35621,1,8,0:0:0:0:
256,192,35780,1,8,0:0:0:0:
256,192,35860,1,8,0:0:0:0:
256,192,35940,1,8,0:0:0:0:
256,192,36259,1,0,0:0:0:0:
256,192,36419,1,8,0:0:0:0:
256,192,36499,1,8,0:0:0:0:
256,192,36578,1,8,0:0:0:0:
256,192,36738,1,0,0:0:0:0:
256,192,36897,1,8,0:0:0:0:
256,192,36977,1,8,0:0:0:0:
256,192,37057,1,8,0:0:0:0:
256,192,37217,1,0,0:0:0:0:
256,192,37376,1,8,0:0:0:0:
256,192,37695,1,8,0:0:0:0:
256,192,38174,1,8,0:0:0:0:
256,192,38333,1,8,0:0:0:0:
256,192,38413,1,8,0:0:0:0:
256,192,38493,1,8,0:0:0:0:
256,192,38812,1,0,0:0:0:0:
256,192,38972,1,8,0:0:0:0:
256,192,39052,1,8,0:0:0:0:
256,192,39132,1,8,0:0:0:0:
256,192,39291,1,8,0:0:0:0:
256,192,39371,1,8,0:0:0:0:
256,192,39451,1,8,0:0:0:0:
256,192,39610,1,8,0:0:0:0:
256,192,39690,1,8,0:0:0:0:
256,192,39770,1,8,0:0:0:0:
256,192,39929,1,8,0:0:0:0:
256,192,40249,1,8,0:0:0:0:
256,192,40408,1,8,0:0:0:0:
256,192,40727,1,8,0:0:0:0:
256,192,40887,1,8,0:0:0:0:
256,192,40967,1,8,0:0:0:0:
256,192,41046,1,8,0:0:0:0:
256,192,41366,1,0,0:0:0:0:
256,192,41445,1,0,0:0:0:0:
256,192,41525,1,0,0:0:0:0:
256,192,41685,1,8,0:0:0:0:
256,192,41844,1,0,0:0:0:0:
256,192,41924,1,0,0:0:0:0:
256,192,42004,1,0,0:0:0:0:
256,192,42163,1,8,0:0:0:0:
256,192,42323,1,0,0:0:0:0:
256,192,42483,1,8,0:0:0:0:
256,192,42642,1,0,0:0:0:0:
256,192,42722,1,0,0:0:0:0:
256,192,42802,1,0,0:0:0:0:
256,192,42961,1,8,0:0:0:0:
256,192,43121,1,0,0:0:0:0:
256,192,43201,1,0,0:0:0:0:
256,192,43280,1,0,0:0:0:0:
256,192,43440,1,8,0:0:0:0:
256,192,43600,1,0,0:0:0:0:
256,192,43919,1,0,0:0:0:0:
256,192,44078,1,8,0:0:0:0:
256,192,44238,1,0,0:0:0:0:
256,192,44397,1,8,0:0:0:0:
256,192,44557,1,0,0:0:0:0:
256,192,44716,1,8,0:0:0:0:
256,192,44876,1,0,0:0:0:0:
256,192,45035,1,0,0:0:0:0:
256,192,45355,1,8,0:0:0:0:
256,192,45515,1,8,0:0:0:0:
256,192,45674,1,8,0:0:0:0:
256,192,45834,1,8,0:0:0:0:
256,192,45993,1,8,0:0:0:0:
256,192,46073,1,8,0:0:0:0:
256,192,46153,1,8,0:0:0:0:
256,192,46472,1,0,0:0:0:0:
256,192,46791,1,0,0:0:0:0:
256,192,47110,1,0,0:0:0:0:
256,192,47270,1,0,0:0:0:0:
256,192,47429,1,8,0:0:0:0:
256,192,47589,1,0,0:0:0:0:
256,192,47908,1,0,0:0:0:0:
256,192,48068,1,8,0:0:0:0:
256,192,48227,1,0,0:0:0:0:
256,192,48387,1,0,0:0:0:0:
256,192,48706,1,8,0:0:0:0:
256,192,49025,1,0,0:0:0:0:
256,192,49344,1,0,0:0:0:0:
256,192,49504,1,8,0:0:0:0:
256,192,49663,1,0,0:0:0:0:
256,192,49823,1,0,0:0:0:0:
256,192,49983,1,8,0:0:0:0:
256,192,50142,1,0,0:0:0:0:
256,192,50461,1,0,0:0:0:0:
256,192,50621,1,8,0:0:0:0:
256,192,50780,1,0,0:0:0:0:
256,192,50940,1,8,0:0:0:0:
256,192,51259,1,8,0:0:0:0:
256,192,51578,1,0,0:0:0:0:
256,192,51897,1,0,0:0:0:0:
256,192,52217,1,8,0:0:0:0:
256,192,52376,1,0,0:0:0:0:
256,192,52536,1,8,0:0:0:0:
256,192,52695,1,0,0:0:0:0:
256,192,53015,1,8,0:0:0:0:
256,192,53174,1,8,0:0:0:0:
256,192,53334,1,0,0:0:0:0:
256,192,53493,1,8,0:0:0:0:
256,192,53812,1,0,0:0:0:0:
256,192,54132,1,0,0:0:0:0:
256,192,54291,1,8,0:0:0:0:
256,192,54451,1,8,0:0:0:0:
256,192,54610,1,0,0:0:0:0:
256,192,54770,1,0,0:0:0:0:
256,192,54929,1,8,0:0:0:0:
256,192,55089,1,8,0:0:0:0:
256,192,55249,1,0,0:0:0:0:
256,192,55408,1,0,0:0:0:0:
256,192,55727,1,4,0:0:0:0:
256,192,56046,1,12,0:0:0:0:
256,192,56206,1,12,0:0:0:0:
256,192,56525,1,8,0:0:0:0:
256,192,56685,1,0,0:0:0:0:
256,192,57004,1,8,0:0:0:0:
256,192,57163,1,0,0:0:0:0:
256,192,57323,1,0,0:0:0:0:
256,192,57483,1,8,0:0:0:0:
256,192,57562,1,8,0:0:0:0:
256,192,57642,1,8,0:0:0:0:
256,192,57802,1,8,0:0:0:0:
256,192,57961,1,0,0:0:0:0:
256,192,58121,1,8,0:0:0:0:
256,192,58201,1,8,0:0:0:0:
256,192,58280,1,8,0:0:0:0:
256,192,58440,1,0,0:0:0:0:
256,192,58600,1,0,0:0:0:0:
256,192,58919,1,8,0:0:0:0:
256,192,59238,1,0,0:0:0:0:
256,192,59557,1,8,0:0:0:0:
256,192,59717,1,0,0:0:0:0:
256,192,59876,1,0,0:0:0:0:
256,192,60036,1,8,0:0:0:0:
256,192,60116,1,8,0:0:0:0:
256,192,60195,1,8,0:0:0:0:
256,192,60355,1,8,0:0:0:0:
256,192,60515,1,0,0:0:0:0:
256,192,60674,1,8,0:0:0:0:
256,192,60754,1,8,0:0:0:0:
256,192,60834,1,8,0:0:0:0:
256,192,60993,1,8,0:0:0:0:
256,192,61153,1,0,0:0:0:0:
256,192,61312,1,8,0:0:0:0:
256,192,61392,1,8,0:0:0:0:
256,192,61472,1,8,0:0:0:0:
256,192,61632,1,8,0:0:0:0:
256,192,61791,1,0,0:0:0:0:
256,192,62110,1,8,0:0:0:0:
256,192,62270,1,0,0:0:0:0:
256,192,62429,1,0,0:0:0:0:
256,192,62589,1,8,0:0:0:0:
256,192,62669,1,8,0:0:0:0:
256,192,62749,1,8,0:0:0:0:
256,192,62908,1,8,0:0:0:0:
256,192,63068,1,0,0:0:0:0:
256,192,63227,1,8,0:0:0:0:
256,192,63307,1,8,0:0:0:0:
256,192,63387,1,8,0:0:0:0:
256,192,63546,1,0,0:0:0:0:
256,192,63706,1,0,0:0:0:0:
256,192,63786,1,0,0:0:0:0:
256,192,63866,1,0,0:0:0:0:
256,192,64025,1,0,0:0:0:0:
216,296,64344,2,0,P|184:132|336:160,1,350
256,192,65461,1,0,0:0:0:0:
256,192,65541,1,0,0:0:0:0:
256,192,65621,1,0,0:0:0:0:
256,192,65940,1,8,0:0:0:0:
256,192,66419,1,8,0:0:0:0:
256,192,66578,1,8,0:0:0:0:
256,192,66897,1,0,0:0:0:0:
256,192,67217,1,8,0:0:0:0:
256,192,67376,1,0,0:0:0:0:
256,192,67456,1,0,0:0:0:0:
256,192,67536,1,0,0:0:0:0:
256,192,67695,1,8,0:0:0:0:
256,192,67855,1,8,0:0:0:0:
256,192,68015,1,0,0:0:0:0:
256,192,68094,1,0,0:0:0:0:
256,192,68174,1,0,0:0:0:0:
256,192,68334,1,0,0:0:0:0:
256,192,68413,1,0,0:0:0:0:
256,192,68493,1,0,0:0:0:0:
256,192,68653,1,0,0:0:0:0:
256,192,68732,1,0,0:0:0:0:
256,192,68812,1,0,0:0:0:0:
256,192,68972,1,8,0:0:0:0:
256,192,69132,1,8,0:0:0:0:
256,192,69451,1,0,0:0:0:0:
256,192,69770,1,8,0:0:0:0:
256,192,69929,1,0,0:0:0:0:
256,192,70009,1,0,0:0:0:0:
256,192,70089,1,0,0:0:0:0:
256,192,70249,1,0,0:0:0:0:
256,192,70568,1,0,0:0:0:0:
256,192,70647,1,0,0:0:0:0:
256,192,70727,1,0,0:0:0:0:
256,192,70887,1,8,0:0:0:0:
256,192,71046,1,8,0:0:0:0:
256,192,71206,1,0,0:0:0:0:
256,192,71286,1,0,0:0:0:0:
256,192,71366,1,0,0:0:0:0:
256,192,71525,1,8,0:0:0:0:
256,192,71685,1,8,0:0:0:0:
256,192,72004,1,0,0:0:0:0:
256,192,72323,1,8,0:0:0:0:
256,192,72483,1,0,0:0:0:0:
256,192,72562,1,0,0:0:0:0:
256,192,72642,1,0,0:0:0:0:
256,192,72802,1,8,0:0:0:0:
256,192,72961,1,8,0:0:0:0:
256,192,73121,1,0,0:0:0:0:
256,192,73201,1,0,0:0:0:0:
256,192,73280,1,0,0:0:0:0:
256,192,73440,1,8,0:0:0:0:
256,192,73520,1,8,0:0:0:0:
256,192,73600,1,8,0:0:0:0:
256,192,73759,1,0,0:0:0:0:
256,192,73839,1,0,0:0:0:0:
256,192,73919,1,0,0:0:0:0:
256,192,74078,1,8,0:0:0:0:
256,192,74238,1,8,0:0:0:0:
256,192,74557,1,0,0:0:0:0:
256,192,74876,1,8,0:0:0:0:
256,192,75036,1,0,0:0:0:0:
256,192,75116,1,0,0:0:0:0:
256,192,75195,1,0,0:0:0:0:
256,192,75355,1,0,0:0:0:0:
256,192,75674,1,0,0:0:0:0:
256,192,75754,1,0,0:0:0:0:
256,192,75834,1,0,0:0:0:0:
256,192,75993,1,0,0:0:0:0:
256,192,76073,1,0,0:0:0:0:
256,192,76153,1,0,0:0:0:0:
256,192,76312,1,0,0:0:0:0:
256,192,76392,1,0,0:0:0:0:
256,192,76472,1,0,0:0:0:0:
256,192,76632,1,8,0:0:0:0:
256,192,76791,1,8,0:0:0:0:
256,192,77110,1,0,0:0:0:0:
256,192,77429,1,8,0:0:0:0:
256,192,77589,1,0,0:0:0:0:
256,192,77669,1,0,0:0:0:0:
256,192,77749,1,0,0:0:0:0:
256,192,77908,1,8,0:0:0:0:
256,192,78227,1,0,0:0:0:0:
256,192,78307,1,0,0:0:0:0:
256,192,78387,1,0,0:0:0:0:
256,192,78546,1,8,0:0:0:0:
256,192,78626,1,8,0:0:0:0:
256,192,78706,1,8,0:0:0:0:
256,192,78866,12,8,79344,0:0:0:0:
256,192,79663,5,0,0:0:0:0:
256,192,79983,1,8,0:0:0:0:
256,192,80142,1,0,0:0:0:0:
256,192,80222,1,0,0:0:0:0:
256,192,80302,1,0,0:0:0:0:
256,192,80461,1,0,0:0:0:0:
256,192,80621,1,8,0:0:0:0:
256,192,80780,1,0,0:0:0:0:
256,192,80860,1,0,0:0:0:0:
256,192,80940,1,0,0:0:0:0:
256,192,81100,1,0,0:0:0:0:
256,192,81179,1,0,0:0:0:0:
256,192,81259,1,0,0:0:0:0:
256,192,81419,12,8,81897,0:0:0:0:
256,192,82217,5,0,0:0:0:0:
256,192,82536,1,8,0:0:0:0:
256,192,82695,1,0,0:0:0:0:
256,192,82775,1,0,0:0:0:0:
256,192,82855,1,0,0:0:0:0:
256,192,83015,1,8,0:0:0:0:
256,192,83334,1,8,0:0:0:0:
256,192,83413,1,8,0:0:0:0:
256,192,83493,1,8,0:0:0:0:
256,192,83653,1,0,0:0:0:0:
256,192,83733,1,0,0:0:0:0:
256,192,83812,1,0,0:0:0:0:
256,192,83972,12,8,84450,0:0:0:0:
256,192,84770,5,0,0:0:0:0:
256,192,85089,1,8,0:0:0:0:
256,192,85249,1,0,0:0:0:0:
256,192,85328,1,0,0:0:0:0:
256,192,85408,1,0,0:0:0:0:
256,192,85568,1,8,0:0:0:0:
256,192,85727,1,8,0:0:0:0:
256,192,85887,1,0,0:0:0:0:
256,192,85967,1,0,0:0:0:0:
256,192,86046,1,0,0:0:0:0:
256,192,86206,1,0,0:0:0:0:
256,192,86286,1,0,0:0:0:0:
256,192,86366,1,0,0:0:0:0:
256,192,86525,12,8,87003,0:0:0:0:
256,192,87323,5,0,0:0:0:0:
256,192,87642,1,0,0:0:0:0:
256,192,87961,1,8,0:0:0:0:
256,192,88600,5,0,0:0:0:0:
256,192,88919,1,0,0:0:0:0:
256,192,89238,1,8,0:0:0:0:
256,192,89876,5,0,0:0:0:0:
256,192,90195,1,0,0:0:0:0:
256,192,90514,1,8,0:0:0:0:
256,192,90833,1,0,0:0:0:0:
256,192,91152,1,0,0:0:0:0:
256,192,92429,1,0,0:0:0:0:
256,192,92749,1,8,0:0:0:0:
256,192,93068,1,8,0:0:0:0:
256,192,93706,1,8,0:0:0:0:
256,192,94025,1,8,0:0:0:0:
256,192,94344,1,0,0:0:0:0:
256,192,94983,1,8,0:0:0:0:
256,192,95302,1,8,0:0:0:0:
256,192,95621,1,0,0:0:0:0:
256,192,95940,1,0,0:0:0:0:
256,192,96259,1,0,0:0:0:0:
256,192,97536,1,0,0:0:0:0:
256,192,97616,1,0,0:0:0:0:
256,192,97695,1,0,0:0:0:0:
256,192,97855,1,8,0:0:0:0:
256,192,98015,1,0,0:0:0:0:
256,192,98094,1,0,0:0:0:0:
256,192,98174,1,0,0:0:0:0:
256,192,98334,1,0,0:0:0:0:
256,192,98493,1,8,0:0:0:0:
256,192,98573,1,8,0:0:0:0:
256,192,98653,1,8,0:0:0:0:
256,192,98812,1,0,0:0:0:0:
256,192,98892,1,0,0:0:0:0:
256,192,98972,1,0,0:0:0:0:
256,192,99132,1,8,0:0:0:0:
256,192,99291,1,0,0:0:0:0:
256,192,99371,1,0,0:0:0:0:
256,192,99451,1,0,0:0:0:0:
256,192,99610,1,0,0:0:0:0:
256,192,99770,1,8,0:0:0:0:
256,192,100089,1,0,0:0:0:0:
256,192,100169,1,0,0:0:0:0:
256,192,100249,1,0,0:0:0:0:
256,192,100408,1,8,0:0:0:0:
256,192,100568,1,0,0:0:0:0:
256,192,100647,1,0,0:0:0:0:
256,192,100727,1,0,0:0:0:0:
256,192,100887,1,0,0:0:0:0:
256,192,101046,1,8,0:0:0:0:
256,192,101126,1,8,0:0:0:0:
256,192,101206,1,8,0:0:0:0:
256,192,101366,1,0,0:0:0:0:
256,192,101445,1,0,0:0:0:0:
256,192,101525,1,0,0:0:0:0:
256,192,101685,1,0,0:0:0:0:
256,192,101764,1,0,0:0:0:0:
256,192,101844,1,0,0:0:0:0:
256,192,102004,1,0,0:0:0:0:
256,192,102083,1,0,0:0:0:0:
256,192,102163,1,0,0:0:0:0:
256,192,102323,1,8,0:0:0:0:
256,192,102402,1,8,0:0:0:0:
256,192,102482,1,8,0:0:0:0:
256,192,102642,1,0,0:0:0:0:
256,192,102721,1,0,0:0:0:0:
256,192,102801,1,0,0:0:0:0:
256,192,102961,1,8,0:0:0:0:
256,192,103121,1,0,0:0:0:0:
256,192,103200,1,0,0:0:0:0:
256,192,103280,1,0,0:0:0:0:
256,192,103440,1,0,0:0:0:0:
256,192,103600,1,8,0:0:0:0:
256,192,103679,1,8,0:0:0:0:
256,192,103759,1,8,0:0:0:0:
256,192,103919,1,0,0:0:0:0:
256,192,103998,1,0,0:0:0:0:
256,192,104078,1,0,0:0:0:0:
256,192,104238,1,8,0:0:0:0:
256,192,104397,1,0,0:0:0:0:
256,192,104476,1,0,0:0:0:0:
256,192,104556,1,0,0:0:0:0:
256,192,104717,1,0,0:0:0:0:
256,192,104876,1,8,0:0:0:0:
256,192,105036,1,8,0:0:0:0:
256,192,105195,1,0,0:0:0:0:
256,192,105274,1,0,0:0:0:0:
256,192,105354,1,0,0:0:0:0:
256,192,105515,1,0,0:0:0:0:
256,192,105594,1,0,0:0:0:0:
256,192,105674,1,0,0:0:0:0:
255,193,105834,1,0,0:0:0:0:
255,193,105913,1,0,0:0:0:0:
255,193,105993,1,0,0:0:0:0:
255,193,106154,1,0,0:0:0:0:
255,193,106233,1,0,0:0:0:0:
255,193,106313,1,0,0:0:0:0:
256,192,106472,1,4,0:0:0:0:
256,192,106791,1,4,0:0:0:0:
256,192,107110,1,8,0:0:0:0:
256,192,107190,1,8,0:0:0:0:
256,192,107270,1,8,0:0:0:0:
255,193,107429,1,8,0:0:0:0:
255,193,107509,1,8,0:0:0:0:
255,193,107589,1,8,0:0:0:0:
255,193,107669,1,8,0:0:0:0:
