osu file format v12

[General]
AudioFilename: cotoribbon - mint tears.mp3
AudioLeadIn: 0
PreviewTime: 26046
Countdown: 0
SampleSet: Soft
StackLeniency: 0.7
Mode: 0
LetterboxInBreaks: 1
WidescreenStoryboard: 0

[Editor]
Bookmarks: 87323
DistanceSpacing: 1
BeatDivisor: 4
GridSize: 4
TimelineZoom: 1.4

[Metadata]
Title:mint tears
TitleUnicode:mint tears
Artist:ribbon room
ArtistUnicode:ribbon room
Creator:TaMul
Version:Insane
Source:太鼓の達人
Tags:alacat
BeatmapID:414233
BeatmapSetID:171223

[Difficulty]
HPDrainRate:7
CircleSize:4
OverallDifficulty:8
ApproachRate:9
SliderMultiplier:1.8
SliderTickRate:2

[Events]
//Background and Video events
0,0,"366552-1366x768.jpg",0,0
//Break Periods
2,87523,96617
//Storyboard Layer 0 (Background)
//Storyboard Layer 1 (Fail)
//Storyboard Layer 2 (Pass)
//Storyboard Layer 3 (Foreground)
//Storyboard Sound Samples
//Background Colour Transformations
3,100,163,162,255

[TimingPoints]
515,319.148936170213,4,2,1,50,1,0
26046,-100,4,2,1,50,0,1
46472,-100,4,2,2,40,0,0
47429,-100,4,2,3,40,0,0
47589,-100,4,2,2,40,0,0
50621,-100,4,2,3,40,0,0
50780,-100,4,2,2,40,0,0
55089,-100,4,2,3,40,0,0
55249,-100,4,2,2,40,0,0
56685,-100,4,2,1,50,0,0
58280,-100,4,2,4,50,0,0
58440,-100,4,2,1,50,0,0
61153,-100,4,2,5,50,0,0
61312,-100,4,2,1,50,0,0
65940,-166.666666666667,4,1,0,50,0,0
66897,-100,4,2,1,50,0,0
71366,-100,4,2,5,50,0,0
71525,-100,4,2,1,50,0,0
80940,-100,4,2,5,50,0,0
81259,-100,4,2,4,50,0,0
81419,-100,4,2,1,50,0,0
97217,-66.6666666666667,4,2,1,50,0,0
97536,-100,4,2,1,50,0,1
107589,-100,4,3,1,20,0,0

[Colours]
Combo1 : 128,128,255
Combo2 : 0,128,128
Combo3 : 255,128,64
Combo4 : 255,255,0

[HitObjects]
148,87,4344,5,8,0:0:0:0:
148,269,4504,1,2,0:0:0:0:
254,120,4664,1,8,0:0:0:0:
80,177,4823,1,2,0:0:0:0:
254,234,4983,2,8,P|304:232|340:252,1,90,8|2,0:0|0:0,0:0:0:0:
364,288,5222,2,0,L|368:244,1,45,2|8,0:0|0:0,0:0:0:0:
414,69,5621,6,0,P|342:120|254:120,1,180,2|8,0:0|0:0,0:0:0:0:
204,44,6100,1,0,0:0:0:0:
172,76,6179,1,0,0:0:0:0:
168,120,6259,2,0,P|120:104|76:116,1,90,2|2,0:0|0:0,0:0:0:0:
32,188,6578,1,8,0:0:0:0:
71,268,6738,6,0,P|107:241|117:198,1,90,2|0,0:0|0:0,0:0:0:0:
20,340,7057,2,0,P|61:355|105:348,1,90,2|8,0:0|0:0,0:0:0:0:
180,296,7376,1,0,0:0:0:0:
196,336,7456,1,0,0:0:0:0:
192,380,7536,1,2,0:0:0:0:
71,268,7695,1,2,0:0:0:0:
256,224,7855,2,0,B|296:244|296:244|344:240,1,90,8|0,0:0|0:0,0:0:0:0:
424,208,8174,6,0,B|440:240|420:280|420:280|416:340|464:368,2,180,2|8|2,0:0|0:0|0:0,0:0:0:0:
356,152,8972,2,0,P|344:108|360:68,1,90,2|8,0:0|0:0,0:0:0:0:
436,116,9291,1,2,0:0:0:0:
436,116,9371,1,0,0:0:0:0:
436,116,9451,6,0,P|484:128|508:164,1,90,0|2,0:0|0:0,0:0:0:0:
341,240,9770,1,8,0:0:0:0:
359,68,9929,2,0,P|392:36|436:28,1,90,2|0,0:0|0:0,0:0:0:0:
256,28,10249,2,0,P|280:72|272:120,1,90,2|8,0:0|0:0,0:0:0:0:
204,164,10568,1,0,0:0:0:0:
160,148,10647,1,0,0:0:0:0:
116,164,10727,6,0,L|132:72,1,90,2|0,0:0|0:0,0:0:0:0:
160,232,11046,2,0,L|144:320,1,90,8|0,0:0|0:0,0:0:0:0:
144,320,11525,1,2,0:0:0:0:
228,288,11685,1,8,0:0:0:0:
304,332,11844,1,0,0:0:0:0:
304,332,11924,1,0,0:0:0:0:
304,332,12004,6,0,P|320:288|308:244,1,90,2|2,0:0|0:0,0:0:0:0:
228,376,12323,1,8,0:0:0:0:
380,372,12483,1,2,0:0:0:0:
228,288,12642,1,0,0:0:0:0:
400,288,12802,1,2,0:0:0:0:
440,304,12882,1,0,0:0:0:0:
464,344,12961,2,0,P|468:294|492:260,1,90,8|0,0:0|0:0,0:0:0:0:
432,192,13280,5,2,0:0:0:0:
380,372,13440,1,2,0:0:0:0:
228,288,13600,1,8,0:0:0:0:
272,112,13759,1,2,0:0:0:0:
400,288,13919,2,0,P|356:268|336:228,1,90,2|2,0:0|0:0,0:0:0:0:
272,112,14238,2,0,P|264:164|232:192,1,90,8|0,0:0|0:0,0:0:0:0:
192,196,14477,1,0,0:0:0:0:
152,180,14557,6,0,P|104:168|64:184,1,90,8|0,0:0|0:0,0:0:0:0:
112,260,14876,1,8,0:0:0:0:
128,80,15036,2,0,L|136:36,1,45
211,15,15195,2,0,L|196:104,1,90,2|2,0:0|0:0,0:0:0:0:
56,88,15515,2,0,L|71:0,1,90,8|2,0:0|0:0,0:0:0:0:
256,8,15834,6,0,L|220:192,1,180,6|8,0:0|0:0,0:0:0:0:
132,168,16312,1,2,0:0:0:0:
132,168,16392,1,0,0:0:0:0:
132,168,16472,1,0,0:0:0:0:
316,132,16632,2,0,P|364:156|404:148,1,90,2|8,0:0|0:0,0:0:0:0:
464,88,16951,1,2,0:0:0:0:
432,4,17110,6,0,P|384:32|376:72,1,90,2|0,0:0|0:0,0:0:0:0:
424,228,17429,2,0,P|472:200|480:160,1,90,8|2,0:0|0:0,0:0:0:0:
324,232,17749,1,2,0:0:0:0:
424,324,17908,1,2,0:0:0:0:
424,324,17988,1,0,0:0:0:0:
424,324,18068,6,0,P|372:320|336:344,1,90,8|2,0:0|0:0,0:0:0:0:
256,368,18387,2,0,B|244:324|268:288|268:288|228:252|252:196,2,180,2|8|0,0:0|0:0|0:0,0:0:0:0:
324,232,19185,2,0,L|372:224,2,45,2|0|8,0:0|0:0|0:0,0:0:0:0:
180,300,19504,1,2,0:0:0:0:
180,300,19823,5,2,0:0:0:0:
140,280,19903,1,0,0:0:0:0:
96,284,19983,2,0,P|120:232|116:200,1,90,8|0,0:0|0:0,0:0:0:0:
32,228,20302,1,2,0:0:0:0:
120,364,20461,1,2,0:0:0:0:
216,232,20621,2,0,P|252:264|256:312,1,90,8|0,0:0|0:0,0:0:0:0:
116,200,20940,6,0,B|148:204|148:204|168:152|240:144|272:184,1,180,2|8,0:0|0:0,0:0:0:0:
356,144,21419,1,0,0:0:0:0:
356,144,21499,1,0,0:0:0:0:
356,144,21578,2,0,P|340:92|352:52,2,90,2|2|8,0:0|0:0|0:0,0:0:0:0:
408,216,22057,2,0,B|416:256|392:288|392:288|408:296|408:296|380:332|400:380,1,180,2|2,0:0|0:0,0:0:0:0:
484,348,22536,1,8,0:0:0:0:
316,224,22695,1,2,0:0:0:0:
144,344,22855,2,0,B|100:336|100:336|56:348,1,90,2|0,0:0|0:0,0:0:0:0:
136,248,23174,2,0,B|180:256|180:256|224:244,1,90,8|2,0:0|0:0,0:0:0:0:
91,97,23493,6,0,B|64:136|88:180|88:180|48:208|52:260,1,180,2|8,0:0|0:0,0:0:0:0:
156,140,23972,1,2,0:0:0:0:
49,30,24132,2,0,P|17:60|12:104,1,90,2|0,0:0|0:0,0:0:0:0:
227,120,24451,2,0,P|205:82|164:64,1,90,8|2,0:0|0:0,0:0:0:0:
212,188,24770,1,2,0:0:0:0:
304,67,24929,5,0,0:0:0:0:
308,89,25008,1,0,3:0:0:0:
312,111,25088,1,0,3:0:0:0:
392,80,25249,1,0,0:0:0:0:
390,102,25328,1,0,3:0:0:0:
388,124,25408,1,0,3:0:0:0:
472,116,25568,1,0,3:0:0:0:
465,137,25647,1,0,0:0:0:0:
459,159,25727,1,0,0:0:0:0:
452,180,25807,1,0,0:0:0:0:
446,202,25887,1,0,3:0:0:0:
440,223,25966,1,0,0:0:0:0:
433,245,26046,6,0,P|388:216|352:220,1,90,6|0,0:0|0:0,0:0:0:0:
372,308,26366,1,8,0:0:0:0:
270,198,26525,2,0,P|264:242|288:280,1,90,0|2,0:0|0:0,0:0:0:0:
372,308,26844,1,2,0:0:0:0:
336,136,27004,1,8,0:0:0:0:
336,136,27163,2,0,P|292:108|248:112,1,90,2|0,0:0|0:0,0:0:0:0:
176,240,27483,1,2,0:0:0:0:
176,240,27562,1,0,0:0:0:0:
176,240,27642,2,0,P|188:188|176:152,1,90,8|0,0:0|0:0,0:0:0:0:
52,36,27961,5,2,0:0:0:0:
0,200,28121,1,2,0:0:0:0:
177,154,28280,2,0,P|224:164|252:200,1,90,8|0,0:0|0:0,0:0:0:0:
96,200,28600,5,2,0:0:0:0:
136,76,28759,1,0,0:0:0:0:
0,108,28919,1,8,0:0:0:0:
177,154,29078,1,0,0:0:0:0:
312,28,29238,2,0,P|300:76|316:120,1,90,2|2,0:0|0:0,0:0:0:0:
388,160,29557,1,8,0:0:0:0:
462,113,29717,6,0,P|387:71|311:113,1,180,2|2,0:0|0:0,0:0:0:0:
304,204,30195,1,8,0:0:0:0:
325,302,30355,2,0,P|391:246|388:160,1,180,2|2,0:0|0:0,0:0:0:0:
240,272,30834,2,0,P|232:320|252:364,1,90,8|0,0:0|0:0,0:0:0:0:
304,204,31153,6,0,B|276:164|224:176|224:176|192:224|128:212,1,180,2|8,0:0|0:0,0:0:0:0:
68,172,31632,1,2,0:0:0:0:
131,42,31791,2,0,P|154:80|148:124,1,90,2|0,0:0|0:0,0:0:0:0:
68,172,32110,1,8,0:0:0:0:
68,172,32270,6,0,B|40:216|64:260|64:260|116:268|124:320,1,180,2|2,0:0|0:0,0:0:0:0:
40,348,32749,1,8,0:0:0:0:
192,252,32908,1,0,0:0:0:0:
192,252,32988,1,0,0:0:0:0:
192,252,33068,2,0,P|240:268|280:260,1,90,2|2,0:0|0:0,0:0:0:0:
428,192,33387,1,8,0:0:0:0:
372,264,33546,1,2,0:0:0:0:
372,264,33626,1,0,0:0:0:0:
372,264,33706,6,0,P|340:224|336:184,1,90,2|0,0:0|0:0,0:0:0:0:
464,272,34025,2,0,P|448:320|416:344,1,90,8|2,0:0|0:0,0:0:0:0:
428,192,34344,1,0,0:0:0:0:
328,344,34504,1,2,0:0:0:0:
328,344,34584,1,0,0:0:0:0:
328,344,34663,2,0,P|280:328|236:336,1,90,8|0,0:0|0:0,0:0:0:0:
152,352,34983,5,2,0:0:0:0:
168,208,35142,1,0,0:0:0:0:
241,333,35302,1,8,0:0:0:0:
108,276,35461,1,0,0:0:0:0:
244,252,35621,2,0,P|256:212|244:164,1,90,2|8,0:0|0:0,0:0:0:0:
172,116,35940,1,8,0:0:0:0:
256,84,36100,1,0,0:0:0:0:
296,100,36179,1,0,0:0:0:0:
324,136,36259,6,0,P|326:92|356:60,1,90,6|0,0:0|0:0,0:0:0:0:
444,48,36578,1,8,0:0:0:0:
492,124,36738,2,0,P|448:140|401:125,1,90,2|0,0:0|0:0,0:0:0:0:
356,59,37057,1,2,0:0:0:0:
376,212,37217,1,8,0:0:0:0:
236,139,37376,6,0,P|280:127|323:135,1,90,0|2,0:0|0:0,0:0:0:0:
196,220,37695,1,0,0:0:0:0:
184,68,37855,1,8,0:0:0:0:
196,220,38015,1,0,0:0:0:0:
196,220,38094,1,0,0:0:0:0:
196,220,38174,2,0,P|156:192|144:152,1,90,2|2,0:0|0:0,0:0:0:0:
236,140,38493,2,0,P|273:164|287:205,1,90,8|0,0:0|0:0,0:0:0:0:
280,252,38733,1,0,0:0:0:0:
256,288,38812,6,0,P|212:312|172:304,2,90,2|0|8,0:0|0:0|0:0,0:0:0:0:
404,240,39291,1,2,0:0:0:0:
360,384,39451,1,2,0:0:0:0:
312,224,39610,1,0,0:0:0:0:
476,180,39770,1,8,0:0:0:0:
512,344,39929,6,0,P|472:324|428:328,1,90,2|0,0:0|0:0,0:0:0:0:
360,384,40249,2,0,P|340:340|352:292,1,90,2|8,0:0|0:0,0:0:0:0:
295,132,40568,2,0,P|377:157|404:240,1,180,2|2,0:0|0:0,0:0:0:0:
312,224,41046,1,8,0:0:0:0:
376,60,41206,1,2,0:0:0:0:
376,60,41286,1,0,0:0:0:0:
376,60,41366,6,0,P|296:48|240:56,1,135,2|0,0:0|0:0,0:0:0:0:
212,88,41685,2,0,L|228:0,1,90,8|0,0:0|0:0,0:0:0:0:
295,132,42004,1,2,0:0:0:0:
216,176,42163,1,2,0:0:0:0:
132,140,42323,1,8,0:0:0:0:
128,48,42483,5,2,0:0:0:0:
216,176,42642,2,0,P|232:224|224:264,1,90,0|2,0:0|0:0,0:0:0:0:
19,274,42961,1,8,0:0:0:0:
19,274,43121,2,0,B|16:224|60:200|60:200|92:240|140:228,1,180,2|2,0:0|0:0,0:0:0:0:
309,270,43600,2,0,P|268:253|224:261,1,90,8|0,0:0|0:0,0:0:0:0:
196,296,43839,1,0,0:0:0:0:
196,340,43919,5,2,0:0:0:0:
216,176,44078,1,0,0:0:0:0:
340,288,44238,2,0,P|384:324|416:324,1,90,8|0,0:0|0:0,0:0:0:0:
431,155,44557,2,0,P|406:191|408:236,1,90,2|2,0:0|0:0,0:0:0:0:
500,108,44876,2,0,P|456:72|424:72,1,90,8|0,0:0|0:0,0:0:0:0:
352,124,45195,5,2,0:0:0:0:
280,72,45355,2,0,L|316:44,2,45,0|0|0,0:0|0:0|3:0,0:0:0:0:
192,60,45674,2,0,L|210:19,1,45
116,88,45834,5,0,3:0:0:0:
128,116,45913,1,0,0:0:0:0:
156,136,45993,1,0,0:0:0:0:
196,140,46073,2,0,L|185:192,1,45,0|0,0:0|3:0,0:0:0:0:
32,292,46472,6,0,B|68:260|112:268|112:268|156:300|208:280,1,180,4|2,0:0|0:0,0:0:0:0:
256,212,46951,1,0,0:0:0:0:
344,204,47110,1,0,0:0:0:0:
316,288,47270,2,0,B|360:305|404:273|404:273|448:265|484:297,2,180
256,212,48068,5,2,0:0:0:0:
292,128,48227,1,0,0:0:0:0:
384,124,48387,2,0,P|424:156|432:196,1,90
256,212,48706,2,0,P|208:164|232:60,2,180,2|0|2,0:0|0:0|0:0,0:0:0:0:
292,128,49504,5,0,0:0:0:0:
128,168,49663,2,0,B|80:164|80:164|36:184,2,90,0|0|2,0:0|0:0|0:0,0:0:0:0:
96,252,50142,2,0,L|64:72,2,180
176,292,50940,5,0,0:0:0:0:
256,208,51100,1,0,0:0:0:0:
364,256,51259,1,2,0:0:0:0:
352,372,51419,1,0,0:0:0:0:
352,372,51499,1,0,0:0:0:0:
352,372,51578,6,0,P|296:360|248:248,1,180,0|2,0:0|0:0,0:0:0:0:
440,164,52057,2,0,P|482:240|448:320,1,180
364,256,52536,2,0,P|332:220|328:172,1,90,2|0,0:0|0:0,0:0:0:0:
452,64,52855,6,0,B|400:56|364:96|364:96|324:80|284:100,1,180,0|2,0:0|0:0,0:0:0:0:
212,152,53334,1,0,0:0:0:0:
196,112,53413,1,0,0:0:0:0:
208,68,53493,2,0,P|164:84|120:76,1,90
60,12,53812,1,2,0:0:0:0:
68,152,53972,1,0,0:0:0:0:
68,152,54052,1,0,0:0:0:0:
68,152,54132,6,0,B|96:184|84:232|84:232|96:224|96:224|92:276|128:296,1,180,0|2,0:0|0:0,0:0:0:0:
184,228,54610,1,0,0:0:0:0:
0,204,54770,1,0,0:0:0:0:
52,380,54929,2,0,B|104:372|128:320|128:320|168:344|208:328,1,180
184,138,55408,6,0,L|184:228,1,90,8|0,3:0|0:0,0:0:0:0:
152,44,55727,2,4,L|100:120,1,90,4|0,3:0|0:0,3:0:0:0:
256,64,56046,1,0,0:0:0:0:
256,64,56206,2,0,P|312:112|320:32,1,180
372,48,56605,1,0,0:0:0:0:
416,56,56685,6,0,P|416:108|440:144,1,90,6|0,0:0|0:0,0:0:0:0:
387,283,57004,2,0,P|389:239|368:200,1,90,8|0,0:0|0:0,0:0:0:0:
456,208,57323,1,2,0:0:0:0:
304,260,57483,1,2,0:0:0:0:
304,260,57562,1,0,0:0:0:0:
304,260,57642,6,0,P|244:252|216:264,1,90,8|0,0:0|0:0,0:0:0:0:
168,336,57961,1,2,0:0:0:0:
168,336,58121,6,0,P|104:340|64:240,1,180
112,172,58600,1,2,0:0:0:0:
144,256,58759,1,2,0:0:0:0:
144,256,58839,1,0,0:0:0:0:
144,256,58919,1,8,0:0:0:0:
12,164,59078,1,0,0:0:0:0:
140,52,59238,6,0,P|180:72|224:64,1,90,2|0,0:0|0:0,0:0:0:0:
256,32,59477,1,0,0:0:0:0:
260,84,59557,2,0,L|268:176,1,90,8|0,0:0|0:0,0:0:0:0:
352,140,59876,1,2,0:0:0:0:
424,192,60036,2,0,P|444:152|436:104,1,90,2|8,0:0|0:0,0:0:0:0:
340,232,60355,6,0,P|376:276|416:284,1,90,0|2,0:0|0:0,0:0:0:0:
447,15,60674,2,0,P|402:20|368:48,1,90,0|8,0:0|0:0,0:0:0:0:
472,252,60993,2,0,P|512:180|504:80,1,180,0|2,0:0|0:0,0:0:0:0:
340,232,61472,2,0,P|332:280|348:320,1,90,8|0,0:0|0:0,0:0:0:0:
304,304,61711,1,0,0:0:0:0:
260,304,61791,6,0,P|208:316|180:352,1,90,2|0,0:0|0:0,0:0:0:0:
108,296,62110,1,8,0:0:0:0:
40,352,62270,1,0,0:0:0:0:
40,352,62350,1,0,0:0:0:0:
40,352,62429,6,0,P|16:312|24:264,1,90,2|2,0:0|0:0,0:0:0:0:
92,212,62749,1,8,0:0:0:0:
48,136,62908,2,0,P|104:124|180:208,1,180,2|2,0:0|0:0,0:0:0:0:
48,136,63387,6,0,L|64:48,1,90,8|0,0:0|0:0,0:0:0:0:
156,116,63706,2,0,L|172:28,1,90,2|0,0:0|0:0,0:0:0:0:
264,132,64025,2,0,P|280:60|384:56,1,180,8|2,0:0|0:0,0:0:0:0:
312,224,64504,5,2,0:0:0:0:
336,112,64663,1,8,0:0:0:0:
424,188,64823,2,0,P|432:232|412:280,1,90,0|2,0:0|0:0,0:0:0:0:
384,360,65142,1,2,0:0:0:0:
304,309,65302,2,0,P|296:265|312:224,1,90,8|2,0:0|0:0,0:0:0:0:
216,360,65940,6,0,P|196:308|96:300,1,161.999995056153,0|8,0:0|0:0,0:0:0:0:
140,364,66578,1,8,0:0:0:0:
140,364,66897,6,0,P|184:304|132:220,1,180,6|8,0:0|0:0,0:0:0:0:
0,232,67376,1,0,0:0:0:0:
100,297,67536,1,0,0:0:0:0:
240,216,67695,2,0,P|280:240|328:232,1,90,0|8,0:0|0:0,0:0:0:0:
316,68,68015,1,0,0:0:0:0:
316,68,68094,1,0,0:0:0:0:
316,68,68174,6,0,L|296:164,1,90
232,44,68493,2,0,L|212:140,1,90,8|0,0:0|0:0,0:0:0:0:
144,20,68812,2,0,L|124:116,2,90,0|2|8,0:0|0:0|0:0,0:0:0:0:
68,336,69451,6,0,P|76:280|184:240,1,180,6|8,0:0|0:0,0:0:0:0:
256,288,69929,1,2,0:0:0:0:
331,238,70089,2,0,P|416:254|444:336,1,180,2|8,0:0|0:0,0:0:0:0:
255,287,70568,2,0,P|240:246|250:203,1,90,0|2,0:0|0:0,0:0:0:0:
340,324,70887,2,0,P|308:368|276:376,1,90,0|8,0:0|0:0,0:0:0:0:
251,111,71206,2,0,P|327:152|331:238,1,180
331,237,71605,1,0,0:0:0:0:
331,237,71685,1,8,0:0:0:0:
116,184,71844,1,0,0:0:0:0:
116,184,71924,1,0,0:0:0:0:
116,184,72004,6,0,P|144:136|140:104,1,90,6|0,0:0|0:0,0:0:0:0:
52,124,72323,2,0,P|24:164|28:208,1,90,8|0,0:0|0:0,0:0:0:0:
84,272,72642,1,2,0:0:0:0:
139,103,72802,1,2,0:0:0:0:
260,232,72961,1,8,0:0:0:0:
260,232,73121,6,0,P|240:280|252:320,1,90,2|0,0:0|0:0,0:0:0:0:
299,147,73440,2,0,P|257:136|216:152,1,90,2|8,0:0|0:0,0:0:0:0:
356,228,73759,2,0,P|400:172|368:76,1,180,2|2,0:0|0:0,0:0:0:0:
368,76,74158,1,0,0:0:0:0:
368,76,74238,1,8,0:0:0:0:
256,32,74397,1,0,0:0:0:0:
143,76,74557,6,0,P|109:155|156:228,1,180,2|8,0:0|0:0,0:0:0:0:
244,208,75036,1,2,0:0:0:0:
244,208,75195,2,0,B|288:184|328:208|328:208|352:252|404:256,1,180,2|8,0:0|0:0,0:0:0:0:
482,213,75674,2,0,P|453:179|412:164,1,90,2|0,0:0|0:0,0:0:0:0:
411,348,75993,2,0,P|453:336|484:304,1,90,2|8,0:0|0:0,0:0:0:0:
336,216,76312,6,0,B|332:264|296:288|296:288|336:324|324:376,1,180,2|2,0:0|0:0,0:0:0:0:
236,360,76791,1,8,0:0:0:0:
244,208,76951,1,0,0:0:0:0:
244,208,77030,1,0,0:0:0:0:
244,208,77110,6,0,B|204:228|160:208|160:208|104:204|64:244,1,180,6|8,0:0|0:0,0:0:0:0:
84,324,77589,1,0,0:0:0:0:
84,324,77669,1,0,0:0:0:0:
84,324,77749,1,2,0:0:0:0:
208,124,77908,2,0,P|192:80|200:32,1,90,2|8,0:0|0:0,0:0:0:0:
314,38,78227,6,0,P|319:82|304:124,1,90,2|0,0:0|0:0,0:0:0:0:
121,119,78546,2,0,P|165:111|208:124,1,90,2|8,0:0|0:0,0:0:0:0:
477,133,78866,2,0,P|389:148|303:124,1,180,2|2,0:0|0:0,0:0:0:0:
404,48,79344,1,8,0:0:0:0:
440,244,79504,1,2,0:0:0:0:
440,244,79584,1,0,0:0:0:0:
440,244,79663,6,0,P|424:292|436:332,1,90,2|0,0:0|0:0,0:0:0:0:
264,338,79983,2,0,P|308:335|344:308,1,90,8|0,0:0|0:0,0:0:0:0:
348,216,80302,1,2,0:0:0:0:
184,368,80461,2,0,P|180:324|204:280,1,90,2|8,0:0|0:0,0:0:0:0:
348,216,80780,2,0,B|300:208|264:240|264:240|236:200|184:208,2,180
368,100,81578,5,2,0:0:0:0:
264,40,81738,1,2,0:0:0:0:
172,112,81897,2,0,P|176:160|152:200,1,90,8|0,0:0|0:0,0:0:0:0:
3,152,82217,6,0,P|43:133|88:136,1,90,2|0,0:0|0:0,0:0:0:0:
132,280,82536,1,8,0:0:0:0:
64,224,82695,1,0,0:0:0:0:
110,367,82855,2,0,P|69:349|47:310,1,90,2|2,0:0|0:0,0:0:0:0:
222,262,83174,1,8,0:0:0:0:
222,262,83334,6,0,P|224:306|200:344,1,90,2|0,0:0|0:0,0:0:0:0:
332,384,83653,2,0,P|307:346|309:302,1,90,2|8,0:0|0:0,0:0:0:0:
132,280,83972,2,0,P|144:204|236:172,1,180,2|2,0:0|0:0,0:0:0:0:
308,220,84451,2,0,P|324:176|312:128,1,90,8|0,0:0|0:0,0:0:0:0:
360,144,84690,1,0,0:0:0:0:
404,152,84770,5,2,0:0:0:0:
232,171,84929,1,2,0:0:0:0:
112,48,85089,2,0,P|128:104|48:72,1,180,8|2,0:0|0:0,0:0:0:0:
212,88,85568,1,2,0:0:0:0:
120,224,85727,1,8,0:0:0:0:
220,360,85887,6,0,P|168:344|132:352,1,90,2|0,0:0|0:0,0:0:0:0:
272,280,86206,2,0,P|308:312|316:360,1,90,0|8,0:0|0:0,0:0:0:0:
220,360,86525,2,0,P|180:312|212:204,1,180,0|2,0:0|0:0,0:0:0:0:
436,288,87004,2,0,B|388:268|344:292|344:292|344:280|344:280|300:292|272:280,1,180,8|4,0:0|0:0,0:0:0:0:
104,52,97217,6,0,P|144:56|80:88,1,202.500007724762,2|0,1:0|0:0,0:0:0:0:
184,60,97536,6,0,P|232:80|272:76,1,90,6|0,0:0|0:0,0:0:0:0:
344,28,97855,1,8,0:0:0:0:
356,116,98015,1,0,0:0:0:0:
512,76,98174,2,0,P|472:58|428:60,1,90,2|2,0:0|0:0,0:0:0:0:
356,116,98493,1,8,0:0:0:0:
376,204,98653,1,0,0:0:0:0:
376,204,98733,1,0,0:0:0:0:
376,204,98812,6,0,P|416:248|416:288,1,90,2|0,0:0|0:0,0:0:0:0:
267,336,99132,2,0,P|287:296|328:280,1,90,8|0,0:0|0:0,0:0:0:0:
352,368,99451,1,2,0:0:0:0:
184,376,99610,1,2,0:0:0:0:
176,332,99690,1,0,0:0:0:0:
188,288,99770,6,0,P|144:304|100:296,1,90,8|0,0:0|0:0,0:0:0:0:
141,130,100089,2,0,P|152:173|140:216,1,90,2|0,0:0|0:0,0:0:0:0:
24,340,100408,2,0,P|11:297|22:254,1,90,8|0,0:0|0:0,0:0:0:0:
56,172,100727,1,2,0:0:0:0:
102,296,100887,1,2,0:0:0:0:
56,172,101046,6,0,P|60:120|44:88,1,90,8|0,0:0|0:0,0:0:0:0:
141,130,101366,1,2,0:0:0:0:
141,130,101685,1,6,0:0:0:0:
404,76,102163,2,0,P|396:128|412:168,1,90,2|8,0:0|0:0,0:0:0:0:
328,324,102642,6,0,P|280:304|240:308,1,90,2|0,0:0|0:0,0:0:0:0:
168,356,102961,1,8,0:0:0:0:
156,268,103121,1,0,0:0:0:0:
0,307,103280,2,0,P|39:325|84:324,1,90,2|2,0:0|0:0,0:0:0:0:
156,268,103599,1,8,0:0:0:0:
136,180,103759,1,0,0:0:0:0:
136,180,103839,1,0,0:0:0:0:
136,180,103918,6,0,P|96:136|96:96,1,90,2|0,0:0|0:0,0:0:0:0:
244,47,104238,2,0,P|224:87|184:104,1,90,8|0,0:0|0:0,0:0:0:0:
160,16,104557,1,2,0:0:0:0:
328,8,104716,1,2,0:0:0:0:
336,52,104796,1,0,0:0:0:0:
324,96,104876,6,0,P|368:80|412:88,1,90,8|0,0:0|0:0,0:0:0:0:
370,253,105195,2,0,P|359:210|372:168,1,90,2|0,0:0|0:0,0:0:0:0:
488,44,105514,2,0,P|500:86|489:129,1,90,8|0,0:0|0:0,0:0:0:0:
456,212,105833,1,2,0:0:0:0:
409,87,105993,1,2,0:0:0:0:
456,212,106152,6,0,P|452:264|468:296,1,90,8|0,0:0|0:0,0:0:0:0:
370,253,106472,1,2,0:0:0:0:
370,253,106791,1,6,0:0:0:0:
256,192,106951,12,2,107589,0:0:0:0:
