osu file format v12

[General]
AudioFilename: cotoribbon - mint tears.mp3
AudioLeadIn: 0
PreviewTime: 26046
Countdown: 0
SampleSet: Soft
StackLeniency: 0.7
Mode: 0
LetterboxInBreaks: 1
WidescreenStoryboard: 0

[Editor]
Bookmarks: 87323
DistanceSpacing: 1
BeatDivisor: 4
GridSize: 4
TimelineZoom: 1.4

[Metadata]
Title:mint tears
TitleUnicode:mint tears
Artist:ribbon room
ArtistUnicode:ribbon room
Creator:TaMul
Version:Easy
Source:太鼓の達人
Tags:alacat cotoribbon silver coin
BeatmapID:414230
BeatmapSetID:171223

[Difficulty]
HPDrainRate:2
CircleSize:3
OverallDifficulty:2
ApproachRate:3
SliderMultiplier:0.8
SliderTickRate:2

[Events]
//Background and Video events
0,0,"366552-1366x768.jpg",0,0
//Break Periods
2,87323,96096
//Storyboard Layer 0 (Background)
//Storyboard Layer 1 (Fail)
//Storyboard Layer 2 (Pass)
//Storyboard Layer 3 (Foreground)
//Storyboard Sound Samples
//Background Colour Transformations
3,100,163,162,255

[TimingPoints]
515,319.148936170213,4,2,1,50,1,0
4504,-100,4,2,5,50,0,0
4663,-100,4,2,4,50,0,0
4823,-100,4,2,5,50,0,0
4983,-100,4,2,1,50,0,0
5302,-100,4,2,4,50,0,0
5461,-100,4,2,1,50,0,0
6578,-100,4,2,4,50,0,0
6738,-100,4,2,1,50,0,0
7217,-100,4,2,4,50,0,0
7376,-100,4,2,5,50,0,0
7536,-100,4,2,1,50,0,0
8493,-100,4,2,4,50,0,0
8653,-100,4,2,1,50,0,0
9451,-100,4,2,5,50,0,0
9610,-100,4,2,1,50,0,0
9770,-100,4,2,4,50,0,0
9929,-100,4,2,1,50,0,0
11046,-100,4,2,4,50,0,0
11206,-100,4,2,5,50,0,0
11366,-100,4,2,1,50,0,0
12163,-100,4,2,5,50,0,0
12323,-100,4,2,4,50,0,0
12483,-100,4,2,5,50,0,0
12642,-100,4,2,1,50,0,0
14078,-100,4,2,5,50,0,0
14238,-100,4,2,4,50,0,0
14397,-100,4,2,5,50,0,0
14876,-100,4,2,4,50,0,0
15036,-100,4,2,5,50,0,0
15195,-100,4,2,1,50,0,0
16153,-100,4,2,4,50,0,0
16312,-100,4,2,1,50,0,0
17429,-100,4,2,4,50,0,0
17589,-100,4,2,1,50,0,0
18706,-100,4,2,4,50,0,0
18866,-100,4,2,1,50,0,0
20142,-100,4,2,5,50,0,0
20302,-100,4,2,1,50,0,0
20461,-100,4,2,5,50,0,0
20621,-100,4,2,4,50,0,0
20780,-100,4,2,1,50,0,0
22536,-100,4,2,4,50,0,0
22695,-100,4,2,5,50,0,0
22855,-100,4,2,1,50,0,0
24610,-100,4,2,1,20,0,0
26046,-100,4,2,1,50,0,1
27004,-100,4,2,4,50,0,1
27163,-100,4,2,1,50,0,1
29557,-100,4,2,4,50,0,1
29717,-100,4,2,1,50,0,1
31472,-100,4,2,4,50,0,1
31632,-100,4,2,1,50,0,1
32749,-100,4,2,4,50,0,1
32908,-100,4,2,5,50,0,1
33068,-100,4,2,1,50,0,1
33227,-100,4,2,5,50,0,1
33387,-100,4,2,1,50,0,1
34504,-100,4,2,5,50,0,1
34663,-100,4,2,4,50,0,1
34823,-100,4,2,1,50,0,1
37057,-100,4,2,5,50,0,1
37217,-100,4,2,4,50,0,1
37376,-100,4,2,1,50,0,1
39610,-100,4,2,5,50,0,1
39770,-100,4,2,4,50,0,1
39929,-100,4,2,1,50,0,1
41685,-100,4,2,4,50,0,1
41844,-100,4,2,1,50,0,1
42961,-100,4,2,4,50,0,1
43121,-100,4,2,5,50,0,1
43280,-100,4,2,1,50,0,1
43440,-100,4,2,5,50,0,1
43600,-100,4,2,1,50,0,1
44717,-100,4,2,5,50,0,1
44876,-100,4,2,4,50,0,1
45036,-100,4,2,1,50,0,1
46472,-100,4,2,2,50,0,0
49344,-100,4,2,3,50,0,0
49504,-100,4,2,2,50,0,0
51897,-100,4,2,3,50,0,0
52057,-100,4,2,2,50,0,0
56685,-100,4,2,1,50,0,0
57004,-100,4,2,4,50,0,0
57163,-100,4,2,1,50,0,0
59557,-100,4,2,4,50,0,0
59717,-100,4,2,1,50,0,0
60834,-100,4,2,4,50,0,0
60993,-100,4,2,1,50,0,0
62110,-100,4,2,4,50,0,0
62270,-100,4,2,5,50,0,0
62749,-100,4,2,4,50,0,0
62908,-100,4,2,5,50,0,0
63068,-100,4,2,1,50,0,0
67695,-100,4,2,5,50,0,0
67855,-100,4,2,1,50,0,0
68493,-100,4,2,4,50,0,0
68653,-100,4,2,1,50,0,0
69770,-100,4,2,4,50,0,0
69929,-100,4,2,5,50,0,0
70408,-100,4,2,4,50,0,0
70568,-100,4,2,1,50,0,0
71525,-100,4,2,5,50,0,0
71685,-100,4,2,1,50,0,0
72323,-100,4,2,4,50,0,0
72483,-100,4,2,5,50,0,0
72961,-100,4,2,4,50,0,0
73121,-100,4,2,1,50,0,0
74078,-100,4,2,5,50,0,0
74238,-100,4,2,1,50,0,0
75355,-100,4,2,5,50,0,0
75515,-100,4,2,1,50,0,0
77429,-100,4,2,4,50,0,0
77589,-100,4,2,1,50,0,0
79344,-100,4,2,4,50,0,0
79504,-100,4,2,1,50,0,0
81259,-100,4,2,4,50,0,0
81419,-100,4,2,5,50,0,0
81897,-100,4,2,4,50,0,0
82057,-100,4,2,1,50,0,0
82695,-100,4,2,5,50,0,0
82855,-100,4,2,1,50,0,0
83015,-100,4,2,5,50,0,0
83174,-100,4,2,4,50,0,0
83334,-100,4,2,1,50,0,0
84291,-100,4,2,5,50,0,0
84451,-100,4,2,1,50,0,0
85089,-100,4,2,4,50,0,0
85249,-100,4,2,5,50,0,0
85727,-100,4,2,4,50,0,0
85887,-100,4,2,1,50,0,0
86844,-100,4,2,5,50,0,0
87004,-100,4,2,1,50,0,0
97536,-100,4,2,1,50,0,1
98493,-100,4,2,4,50,0,1
98653,-100,4,2,5,50,0,1
99132,-100,4,2,4,50,0,1
99291,-100,4,2,1,50,0,1
100408,-100,4,2,4,50,0,1
100568,-100,4,2,5,50,0,1
101046,-100,4,2,4,50,0,1
101206,-100,4,2,1,50,0,1
102961,-100,4,2,4,50,0,1
103121,-100,4,2,1,50,0,1
104238,-100,4,2,4,50,0,1
104397,-100,4,2,1,50,0,1
105993,-100,4,2,5,50,0,1
106153,-100,4,2,4,50,0,1
106312,-100,4,2,1,50,0,1
107589,-100,4,2,1,50,0,0

[Colours]
Combo1 : 128,128,255
Combo2 : 0,128,128
Combo3 : 255,128,64
Combo4 : 255,255,0

[HitObjects]
176,320,4344,6,0,B|212:336|252:316|252:316|292:336|336:320,2,160,8|2|6,0:0|0:0|0:0,0:0:0:0:
92,184,6259,6,0,P|112:144|184:160,1,120,2|2,0:0|0:0,0:0:0:0:
208,224,7057,2,0,P|244:192|248:120,1,120,2|2,0:0|0:0,0:0:0:0:
120,216,8174,6,0,P|124:256|224:312,1,160,2|2,0:0|0:0,0:0:0:0:
332,280,9291,2,0,P|336:228|424:172,1,160,2|2,0:0|0:0,0:0:0:0:
448,288,10408,1,8,0:0:0:0:
392,344,10727,6,0,P|324:372|252:316,1,160,2|0,0:0|0:0,0:0:0:0:
260,168,12004,2,0,P|268:128|188:52,1,160,2|2,0:0|0:0,0:0:0:0:
112,64,12961,1,8,0:0:0:0:
76,136,13280,6,0,P|76:184|100:216,1,80,2|8,0:0|0:0,0:0:0:0:
164,248,13919,2,0,P|180:280|128:384,2,160,0|0|2,0:0|0:0|0:0,0:0:0:0:
324,268,15834,6,0,L|492:280,1,160,2|2,0:0|0:0,0:0:0:0:
376,160,17110,2,0,P|324:144|228:192,1,160,2|2,0:0|0:0,0:0:0:0:
104,280,18387,6,0,L|116:120,1,160,2|2,0:0|0:0,0:0:0:0:
268,68,19663,1,2,0:0:0:0:
324,124,19983,2,0,P|228:140|200:24,1,240,8|2,0:0|0:0,0:0:0:0:
360,48,21578,6,0,P|396:76|404:116,1,80,2|8,0:0|0:0,0:0:0:0:
380,184,22217,2,0,B|356:228|412:296|380:340,1,160,0|2,0:0|0:0,0:0:0:0:
256,192,23493,12,0,24610,0:0:0:0:
104,280,26046,6,0,P|120:240|116:204,1,80,6|8,0:0|0:0,0:0:0:0:
48,160,26685,2,0,P|76:132|160:136,1,120,2|2,0:0|0:0,0:0:0:0:
196,200,27483,1,2,0:0:0:0:
424,36,28600,6,0,P|408:76|412:112,1,80,2|8,0:0|0:0,0:0:0:0:
480,156,29239,2,0,P|452:184|368:180,1,120,2|2,0:0|0:0,0:0:0:0:
332,116,30037,1,2,0:0:0:0:
296,188,30355,1,2,0:0:0:0:
144,60,31153,6,0,L|128:228,1,160,2|2,0:0|0:0,0:0:0:0:
212,308,32270,1,2,0:0:0:0:
140,344,32589,2,0,P|136:276|252:240,1,200,2|8,0:0|0:0,0:0:0:0:
300,292,33706,6,0,P|336:312|380:304,1,80,2|8,0:0|0:0,0:0:0:0:
352,228,34344,2,0,B|336:192|368:152|352:108,1,120,2|2,0:0|0:0,0:0:0:0:
104,104,36259,6,0,P|120:144|116:180,1,80,6|8,0:0|0:0,0:0:0:0:
48,224,36898,2,0,P|76:252|160:248,1,120,2|2,0:0|0:0,0:0:0:0:
196,184,37696,1,2,0:0:0:0:
424,348,38813,6,0,P|408:308|412:272,1,80,2|8,0:0|0:0,0:0:0:0:
480,228,39452,2,0,P|452:200|368:204,1,120,2|2,0:0|0:0,0:0:0:0:
332,268,40249,1,2,0:0:0:0:
296,196,40568,1,2,0:0:0:0:
144,324,41366,6,0,L|128:156,1,160,2|2,0:0|0:0,0:0:0:0:
212,76,42483,1,2,0:0:0:0:
140,40,42802,2,0,P|136:108|252:144,1,200,2|8,0:0|0:0,0:0:0:0:
300,92,43919,6,0,P|336:72|380:80,1,80,2|8,0:0|0:0,0:0:0:0:
352,156,44557,2,0,B|336:192|368:232|352:276,1,120,2|2,0:0|0:0,0:0:0:0:
164,348,45834,5,0,0:0:0:0:
188,272,46153,1,0,0:0:0:0:
108,288,46472,2,0,P|48:304|24:296,1,80,2|2,0:0|0:0,0:0:0:0:
56,180,47270,1,0,0:0:0:0:
96,112,47589,1,0,0:0:0:0:
140,180,47908,6,0,P|176:136|168:72,1,120
228,24,48706,1,0,0:0:0:0:
308,36,49025,6,0,P|316:96|392:160,1,160,2|0,0:0|0:0,0:0:0:0:
472,244,50142,2,0,P|424:244|380:264,1,80
328,300,50780,2,0,P|300:320|212:328,1,120,0|0,0:0|0:0,0:0:0:0:
140,304,51578,6,0,P|148:252|44:300,1,240,2|0,0:0|0:0,0:0:0:0:
84,360,52855,2,0,P|156:384|196:248,1,240
176,184,54132,6,0,P|116:140|124:60,2,160,0|0|2,0:0|0:0|0:0,0:0:0:0:
256,172,55727,1,6,0:0:0:0:
336,184,56046,2,0,P|336:144|308:108,1,80,0|0,0:0|0:0,0:0:0:0:
364,48,56685,6,0,P|408:100|420:188,1,160,6|2,0:0|0:0,0:0:0:0:
336,324,57961,2,0,P|276:304|248:308,1,80,2|8,0:0|0:0,0:0:0:0:
184,328,58600,1,2,0:0:0:0:
104,312,58919,1,8,0:0:0:0:
44,256,59238,6,0,P|68:216|80:104,1,160,2|2,0:0|0:0,0:0:0:0:
220,28,60515,2,0,P|196:68|184:180,1,160,2|2,0:0|0:0,0:0:0:0:
256,212,61472,1,8,0:0:0:0:
328,178,61791,6,0,P|326:99|301:19,2,160,2|0|2,0:0|0:0|0:0,0:0:0:0:
328,260,63387,2,0,P|328:304|348:340,2,80,8|2|8,0:0|0:0|0:0,0:0:0:0:
256,192,64344,12,0,65461,0:0:0:0:
256,32,66419,6,0,L|256:72,1,40,8|8,1:0|1:0,0:0:0:0:
228,148,66897,6,0,P|264:156|308:136,1,80,6|8,0:0|0:0,0:0:0:0:
364,88,67536,2,0,P|384:132|376:168,1,80,2|8,0:0|0:0,0:0:0:0:
448,204,68174,2,0,P|464:152|440:52,1,160,2|2,0:0|0:0,0:0:0:0:
356,188,69451,6,0,P|356:232|444:300,2,160,2|0|2,0:0|0:0|0:0,0:0:0:0:
256,64,71206,2,0,P|216:88|132:76,1,120,2|8,0:0|0:0,0:0:0:0:
108,156,72004,6,0,P|184:176|276:152,2,160,6|0|2,0:0|0:0|0:0,0:0:0:0:
16,232,73759,2,0,P|40:284|28:352,1,120,2|8,0:0|0:0,0:0:0:0:
112,360,74557,6,0,B|144:340|144:340|188:344,1,80,2|8,0:0|0:0,0:0:0:0:
256,304,75195,2,0,L|256:224,2,80,2|8|2,0:0|0:0|0:0,0:0:0:0:
325,343,76153,2,0,B|368:340|368:340|400:360,1,80,8|2,0:0|0:0,0:0:0:0:
412,200,77110,6,0,P|432:160|396:56,1,160,6|2,0:0|0:0,0:0:0:0:
324,88,78068,1,8,0:0:0:0:
244,92,78387,2,0,P|192:88|164:72,1,80,2|8,0:0|0:0,0:0:0:0:
132,4,79025,2,0,L|112:176,1,160,2|2,0:0|0:0,0:0:0:0:
60,224,79983,6,0,P|92:244|136:240,1,80,8|2,0:0|0:0,0:0:0:0:
192,188,80621,1,8,0:0:0:0:
264,220,80940,2,0,P|268:156|184:108,2,160,2|0|2,0:0|0:0|0:0,0:0:0:0:
328,268,82536,6,0,P|352:204|316:80,1,200,8|0,0:0|0:0,0:0:0:0:
244,48,83653,1,2,0:0:0:0:
164,60,83972,2,0,P|128:88|48:84,1,120,2|8,0:0|0:0,0:0:0:0:
56,168,84770,6,0,P|128:168|216:120,2,160,2|0|2,0:0|0:0|0:0,0:0:0:0:
120,268,86525,2,0,B|144:320|144:320|136:384,1,120,2|8,0:0|0:0,0:0:0:0:
352,56,97536,6,0,P|372:84|376:136,1,80,2|8,0:0|0:0,0:0:0:0:
336,196,98174,2,0,B|376:216|412:200|412:200|460:200|488:236,2,160,2|0|2,0:0|0:0|0:0,0:0:0:0:
256,180,99770,1,8,0:0:0:0:
176,196,100089,2,0,B|136:216|100:200|100:200|52:200|24:236,2,160,2|0|2,0:0|0:0|0:0,0:0:0:0:
256,180,101685,1,6,0:0:0:0:
52,308,102642,6,0,P|84:288|88:176,1,160,2|2,0:0|0:0,0:0:0:0:
32,120,103600,1,8,0:0:0:0:
108,100,103919,2,0,B|132:72|180:80|180:80|203:39|253:43,1,160,2|2,0:0|0:0,0:0:0:0:
250,122,104876,1,8,0:0:0:0:
323,155,105195,6,0,P|333:117|320:80,1,80,2|8,0:0|0:0,0:0:0:0:
378,25,105834,2,0,P|407:81|398:185,1,160,2|2,0:0|0:0,0:0:0:0:
348,235,106791,1,6,0:0:0:0:
