osu file format v12

[General]
AudioFilename: Nou Shou Sakuretsu Girl_.mp3
AudioLeadIn: 2504
PreviewTime: -1
Countdown: 1
SampleSet: Soft
StackLeniency: 0.7
Mode: 3
LetterboxInBreaks: 1

[Editor]
DistanceSpacing: 0.8
BeatDivisor: 4
GridSize: 16

[Metadata]
Title:Nou Shou Sakuretsu Girl
TitleUnicode:Nou Shou Sakuretsu Girl
Artist:rerulili
ArtistUnicode:rerulili
Creator:Entozer
Version:Normal
Source:VOCALOID
Tags:
BeatmapID:215152
BeatmapSetID:73883

[Difficulty]
HPDrainRate:7
CircleSize:7
OverallDifficulty:7
ApproachRate:5
SliderMultiplier:1.4
SliderTickRate:1

[Events]
//Background and Video events
0,0,"BG.jpg",0,0
//Break Periods
//Storyboard Layer 0 (Background)
//Storyboard Layer 1 (Fail)
//Storyboard Layer 2 (Pass)
//Storyboard Layer 3 (Foreground)
//Storyboard Sound Samples
//Background Colour Transformations
3,100,163,162,255

[TimingPoints]
481,387.096774193548,4,2,0,40,1,0
62029,-50,4,2,0,40,0,0
62126,-66.6666666666667,4,2,0,40,0,0
62222,-133.333333333333,4,2,0,40,0,0
62416,-100,4,2,0,40,0,0
74803,-200,4,2,0,25,0,0
89126,-166.666666666667,4,2,0,25,0,0
89513,-142.857142857143,4,2,0,25,0,0
89900,-125,4,2,0,25,0,0
90287,-100,4,2,0,40,0,0
117771,-50,4,2,0,40,0,0
117964,-133.333333333333,4,2,0,40,0,0
118158,-100,4,2,0,40,0,0
131706,-50,4,2,0,40,0,0
131900,-133.333333333333,4,2,0,40,0,0
132093,-100,4,2,0,40,0,0
136739,-100,4,2,0,25,0,0
146029,-100,4,2,0,40,0,0

[HitObjects]
402,352,481,1,0,0:0:0:0:
475,352,481,1,0,0:0:0:0:
475,352,868,1,0,0:0:0:0:
402,352,868,1,0,0:0:0:0:
402,352,1158,1,0,0:0:0:0:
475,352,1158,1,0,0:0:0:0:
475,352,1448,1,0,0:0:0:0:
402,352,1448,1,0,0:0:0:0:
402,352,1739,1,0,0:0:0:0:
475,352,1739,1,0,0:0:0:0:
109,352,2029,2,0,L|109:256,1,70
182,352,2222,1,0,0:0:0:0:
36,352,2222,1,0,0:0:0:0:
36,352,2416,1,0,0:0:0:0:
182,352,2416,1,0,0:0:0:0:
182,352,2610,1,0,0:0:0:0:
109,352,2610,1,0,0:0:0:0:
109,352,2803,1,0,0:0:0:0:
182,352,2803,1,0,0:0:0:0:
329,352,2997,1,0,0:0:0:0:
475,352,3190,1,0,0:0:0:0:
402,352,3287,1,0,0:0:0:0:
182,352,3384,2,0,L|182:256,1,70
329,352,3384,2,0,L|329:272,1,70
475,352,3577,1,0,0:0:0:0:
402,352,3577,1,0,0:0:0:0:
402,352,3964,1,0,0:0:0:0:
475,352,3964,1,0,0:0:0:0:
475,352,4255,1,0,0:0:0:0:
402,352,4255,1,0,0:0:0:0:
402,352,4545,1,0,0:0:0:0:
475,352,4545,1,0,0:0:0:0:
475,352,4835,1,0,0:0:0:0:
402,352,4835,1,0,0:0:0:0:
109,352,5126,2,0,L|109:272,1,70
182,352,5319,1,0,0:0:0:0:
36,352,5319,1,0,0:0:0:0:
36,352,5513,1,0,0:0:0:0:
182,352,5513,1,0,0:0:0:0:
182,352,5706,1,0,0:0:0:0:
329,352,5706,1,0,0:0:0:0:
329,352,5900,1,0,0:0:0:0:
182,352,5900,1,0,0:0:0:0:
329,352,6093,1,0,0:0:0:0:
475,352,6093,1,0,0:0:0:0:
475,352,6287,2,0,L|475:192,1,140
329,352,6287,2,0,L|329:192,1,140
256,352,6674,5,0,0:0:0:0:
182,352,6771,1,0,0:0:0:0:
109,352,6868,1,0,0:0:0:0:
182,352,6964,1,0,0:0:0:0:
256,352,7061,1,0,0:0:0:0:
475,352,7061,1,8,0:0:0:0:
182,352,7158,1,0,0:0:0:0:
109,352,7255,1,0,0:0:0:0:
182,352,7351,1,0,0:0:0:0:
256,352,7448,1,0,0:0:0:0:
36,352,7545,1,0,0:0:0:0:
109,352,7642,1,0,0:0:0:0:
36,352,7739,1,0,0:0:0:0:
256,352,7835,1,0,0:0:0:0:
475,352,7835,1,8,0:0:0:0:
36,352,7932,1,0,0:0:0:0:
109,352,8029,1,0,0:0:0:0:
36,352,8126,1,0,0:0:0:0:
256,352,8222,1,0,0:0:0:0:
329,352,8319,1,0,0:0:0:0:
402,352,8416,1,0,0:0:0:0:
329,352,8513,1,0,0:0:0:0:
256,352,8610,1,0,0:0:0:0:
36,352,8610,1,8,0:0:0:0:
329,352,8706,1,0,0:0:0:0:
402,352,8803,1,0,0:0:0:0:
329,352,8900,1,0,0:0:0:0:
36,352,8900,1,8,0:0:0:0:
256,352,8997,1,0,0:0:0:0:
475,352,9093,1,0,0:0:0:0:
36,352,9093,1,8,0:0:0:0:
402,352,9190,1,0,0:0:0:0:
475,352,9287,1,0,0:0:0:0:
256,352,9384,1,0,0:0:0:0:
36,352,9384,1,8,0:0:0:0:
475,352,9480,1,0,0:0:0:0:
402,352,9577,1,0,0:0:0:0:
475,352,9674,1,0,0:0:0:0:
256,352,9771,1,0,0:0:0:0:
36,352,9868,1,0,0:0:0:0:
182,352,9964,1,0,0:0:0:0:
109,352,10061,1,0,0:0:0:0:
256,352,10158,1,0,0:0:0:0:
475,352,10158,1,8,0:0:0:0:
36,352,10255,1,0,0:0:0:0:
182,352,10351,1,0,0:0:0:0:
109,352,10448,1,0,0:0:0:0:
256,352,10545,1,0,0:0:0:0:
182,352,10642,1,0,0:0:0:0:
36,352,10739,1,0,0:0:0:0:
109,352,10835,1,0,0:0:0:0:
256,352,10932,1,0,0:0:0:0:
475,352,10932,1,8,0:0:0:0:
182,352,11029,1,0,0:0:0:0:
36,352,11126,1,0,0:0:0:0:
109,352,11222,1,0,0:0:0:0:
256,352,11319,1,0,0:0:0:0:
475,352,11416,1,0,0:0:0:0:
329,352,11513,1,0,0:0:0:0:
402,352,11610,1,0,0:0:0:0:
256,352,11706,1,0,0:0:0:0:
36,352,11706,1,8,0:0:0:0:
475,352,11803,1,0,0:0:0:0:
329,352,11900,1,0,0:0:0:0:
402,352,11997,1,0,0:0:0:0:
36,352,11997,1,8,0:0:0:0:
256,352,12093,1,0,0:0:0:0:
329,352,12190,1,0,0:0:0:0:
475,352,12287,1,0,0:0:0:0:
402,352,12384,1,0,0:0:0:0:
256,352,12480,1,0,0:0:0:0:
36,352,12480,1,8,0:0:0:0:
329,352,12577,1,0,0:0:0:0:
475,352,12674,1,0,0:0:0:0:
402,352,12771,1,0,0:0:0:0:
256,352,12868,1,0,0:0:0:0:
182,352,12964,1,0,0:0:0:0:
36,352,13061,1,0,0:0:0:0:
182,352,13158,1,0,0:0:0:0:
256,352,13255,1,0,0:0:0:0:
475,352,13255,1,8,0:0:0:0:
182,352,13351,1,0,0:0:0:0:
36,352,13448,1,0,0:0:0:0:
182,352,13545,1,0,0:0:0:0:
256,352,13642,1,0,0:0:0:0:
36,352,13739,1,0,0:0:0:0:
182,352,13835,1,0,0:0:0:0:
36,352,13932,1,0,0:0:0:0:
256,352,14029,1,0,0:0:0:0:
475,352,14029,1,8,0:0:0:0:
36,352,14126,1,0,0:0:0:0:
182,352,14222,1,0,0:0:0:0:
36,352,14319,1,0,0:0:0:0:
256,352,14416,1,0,0:0:0:0:
329,352,14513,1,0,0:0:0:0:
475,352,14610,1,0,0:0:0:0:
329,352,14706,1,0,0:0:0:0:
256,352,14803,1,0,0:0:0:0:
36,352,14803,1,8,0:0:0:0:
329,352,14900,1,0,0:0:0:0:
475,352,14997,1,0,0:0:0:0:
329,352,15093,1,0,0:0:0:0:
36,352,15093,1,8,0:0:0:0:
256,352,15190,1,0,0:0:0:0:
475,352,15287,1,0,0:0:0:0:
36,352,15287,1,8,0:0:0:0:
329,352,15384,1,0,0:0:0:0:
475,352,15480,1,0,0:0:0:0:
256,352,15577,1,0,0:0:0:0:
36,352,15577,1,8,0:0:0:0:
475,352,15674,1,0,0:0:0:0:
329,352,15771,1,0,0:0:0:0:
475,352,15868,1,0,0:0:0:0:
256,352,15964,1,0,0:0:0:0:
182,352,16061,1,0,0:0:0:0:
109,352,16158,1,0,0:0:0:0:
36,352,16255,1,0,0:0:0:0:
256,352,16351,1,0,0:0:0:0:
475,368,16351,1,8,0:0:0:0:
182,352,16448,1,0,0:0:0:0:
109,352,16545,1,0,0:0:0:0:
36,352,16642,1,0,0:0:0:0:
256,352,16739,1,0,0:0:0:0:
329,352,16835,1,0,0:0:0:0:
402,352,16932,1,0,0:0:0:0:
475,352,17029,1,0,0:0:0:0:
256,352,17126,1,0,0:0:0:0:
36,352,17126,1,8,0:0:0:0:
329,352,17222,1,0,0:0:0:0:
402,352,17319,1,0,0:0:0:0:
475,352,17416,1,0,0:0:0:0:
256,352,17513,1,0,0:0:0:0:
329,352,17610,1,8,0:0:0:0:
182,352,17610,1,2,0:0:0:0:
329,352,17900,1,8,0:0:0:0:
182,352,17900,1,2,0:0:0:0:
329,352,18287,1,8,0:0:0:0:
182,352,18287,1,2,0:0:0:0:
329,352,18384,1,8,0:0:0:0:
182,352,18384,1,2,0:0:0:0:
329,352,18577,1,8,0:0:0:0:
182,352,18577,1,2,0:0:0:0:
329,352,18771,1,8,0:0:0:0:
182,352,18771,1,2,0:0:0:0:
402,352,18868,1,8,0:0:0:0:
109,352,18868,1,2,0:0:0:0:
475,352,18964,1,8,0:0:0:0:
36,352,18964,1,2,0:0:0:0:
256,352,19061,1,0,0:0:0:0:
182,352,19255,1,0,0:0:0:0:
256,352,19448,1,0,0:0:0:0:
329,352,19448,1,8,0:0:0:0:
109,352,19642,1,0,0:0:0:0:
256,352,19835,1,0,0:0:0:0:
36,352,20029,1,0,0:0:0:0:
402,352,20222,1,8,0:0:0:0:
256,352,20222,1,0,0:0:0:0:
109,352,20416,1,0,0:0:0:0:
256,352,20610,1,0,0:0:0:0:
182,352,20803,1,0,0:0:0:0:
475,352,20997,1,8,0:0:0:0:
256,352,20997,1,0,0:0:0:0:
109,352,21190,1,0,0:0:0:0:
256,352,21384,1,0,0:0:0:0:
36,352,21577,1,0,0:0:0:0:
402,352,21771,1,8,0:0:0:0:
256,352,21771,1,0,0:0:0:0:
109,352,21964,1,0,0:0:0:0:
256,352,22158,1,0,0:0:0:0:
329,352,22351,1,0,0:0:0:0:
256,352,22545,1,0,0:0:0:0:
182,352,22545,1,8,0:0:0:0:
402,352,22739,1,0,0:0:0:0:
256,352,22932,1,0,0:0:0:0:
475,352,23126,1,0,0:0:0:0:
256,352,23319,1,0,0:0:0:0:
109,352,23319,1,8,0:0:0:0:
402,352,23513,1,0,0:0:0:0:
256,352,23706,1,0,0:0:0:0:
329,352,23900,1,0,0:0:0:0:
256,352,24093,1,0,0:0:0:0:
36,352,24093,1,8,0:0:0:0:
402,352,24287,1,0,0:0:0:0:
256,352,24480,1,0,0:0:0:0:
475,352,24674,1,0,0:0:0:0:
256,352,24868,1,0,0:0:0:0:
109,352,24868,1,8,0:0:0:0:
402,352,25061,1,0,0:0:0:0:
256,352,25255,1,0,0:0:0:0:
182,352,25448,1,0,0:0:0:0:
256,352,25642,1,0,0:0:0:0:
329,352,25642,1,8,0:0:0:0:
182,352,25835,1,0,0:0:0:0:
256,352,26029,1,0,0:0:0:0:
109,352,26222,1,0,0:0:0:0:
256,352,26416,1,0,0:0:0:0:
402,352,26416,1,8,0:0:0:0:
109,352,26610,1,0,0:0:0:0:
256,352,26803,1,0,0:0:0:0:
36,352,26997,1,0,0:0:0:0:
256,352,27190,1,0,0:0:0:0:
475,352,27190,1,8,0:0:0:0:
36,352,27384,1,0,0:0:0:0:
256,352,27577,1,0,0:0:0:0:
109,352,27771,1,0,0:0:0:0:
256,352,27964,1,0,0:0:0:0:
402,352,27964,1,8,0:0:0:0:
109,352,28158,1,0,0:0:0:0:
256,352,28351,1,0,0:0:0:0:
329,352,28545,1,0,0:0:0:0:
256,352,28739,1,0,0:0:0:0:
182,352,28739,1,8,0:0:0:0:
329,352,28932,1,0,0:0:0:0:
256,352,29126,1,0,0:0:0:0:
402,352,29319,1,0,0:0:0:0:
256,352,29513,1,0,0:0:0:0:
109,352,29513,1,8,0:0:0:0:
402,352,29706,1,0,0:0:0:0:
256,352,29900,1,0,0:0:0:0:
36,352,29900,1,0,0:0:0:0:
109,352,30093,1,0,0:0:0:0:
256,352,30287,1,0,0:0:0:0:
329,352,30287,1,8,0:0:0:0:
475,352,30287,1,0,0:0:0:0:
402,352,30480,1,0,0:0:0:0:
256,352,30674,1,0,0:0:0:0:
36,352,30674,1,0,0:0:0:0:
109,352,30868,1,0,0:0:0:0:
256,352,31061,1,0,0:0:0:0:
329,352,31061,1,8,0:0:0:0:
475,352,31061,1,0,0:0:0:0:
402,352,31255,1,0,0:0:0:0:
36,352,31448,5,2,0:0:0:0:
256,352,31545,1,0,0:0:0:0:
475,352,31642,1,0,0:0:0:0:
256,352,31739,1,0,0:0:0:0:
109,352,31835,1,2,0:0:0:0:
256,352,31932,1,0,0:0:0:0:
402,352,32029,1,0,0:0:0:0:
256,352,32126,1,0,0:0:0:0:
182,352,32222,1,2,0:0:0:0:
256,352,32319,1,0,0:0:0:0:
329,352,32416,1,0,0:0:0:0:
256,352,32513,1,0,0:0:0:0:
109,352,32610,1,2,0:0:0:0:
256,352,32706,1,0,0:0:0:0:
402,352,32803,1,0,0:0:0:0:
256,352,32900,1,0,0:0:0:0:
36,352,32997,1,2,0:0:0:0:
109,352,33093,1,0,0:0:0:0:
182,352,33190,1,0,0:0:0:0:
256,352,33287,1,0,0:0:0:0:
329,352,33384,1,2,0:0:0:0:
402,352,33480,1,0,0:0:0:0:
475,352,33577,1,0,0:0:0:0:
256,352,33674,1,0,0:0:0:0:
475,352,33771,1,2,0:0:0:0:
402,352,33868,1,0,0:0:0:0:
329,352,33964,1,0,0:0:0:0:
256,352,34061,1,0,0:0:0:0:
182,352,34158,1,2,0:0:0:0:
109,352,34255,1,0,0:0:0:0:
36,352,34351,1,0,0:0:0:0:
256,352,34448,1,0,0:0:0:0:
475,352,34545,1,2,0:0:0:0:
256,352,34642,1,0,0:0:0:0:
36,352,34739,1,0,0:0:0:0:
256,352,34835,1,0,0:0:0:0:
402,352,34932,1,2,0:0:0:0:
256,352,35029,1,0,0:0:0:0:
109,352,35126,1,0,0:0:0:0:
256,352,35222,1,0,0:0:0:0:
329,352,35319,1,2,0:0:0:0:
256,352,35416,1,0,0:0:0:0:
182,352,35513,1,0,0:0:0:0:
256,352,35610,1,0,0:0:0:0:
402,352,35706,1,2,0:0:0:0:
256,352,35803,1,0,0:0:0:0:
109,352,35900,1,0,0:0:0:0:
256,352,35997,1,0,0:0:0:0:
475,352,36093,1,2,0:0:0:0:
402,352,36190,1,0,0:0:0:0:
329,352,36287,1,0,0:0:0:0:
256,352,36384,1,0,0:0:0:0:
182,352,36480,1,2,0:0:0:0:
109,352,36577,1,0,0:0:0:0:
36,352,36674,1,0,0:0:0:0:
256,352,36771,1,0,0:0:0:0:
36,352,36868,1,2,0:0:0:0:
109,352,36964,1,0,0:0:0:0:
182,352,37061,1,0,0:0:0:0:
256,352,37158,1,0,0:0:0:0:
329,352,37255,1,2,0:0:0:0:
402,352,37351,1,0,0:0:0:0:
475,352,37448,1,0,0:0:0:0:
256,352,37545,1,0,0:0:0:0:
36,352,37642,5,0,0:0:0:0:
182,352,37835,1,0,0:0:0:0:
256,352,38029,1,8,0:0:0:0:
36,352,38222,1,0,0:0:0:0:
182,352,38319,1,0,0:0:0:0:
36,352,38416,1,0,0:0:0:0:
182,352,38513,1,0,0:0:0:0:
36,352,38610,1,0,0:0:0:0:
182,352,38706,1,0,0:0:0:0:
256,352,38803,1,8,0:0:0:0:
182,352,38900,1,0,0:0:0:0:
36,352,38997,1,0,0:0:0:0:
182,352,39093,1,0,0:0:0:0:
475,352,39190,1,0,0:0:0:0:
329,352,39384,1,0,0:0:0:0:
256,352,39577,1,8,0:0:0:0:
475,352,39771,1,0,0:0:0:0:
329,352,39868,1,0,0:0:0:0:
475,352,39964,1,0,0:0:0:0:
329,352,40061,1,0,0:0:0:0:
475,352,40158,1,0,0:0:0:0:
329,352,40255,1,0,0:0:0:0:
256,352,40351,1,8,0:0:0:0:
329,352,40448,1,0,0:0:0:0:
475,352,40545,1,0,0:0:0:0:
329,352,40642,1,0,0:0:0:0:
182,352,40739,1,0,0:0:0:0:
329,352,40932,1,0,0:0:0:0:
256,352,41126,1,8,0:0:0:0:
182,352,41319,1,0,0:0:0:0:
329,352,41416,1,0,0:0:0:0:
109,352,41513,1,0,0:0:0:0:
402,352,41610,1,0,0:0:0:0:
182,352,41706,1,0,0:0:0:0:
329,352,41803,1,0,0:0:0:0:
256,352,41900,1,8,0:0:0:0:
109,352,41997,1,0,0:0:0:0:
402,352,42093,1,0,0:0:0:0:
109,352,42190,1,0,0:0:0:0:
36,352,42287,2,0,L|36:272,1,70
182,352,42480,2,0,L|182:272,1,70
256,352,42674,1,0,0:0:0:0:
329,352,42771,1,0,0:0:0:0:
256,352,42868,1,0,0:0:0:0:
329,352,42964,1,0,0:0:0:0:
402,352,43061,2,0,L|402:256,1,70
475,352,43255,2,0,L|475:256,1,70
402,352,43448,1,0,0:0:0:0:
329,352,43545,1,0,0:0:0:0:
256,352,43642,1,0,0:0:0:0:
182,352,43739,1,0,0:0:0:0:
36,352,43835,1,0,0:0:0:0:
182,352,44029,1,0,0:0:0:0:
256,352,44222,1,8,0:0:0:0:
182,352,44416,1,0,0:0:0:0:
36,352,44513,1,0,0:0:0:0:
182,352,44610,1,0,0:0:0:0:
109,352,44706,1,0,0:0:0:0:
182,352,44803,1,0,0:0:0:0:
36,352,44900,1,0,0:0:0:0:
256,352,44997,1,8,0:0:0:0:
36,352,45093,1,0,0:0:0:0:
182,352,45190,1,0,0:0:0:0:
36,352,45287,1,0,0:0:0:0:
475,352,45384,1,0,0:0:0:0:
329,352,45577,1,0,0:0:0:0:
256,352,45771,1,8,0:0:0:0:
329,352,45964,1,0,0:0:0:0:
475,352,46061,1,0,0:0:0:0:
329,352,46158,1,0,0:0:0:0:
402,352,46255,1,0,0:0:0:0:
329,352,46351,1,0,0:0:0:0:
475,352,46448,1,0,0:0:0:0:
256,352,46545,1,8,0:0:0:0:
475,352,46642,1,0,0:0:0:0:
329,352,46739,1,0,0:0:0:0:
475,352,46835,1,0,0:0:0:0:
36,352,46932,1,0,0:0:0:0:
182,352,47126,1,0,0:0:0:0:
256,352,47319,1,8,0:0:0:0:
475,352,47513,1,0,0:0:0:0:
329,352,47610,1,0,0:0:0:0:
182,352,47706,1,0,0:0:0:0:
36,352,47803,1,0,0:0:0:0:
182,352,47900,1,0,0:0:0:0:
329,352,47997,1,0,0:0:0:0:
256,352,48093,1,8,0:0:0:0:
475,352,48190,1,0,0:0:0:0:
329,352,48287,1,0,0:0:0:0:
182,352,48384,1,0,0:0:0:0:
256,352,48480,2,0,L|256:208,4,140
36,352,50029,6,0,L|36:256,1,70
182,352,50222,2,0,L|182:272,1,70
256,352,50416,2,0,L|256:272,1,70
402,352,50610,2,0,L|402:272,1,70
475,352,50803,2,0,L|475:256,1,70
329,352,50997,2,0,L|329:272,1,70
256,352,51190,2,0,L|256:272,1,70
182,352,51384,2,0,L|182:256,1,70
36,352,51577,2,0,L|36:272,1,70
475,352,51577,1,0,0:0:0:0:
182,352,51771,2,0,L|182:272,1,70
329,352,51964,2,0,L|329:256,1,70
182,352,52158,2,0,L|182:272,1,70
475,352,52351,2,0,L|475:272,1,70
329,352,52545,2,0,L|329:272,1,70
256,352,52739,2,0,L|256:272,3,70
182,352,52835,1,0,0:0:0:0:
36,352,53126,1,0,0:0:0:0:
109,352,53319,2,0,L|109:272,1,70
256,352,53513,2,0,L|256:272,1,70
402,352,53706,2,0,L|402:272,1,70
475,352,53900,2,0,L|475:272,1,70
329,352,54093,2,0,L|329:256,1,70
182,352,54287,2,0,L|182:272,1,70
109,352,54480,2,0,L|109:256,1,70
256,352,54674,2,0,L|256:272,1,70
182,352,54868,2,0,L|182:256,1,70
329,352,55061,2,0,L|329:256,1,70
256,352,55255,2,0,L|256:256,1,70
402,352,55448,2,0,L|402:256,1,70
329,352,55642,2,0,L|329:272,1,70
475,352,55835,2,0,L|475:256,1,70
402,352,56029,2,0,L|402:272,1,70
109,352,56222,2,0,L|109:256,1,70
36,352,56222,1,0,0:0:0:0:
182,352,56416,2,0,L|182:256,1,70
256,352,56610,2,0,L|256:256,1,70
329,352,56803,2,0,L|329:272,1,70
402,352,56997,2,0,L|402:256,1,70
36,352,57190,2,0,L|36:256,1,70
256,352,57384,2,0,L|256:256,1,70
475,352,57577,2,0,L|475:256,1,70
402,352,57771,2,0,L|402:256,1,70
329,352,57964,2,0,L|329:272,1,70
256,352,58158,2,0,L|256:256,1,70
182,352,58351,2,0,L|182:272,1,70
109,352,58545,2,0,L|109:272,1,70
475,352,58739,2,0,L|475:272,1,70
256,352,58932,2,0,L|256:272,1,70
36,352,59126,2,0,L|36:272,1,70
329,352,59319,1,0,0:0:0:0:
182,352,59319,1,0,0:0:0:0:
109,352,60093,1,0,0:0:0:0:
256,352,60093,1,0,0:0:0:0:
402,352,60093,1,0,0:0:0:0:
182,352,60868,2,0,L|182:208,3,140
36,352,60868,2,0,L|36:208,3,140
329,352,60868,2,0,L|329:208,3,140
475,352,60868,2,0,L|475:208,3,140
36,352,62416,5,0,0:0:0:0:
182,352,62416,1,0,0:0:0:0:
475,352,62610,1,0,0:0:0:0:
109,352,62803,1,0,0:0:0:0:
256,352,62803,1,8,0:0:0:0:
475,352,62997,1,0,0:0:0:0:
402,352,63093,1,0,0:0:0:0:
182,352,63190,1,0,0:0:0:0:
329,352,63190,1,0,0:0:0:0:
109,352,63287,1,0,0:0:0:0:
36,352,63384,1,0,0:0:0:0:
109,352,63480,1,0,0:0:0:0:
402,352,63577,1,0,0:0:0:0:
256,352,63577,1,8,0:0:0:0:
36,352,63771,1,0,0:0:0:0:
475,352,63964,2,0,L|475:256,1,70
329,352,64158,2,0,L|329:272,1,70
182,352,64158,1,0,0:0:0:0:
402,352,64351,2,0,L|402:272,1,70
36,352,64351,1,8,0:0:0:0:
256,352,64545,2,0,L|256:272,1,70
182,352,64545,1,0,0:0:0:0:
109,352,64642,1,0,0:0:0:0:
329,352,64739,2,0,L|329:192,2,140
36,352,64739,1,0,0:0:0:0:
182,352,64835,1,0,0:0:0:0:
109,352,64932,1,0,0:0:0:0:
182,352,65029,1,0,0:0:0:0:
36,352,65126,1,0,0:0:0:0:
256,352,65126,1,8,0:0:0:0:
109,352,65319,1,0,0:0:0:0:
36,352,65513,1,0,0:0:0:0:
182,352,65513,1,0,0:0:0:0:
475,352,65706,1,0,0:0:0:0:
109,352,65900,1,0,0:0:0:0:
256,352,65900,1,8,0:0:0:0:
475,352,66093,1,0,0:0:0:0:
402,352,66190,1,0,0:0:0:0:
182,352,66287,1,0,0:0:0:0:
329,352,66287,1,0,0:0:0:0:
109,352,66384,1,0,0:0:0:0:
36,352,66480,1,0,0:0:0:0:
109,352,66577,1,0,0:0:0:0:
402,352,66674,1,0,0:0:0:0:
256,352,66674,1,8,0:0:0:0:
36,352,66868,1,0,0:0:0:0:
329,352,67061,1,0,0:0:0:0:
475,352,67061,1,0,0:0:0:0:
109,352,67255,1,0,0:0:0:0:
402,352,67448,1,0,0:0:0:0:
256,352,67448,1,8,0:0:0:0:
109,352,67642,1,0,0:0:0:0:
182,352,67835,2,0,L|182:256,1,70
329,352,67835,2,0,L|329:272,1,70
182,352,68222,2,0,L|182:272,1,70
329,352,68222,2,0,L|329:272,1,70
36,352,68610,1,0,0:0:0:0:
182,352,68610,1,0,0:0:0:0:
475,352,68803,1,0,0:0:0:0:
109,352,68997,1,0,0:0:0:0:
256,352,68997,1,8,0:0:0:0:
402,352,69190,1,0,0:0:0:0:
475,352,69287,1,0,0:0:0:0:
36,352,69384,1,0,0:0:0:0:
182,352,69384,1,0,0:0:0:0:
256,352,69480,1,0,0:0:0:0:
475,352,69577,1,0,0:0:0:0:
329,352,69577,1,0,0:0:0:0:
402,352,69674,1,0,0:0:0:0:
109,352,69771,1,0,0:0:0:0:
256,352,69771,1,8,0:0:0:0:
402,352,69964,1,0,0:0:0:0:
329,352,70158,2,0,L|329:272,1,70
182,352,70351,2,0,L|182:272,1,70
475,352,70351,1,0,0:0:0:0:
402,352,70545,2,0,L|402:256,1,70
256,352,70545,1,8,0:0:0:0:
109,352,70739,2,0,L|109:272,1,70
36,352,70739,1,0,0:0:0:0:
182,352,70835,1,0,0:0:0:0:
256,352,70932,2,0,L|256:192,2,140
329,352,70932,1,0,0:0:0:0:
402,352,71029,1,0,0:0:0:0:
475,352,71126,1,0,0:0:0:0:
329,352,71222,1,0,0:0:0:0:
182,336,71319,1,0,0:0:0:0:
402,352,71319,1,8,0:0:0:0:
36,352,71513,1,0,0:0:0:0:
329,352,71706,1,0,0:0:0:0:
475,352,71706,1,0,0:0:0:0:
182,352,71900,1,0,0:0:0:0:
402,352,72093,1,0,0:0:0:0:
256,352,72093,1,8,0:0:0:0:
36,352,72287,1,0,0:0:0:0:
109,336,72384,1,0,0:0:0:0:
329,352,72480,1,0,0:0:0:0:
182,352,72480,1,0,0:0:0:0:
402,352,72577,1,0,0:0:0:0:
475,352,72674,1,0,0:0:0:0:
402,352,72771,1,0,0:0:0:0:
109,352,72868,1,0,0:0:0:0:
256,352,72868,1,8,0:0:0:0:
329,352,73061,1,0,0:0:0:0:
256,352,73158,1,0,0:0:0:0:
36,352,73255,1,0,0:0:0:0:
182,352,73255,1,0,0:0:0:0:
329,352,73448,1,0,0:0:0:0:
402,352,73545,1,0,0:0:0:0:
109,352,73642,1,0,0:0:0:0:
256,352,73642,1,8,0:0:0:0:
475,352,73835,1,0,0:0:0:0:
402,352,73932,1,0,0:0:0:0:
182,352,74029,1,0,0:0:0:0:
329,352,74029,1,0,0:0:0:0:
36,352,74222,1,0,0:0:0:0:
109,352,74319,1,0,0:0:0:0:
402,352,74416,1,0,0:0:0:0:
256,352,74416,1,8,0:0:0:0:
182,352,74610,1,0,0:0:0:0:
256,352,74803,2,0,L|256:272,4,70
109,352,76351,6,0,L|109:272,1,70
36,352,76351,1,0,0:0:0:0:
256,352,76739,1,8,0:0:0:0:
256,352,77126,1,8,0:0:0:0:
402,352,77513,2,0,L|402:272,1,70
475,352,77513,1,0,0:0:0:0:
256,352,77900,1,8,0:0:0:0:
256,352,78287,1,8,0:0:0:0:
109,352,78674,2,0,L|109:272,1,70
36,352,78674,1,0,0:0:0:0:
256,352,79061,1,8,0:0:0:0:
256,352,79448,1,8,0:0:0:0:
402,352,79835,2,0,L|402:272,1,70
475,352,79835,1,0,0:0:0:0:
329,352,80222,2,0,L|329:272,1,70
256,352,80222,1,8,0:0:0:0:
182,352,80610,2,0,L|182:272,1,70
256,352,80610,1,8,0:0:0:0:
109,352,80997,2,0,L|109:272,1,70
36,352,80997,1,0,0:0:0:0:
475,352,80997,1,0,0:0:0:0:
256,352,81384,1,8,0:0:0:0:
256,352,81771,1,8,0:0:0:0:
402,352,82158,2,0,L|402:272,1,70
475,352,82158,1,0,0:0:0:0:
256,352,82545,1,8,0:0:0:0:
256,352,82932,1,8,0:0:0:0:
109,352,83319,2,0,L|109:272,1,70
36,352,83319,1,0,0:0:0:0:
256,352,83706,1,8,0:0:0:0:
256,352,84093,1,8,0:0:0:0:
109,352,84480,2,0,L|109:272,1,70
475,352,84480,1,0,0:0:0:0:
182,352,84868,2,0,L|182:272,1,70
256,352,84868,1,8,0:0:0:0:
256,352,85061,1,8,0:0:0:0:
329,352,85255,2,0,L|329:272,1,70
256,352,85255,1,8,0:0:0:0:
256,352,85448,1,8,0:0:0:0:
402,352,85642,2,0,L|402:272,1,70
475,352,85642,1,0,0:0:0:0:
36,352,85642,1,0,0:0:0:0:
256,352,86029,1,8,0:0:0:0:
256,352,86416,1,8,0:0:0:0:
109,352,86803,2,0,L|109:272,1,70
475,352,86803,1,0,0:0:0:0:
256,352,87190,1,8,0:0:0:0:
256,352,87577,1,8,0:0:0:0:
402,352,87964,2,0,L|402:272,1,70
36,352,87964,1,0,0:0:0:0:
256,352,88351,1,8,0:0:0:0:
256,352,88739,1,8,0:0:0:0:
109,352,89126,2,0,L|109:256,1,83.9999974365235
475,352,89126,1,0,0:0:0:0:
402,352,89319,1,0,0:0:0:0:
182,352,89513,2,0,L|182:240,1,97.9999970092774
329,352,89513,1,0,0:0:0:0:
256,352,89706,1,0,0:0:0:0:
329,352,89900,2,0,L|329:240,1,112
109,352,89900,1,0,0:0:0:0:
36,352,90093,1,0,0:0:0:0:
402,352,90287,2,0,L|402:208,1,140
36,352,90287,1,0,0:0:0:0:
256,352,90480,1,8,0:0:0:0:
36,352,90674,1,0,0:0:0:0:
475,352,90771,1,0,0:0:0:0:
256,352,90868,1,8,0:0:0:0:
36,352,91061,1,0,0:0:0:0:
256,352,91255,1,8,0:0:0:0:
475,352,91351,1,0,0:0:0:0:
109,352,91448,2,0,L|109:208,1,140
36,352,91448,1,0,0:0:0:0:
475,352,91545,1,0,0:0:0:0:
256,352,91642,1,8,0:0:0:0:
36,352,91835,1,0,0:0:0:0:
475,352,91932,1,0,0:0:0:0:
256,352,92029,1,8,0:0:0:0:
36,352,92222,1,0,0:0:0:0:
475,352,92319,1,0,0:0:0:0:
36,352,92416,1,0,0:0:0:0:
256,352,92416,1,8,0:0:0:0:
475,352,92513,1,0,0:0:0:0:
402,352,92610,2,0,L|402:208,1,140
36,352,92610,1,0,0:0:0:0:
256,352,92803,1,8,0:0:0:0:
475,352,92900,1,0,0:0:0:0:
36,352,92997,1,0,0:0:0:0:
475,352,93093,1,0,0:0:0:0:
256,352,93190,1,8,0:0:0:0:
182,352,93384,1,0,0:0:0:0:
36,352,93480,1,0,0:0:0:0:
182,352,93577,1,0,0:0:0:0:
256,352,93577,1,8,0:0:0:0:
36,352,93674,1,0,0:0:0:0:
109,352,93771,2,0,L|109:192,1,140
329,352,93771,1,0,0:0:0:0:
475,352,93868,1,0,0:0:0:0:
329,352,93964,1,0,0:0:0:0:
256,352,93964,1,8,0:0:0:0:
475,352,94061,1,0,0:0:0:0:
402,352,94158,2,0,L|402:208,1,140
182,352,94158,1,0,0:0:0:0:
36,352,94255,1,0,0:0:0:0:
182,352,94351,1,0,0:0:0:0:
256,352,94351,1,8,0:0:0:0:
36,352,94448,1,0,0:0:0:0:
182,352,94545,2,0,L|182:192,1,140
329,352,94545,1,0,0:0:0:0:
256,352,94545,1,8,0:0:0:0:
475,352,94642,1,0,0:0:0:0:
329,352,94739,1,0,0:0:0:0:
256,352,94739,1,8,0:0:0:0:
475,352,94835,1,0,0:0:0:0:
329,352,94932,2,0,L|329:208,1,140
36,352,94932,1,4,0:0:0:0:
475,352,95029,1,0,0:0:0:0:
109,352,95126,1,0,0:0:0:0:
402,352,95222,1,0,0:0:0:0:
475,352,95319,1,4,0:0:0:0:
36,352,95416,1,0,0:0:0:0:
402,352,95513,1,0,0:0:0:0:
109,352,95610,1,0,0:0:0:0:
36,352,95706,1,4,0:0:0:0:
475,352,95803,1,0,0:0:0:0:
109,352,95900,1,0,0:0:0:0:
402,352,95997,1,0,0:0:0:0:
182,352,96093,2,0,L|182:192,1,140
475,352,96093,1,4,0:0:0:0:
36,352,96190,1,0,0:0:0:0:
402,352,96287,1,0,0:0:0:0:
109,352,96384,1,0,0:0:0:0:
475,352,96480,1,4,0:0:0:0:
36,352,96577,1,0,0:0:0:0:
402,352,96674,1,0,0:0:0:0:
109,352,96771,1,0,0:0:0:0:
475,352,96868,1,4,0:0:0:0:
36,352,96964,1,0,0:0:0:0:
402,352,97061,1,0,0:0:0:0:
109,352,97158,1,0,0:0:0:0:
329,352,97255,2,0,L|329:208,1,140
36,352,97255,1,0,0:0:0:0:
475,352,97351,1,0,0:0:0:0:
109,352,97448,1,0,0:0:0:0:
402,352,97545,1,0,0:0:0:0:
475,352,97642,1,0,0:0:0:0:
36,352,97739,1,0,0:0:0:0:
402,352,97835,1,0,0:0:0:0:
109,352,97932,1,0,0:0:0:0:
36,352,98029,1,0,0:0:0:0:
475,352,98126,1,0,0:0:0:0:
109,352,98222,1,0,0:0:0:0:
402,352,98319,1,0,0:0:0:0:
256,352,98416,2,0,L|256:192,1,140
475,352,98416,2,0,L|475:208,1,140
182,352,98803,2,0,L|182:208,1,140
36,352,98803,2,0,L|36:208,1,140
329,352,99190,2,0,L|329:192,1,140
475,352,99190,2,0,L|475:208,1,140
256,352,99577,2,0,L|256:192,16,140
36,352,105771,5,0,0:0:0:0:
109,352,106158,1,8,0:0:0:0:
182,352,106545,1,0,0:0:0:0:
256,352,106932,1,8,0:0:0:0:
475,352,107319,1,0,0:0:0:0:
402,352,107706,1,8,0:0:0:0:
329,352,108093,1,0,0:0:0:0:
256,352,108480,1,8,0:0:0:0:
109,352,108868,1,0,0:0:0:0:
402,352,109255,1,8,0:0:0:0:
182,352,109642,1,0,0:0:0:0:
329,352,110029,1,8,0:0:0:0:
36,352,110416,1,0,0:0:0:0:
475,352,110803,1,8,0:0:0:0:
182,352,111190,1,0,0:0:0:0:
329,352,111577,1,8,0:0:0:0:
109,352,111964,1,0,0:0:0:0:
402,352,112351,1,8,0:0:0:0:
256,352,112351,1,8,0:0:0:0:
109,352,112739,1,0,0:0:0:0:
402,352,113126,1,8,0:0:0:0:
256,352,113126,1,8,0:0:0:0:
402,352,113513,1,0,0:0:0:0:
109,352,113900,1,8,0:0:0:0:
256,352,113900,1,8,0:0:0:0:
402,352,114287,1,0,0:0:0:0:
109,352,114674,1,8,0:0:0:0:
256,352,114674,1,8,0:0:0:0:
36,352,115061,1,0,0:0:0:0:
475,352,115448,1,8,0:0:0:0:
256,352,115448,1,8,0:0:0:0:
475,352,115835,1,0,0:0:0:0:
36,352,116222,1,8,0:0:0:0:
256,352,116222,1,8,0:0:0:0:
329,352,116610,1,0,0:0:0:0:
402,352,116997,1,8,0:0:0:0:
256,352,116997,1,8,0:0:0:0:
182,352,117384,1,0,0:0:0:0:
109,352,117771,1,8,0:0:0:0:
256,352,117771,1,8,0:0:0:0:
36,352,118158,6,0,L|36:288,1,35
475,352,118158,1,0,0:0:0:0:
109,352,118255,2,0,L|109:304,1,35
182,352,118351,2,0,L|182:304,1,35
256,352,118448,2,0,L|256:304,1,35
475,352,118545,2,0,L|475:304,1,35
36,352,118545,1,8,0:0:0:0:
402,352,118642,2,0,L|402:304,1,35
329,352,118739,2,0,L|329:304,1,35
256,352,118835,2,0,L|256:304,1,35
329,352,118932,2,0,L|329:304,1,35
109,352,118932,1,0,0:0:0:0:
182,352,119029,2,0,L|182:288,1,35
402,352,119126,2,0,L|402:288,1,35
109,352,119222,2,0,L|109:288,1,35
475,352,119319,2,0,L|475:304,1,35
256,352,119319,1,8,0:0:0:0:
36,352,119416,2,0,L|36:288,1,35
402,352,119513,2,0,L|402:288,1,35
109,352,119610,2,0,L|109:304,1,35
256,352,119706,2,0,L|256:304,1,35
475,352,119706,1,0,0:0:0:0:
182,352,119803,2,0,L|182:304,1,35
109,352,119900,2,0,L|109:304,1,35
36,352,119997,2,0,L|36:288,1,35
256,352,120093,2,0,L|256:304,1,35
402,352,120093,1,8,0:0:0:0:
329,352,120190,2,0,L|329:304,1,35
402,352,120287,2,0,L|402:304,1,35
475,352,120384,2,0,L|475:288,1,35
36,352,120480,2,0,L|36:304,1,35
256,352,120480,1,0,0:0:0:0:
475,352,120577,2,0,L|475:304,1,35
109,352,120674,2,0,L|109:304,1,35
402,352,120771,2,0,L|402:288,1,35
182,352,120868,2,0,L|182:288,1,35
256,352,120868,1,8,0:0:0:0:
329,352,120964,2,0,L|329:288,1,35
109,352,121061,2,0,L|109:304,1,35
402,352,121158,2,0,L|402:304,1,35
256,352,121255,2,0,L|256:304,1,35
475,352,121255,1,0,0:0:0:0:
182,352,121351,2,0,L|182:304,1,35
36,352,121448,2,0,L|36:304,1,35
182,352,121545,2,0,L|182:304,1,35
256,352,121642,2,0,L|256:304,1,35
109,352,121642,1,8,0:0:0:0:
329,352,121739,2,0,L|329:304,1,35
475,352,121835,2,0,L|475:304,1,35
329,352,121932,2,0,L|329:304,1,35
402,352,122029,2,0,L|402:304,1,35
36,352,122029,1,0,0:0:0:0:
109,352,122126,2,0,L|109:288,1,35
329,352,122222,2,0,L|329:304,1,35
182,352,122319,2,0,L|182:304,1,35
402,352,122416,2,0,L|402:304,1,35
256,352,122416,1,8,0:0:0:0:
109,352,122513,2,0,L|109:304,1,35
475,352,122610,2,0,L|475:304,1,35
36,352,122706,2,0,L|36:304,1,35
256,352,122803,2,0,L|256:304,1,35
402,352,122803,1,0,0:0:0:0:
109,352,122900,2,0,L|109:288,1,35
329,352,122997,2,0,L|329:304,1,35
182,352,123093,2,0,L|182:304,1,35
256,352,123190,2,0,L|256:304,1,35
36,352,123190,1,8,0:0:0:0:
402,352,123287,2,0,L|402:304,1,35
182,352,123384,2,0,L|182:304,1,35
329,352,123480,2,0,L|329:304,1,35
475,352,123577,2,0,L|475:304,1,35
109,352,123577,1,0,0:0:0:0:
329,352,123674,2,0,L|329:304,1,35
256,352,123771,2,0,L|256:304,1,35
109,352,123868,2,0,L|109:304,1,35
36,352,123964,2,0,L|36:304,1,35
475,352,123964,1,8,0:0:0:0:
182,352,124061,2,0,L|182:304,1,35
256,352,124158,2,0,L|256:304,1,35
402,352,124255,2,0,L|402:288,1,35
182,352,124351,1,0,0:0:0:0:
329,352,124351,1,0,0:0:0:0:
109,352,124448,1,0,0:0:0:0:
36,352,124545,1,0,0:0:0:0:
256,352,124642,1,0,0:0:0:0:
329,352,124739,1,0,0:0:0:0:
182,352,124739,1,8,0:0:0:0:
402,352,124835,1,0,0:0:0:0:
475,352,124932,1,0,0:0:0:0:
256,352,125029,1,0,0:0:0:0:
36,352,125126,1,0,0:0:0:0:
182,352,125126,1,0,0:0:0:0:
329,352,125222,1,0,0:0:0:0:
109,352,125319,1,0,0:0:0:0:
402,352,125416,1,0,0:0:0:0:
182,352,125513,1,0,0:0:0:0:
329,352,125513,1,8,0:0:0:0:
475,352,125610,1,0,0:0:0:0:
109,352,125706,1,0,0:0:0:0:
402,352,125803,1,0,0:0:0:0:
475,352,125900,1,0,0:0:0:0:
36,352,125900,1,0,0:0:0:0:
402,352,125997,1,0,0:0:0:0:
329,352,126093,1,0,0:0:0:0:
256,352,126190,1,0,0:0:0:0:
36,352,126287,1,0,0:0:0:0:
475,352,126287,1,8,0:0:0:0:
109,352,126384,1,0,0:0:0:0:
182,352,126480,1,0,0:0:0:0:
256,352,126577,1,0,0:0:0:0:
475,352,126674,1,0,0:0:0:0:
329,352,126674,1,0,0:0:0:0:
182,352,126771,1,0,0:0:0:0:
402,352,126868,1,0,0:0:0:0:
109,352,126964,1,0,0:0:0:0:
329,352,127061,1,0,0:0:0:0:
182,352,127061,1,8,0:0:0:0:
36,352,127158,1,0,0:0:0:0:
402,352,127255,1,0,0:0:0:0:
109,352,127351,1,0,0:0:0:0:
329,352,127448,1,0,0:0:0:0:
36,352,127448,1,0,0:0:0:0:
402,352,127545,1,0,0:0:0:0:
256,352,127642,1,0,0:0:0:0:
475,352,127739,1,0,0:0:0:0:
182,352,127835,1,0,0:0:0:0:
36,352,127835,1,8,0:0:0:0:
109,352,127932,1,0,0:0:0:0:
256,352,128029,1,0,0:0:0:0:
36,352,128126,1,0,0:0:0:0:
329,352,128222,1,0,0:0:0:0:
475,352,128222,1,0,0:0:0:0:
182,352,128319,1,0,0:0:0:0:
329,352,128416,1,0,0:0:0:0:
182,352,128513,1,0,0:0:0:0:
402,352,128610,1,0,0:0:0:0:
475,352,128610,1,8,0:0:0:0:
109,352,128706,1,0,0:0:0:0:
402,352,128803,1,0,0:0:0:0:
109,352,128900,1,0,0:0:0:0:
475,352,128997,1,0,0:0:0:0:
36,352,128997,1,0,0:0:0:0:
402,352,129093,1,0,0:0:0:0:
329,352,129190,1,0,0:0:0:0:
256,352,129287,2,0,L|256:272,1,70
36,352,129384,1,8,0:0:0:0:
329,352,129480,1,0,0:0:0:0:
256,352,129577,1,0,0:0:0:0:
182,352,129674,1,0,0:0:0:0:
36,352,129771,1,0,0:0:0:0:
475,352,129771,1,0,0:0:0:0:
109,352,129868,1,0,0:0:0:0:
182,352,129964,1,0,0:0:0:0:
256,352,130061,1,0,0:0:0:0:
329,352,130158,2,0,L|329:272,1,70
475,352,130158,1,8,0:0:0:0:
402,352,130351,2,0,L|402:256,1,70
36,352,130545,1,0,0:0:0:0:
256,352,130545,1,0,0:0:0:0:
329,352,130642,1,0,0:0:0:0:
109,352,130739,1,0,0:0:0:0:
402,352,130835,1,0,0:0:0:0:
182,352,130932,1,0,0:0:0:0:
256,352,130932,1,8,0:0:0:0:
475,352,131029,1,0,0:0:0:0:
109,352,131126,1,0,0:0:0:0:
402,352,131222,1,0,0:0:0:0:
36,352,131319,1,0,0:0:0:0:
256,352,131319,1,0,0:0:0:0:
329,352,131416,1,0,0:0:0:0:
109,352,131513,1,0,0:0:0:0:
402,352,131610,1,0,0:0:0:0:
256,352,131706,1,8,0:0:0:0:
256,352,132093,1,0,0:0:0:0:
36,352,132093,1,0,0:0:0:0:
329,352,132190,1,0,0:0:0:0:
182,352,132287,1,0,0:0:0:0:
402,352,132384,1,0,0:0:0:0:
109,352,132480,1,0,0:0:0:0:
256,352,132480,1,8,0:0:0:0:
475,352,132577,1,0,0:0:0:0:
36,352,132674,1,0,0:0:0:0:
402,352,132771,1,0,0:0:0:0:
109,352,132868,1,0,0:0:0:0:
475,352,132868,1,0,0:0:0:0:
182,352,132964,1,0,0:0:0:0:
256,352,133061,1,0,0:0:0:0:
329,352,133158,1,0,0:0:0:0:
402,352,133255,1,0,0:0:0:0:
256,352,133255,1,8,0:0:0:0:
329,352,133351,1,0,0:0:0:0:
256,352,133448,1,0,0:0:0:0:
182,352,133545,1,0,0:0:0:0:
36,352,133642,1,0,0:0:0:0:
475,352,133642,1,0,0:0:0:0:
329,352,133739,1,0,0:0:0:0:
109,352,133835,1,0,0:0:0:0:
402,352,133932,1,0,0:0:0:0:
36,352,134029,1,0,0:0:0:0:
475,352,134029,1,8,0:0:0:0:
329,352,134126,1,0,0:0:0:0:
109,352,134222,1,0,0:0:0:0:
402,352,134319,1,0,0:0:0:0:
182,352,134416,1,0,0:0:0:0:
36,352,134416,1,0,0:0:0:0:
475,352,134513,1,0,0:0:0:0:
109,352,134610,1,0,0:0:0:0:
402,352,134706,1,0,0:0:0:0:
182,352,134803,1,0,0:0:0:0:
36,352,134803,1,8,0:0:0:0:
475,352,134900,1,0,0:0:0:0:
109,352,134997,1,0,0:0:0:0:
402,352,135093,1,0,0:0:0:0:
256,352,135190,2,0,L|256:192,4,140
109,352,136739,6,0,L|109:256,1,70
36,352,136739,1,0,0:0:0:0:
182,352,136932,2,0,L|182:272,1,70
329,352,137126,2,0,L|329:272,1,70
475,352,137126,1,0,0:0:0:0:
402,352,137319,2,0,L|402:272,1,70
36,352,137513,2,0,L|36:256,1,70
182,352,137706,2,0,L|182:256,1,70
329,352,137900,2,0,L|329:272,1,70
475,352,138093,2,0,L|475:272,1,70
402,352,138287,2,0,L|402:256,1,70
329,352,138480,2,0,L|329:272,1,70
182,352,138674,2,0,L|182:272,1,70
109,352,138868,2,0,L|109:256,1,70
475,352,139061,2,0,L|475:256,1,70
329,352,139255,2,0,L|329:272,1,70
182,352,139448,2,0,L|182:272,1,70
36,352,139642,2,0,L|36:256,1,70
475,352,139739,1,0,0:0:0:0:
402,352,139739,1,0,0:0:0:0:
109,352,139835,2,0,L|109:256,1,70
256,352,140029,2,0,L|256:256,1,70
182,352,140222,2,0,L|182:272,1,70
329,352,140416,2,0,L|329:256,1,70
256,352,140610,2,0,L|256:256,1,70
402,352,140803,2,0,L|402:256,1,70
329,352,140997,2,0,L|329:256,1,70
475,352,141190,2,0,L|475:256,1,70
402,352,141384,2,0,L|402:272,1,70
475,352,141577,2,0,L|475:272,1,70
36,352,141577,1,0,0:0:0:0:
402,352,141771,2,0,L|402:272,1,70
329,352,141964,2,0,L|329:256,1,70
256,352,142158,2,0,L|256:272,1,70
182,352,142351,2,0,L|182:256,1,70
475,352,142351,1,0,0:0:0:0:
109,352,142545,2,0,L|109:256,1,70
36,352,142739,2,0,L|36:256,1,70
256,352,142932,2,0,L|256:256,1,70
475,352,142932,1,0,0:0:0:0:
329,352,143126,2,0,L|329:272,1,70
475,352,143319,2,0,L|475:272,1,70
329,352,143513,2,0,L|329:256,1,70
256,352,143706,2,0,L|256:272,1,70
182,352,143900,2,0,L|182:272,1,70
36,352,144093,2,0,L|36:272,1,70
182,352,144287,2,0,L|182:272,1,70
109,352,144480,2,0,L|109:256,1,70
475,352,144480,1,0,0:0:0:0:
256,352,144674,2,0,L|256:256,1,70
402,352,144868,2,0,L|402:272,1,70
36,352,144868,1,0,0:0:0:0:
256,352,145061,2,0,L|256:256,1,70
109,352,145255,2,0,L|109:272,1,70
475,352,145255,2,0,L|475:192,2,140
402,352,145448,2,0,L|402:256,1,70
256,352,145642,2,0,L|256:256,1,70
109,352,145835,2,0,L|109:256,1,70
182,352,146029,1,0,0:0:0:0:
329,352,146029,1,0,0:0:0:0:
402,352,146803,1,0,0:0:0:0:
256,352,146803,1,0,0:0:0:0:
109,352,146803,1,0,0:0:0:0:
475,352,147577,2,0,L|475:208,4,140
36,352,147577,2,0,L|36:208,4,140
256,352,147964,1,0,0:0:0:0:
256,352,148351,1,0,0:0:0:0:
256,352,148739,1,0,0:0:0:0:
256,352,149126,2,0,L|256:208,2,140
182,352,149900,5,0,0:0:0:0:
36,352,149900,1,0,0:0:0:0:
402,352,150093,1,0,0:0:0:0:
36,352,150287,1,0,0:0:0:0:
182,352,150287,1,8,0:0:0:0:
475,352,150480,1,0,0:0:0:0:
329,352,150577,1,0,0:0:0:0:
109,352,150674,1,0,0:0:0:0:
256,352,150674,1,0,0:0:0:0:
329,352,150771,1,0,0:0:0:0:
402,352,150868,1,0,0:0:0:0:
475,352,150964,1,0,0:0:0:0:
109,352,151061,1,0,0:0:0:0:
256,352,151061,1,8,0:0:0:0:
475,352,151255,1,0,0:0:0:0:
402,352,151448,1,0,0:0:0:0:
256,352,151448,1,0,0:0:0:0:
109,352,151642,1,0,0:0:0:0:
402,352,151835,1,0,0:0:0:0:
256,352,151835,1,8,0:0:0:0:
36,352,152029,1,0,0:0:0:0:
182,352,152126,1,0,0:0:0:0:
329,352,152222,1,0,0:0:0:0:
475,352,152222,1,0,0:0:0:0:
182,352,152319,1,0,0:0:0:0:
109,352,152416,1,0,0:0:0:0:
36,352,152513,1,0,0:0:0:0:
475,352,152610,1,0,0:0:0:0:
329,352,152610,1,8,0:0:0:0:
36,352,152803,1,0,0:0:0:0:
182,352,152997,1,0,0:0:0:0:
329,352,152997,1,0,0:0:0:0:
475,352,153190,1,0,0:0:0:0:
329,352,153384,1,0,0:0:0:0:
182,352,153384,1,8,0:0:0:0:
36,352,153577,1,0,0:0:0:0:
182,352,153674,1,0,0:0:0:0:
109,352,153771,1,0,0:0:0:0:
402,352,153771,1,0,0:0:0:0:
182,352,153868,1,0,0:0:0:0:
329,352,153964,1,0,0:0:0:0:
36,352,153964,1,0,0:0:0:0:
182,352,154061,1,0,0:0:0:0:
109,352,154158,1,0,0:0:0:0:
402,352,154158,1,8,0:0:0:0:
182,352,154351,1,0,0:0:0:0:
36,352,154545,1,0,0:0:0:0:
475,352,154545,1,0,0:0:0:0:
329,352,154739,1,0,0:0:0:0:
36,352,154932,1,0,0:0:0:0:
475,352,154932,1,8,0:0:0:0:
182,352,155126,1,0,0:0:0:0:
329,352,155222,1,0,0:0:0:0:
109,352,155319,2,0,L|109:256,1,70
256,352,155319,2,0,L|256:272,1,70
402,352,155319,2,0,L|402:272,1,70
329,352,155706,2,0,L|329:272,1,70
182,352,155706,2,0,L|182:272,1,70
256,352,156093,1,0,0:0:0:0:
109,352,156093,1,0,0:0:0:0:
329,352,156287,1,0,0:0:0:0:
36,352,156480,1,0,0:0:0:0:
182,352,156480,1,8,0:0:0:0:
402,352,156674,1,0,0:0:0:0:
475,352,156771,1,0,0:0:0:0:
182,352,156868,1,0,0:0:0:0:
329,352,156868,1,0,0:0:0:0:
36,352,156964,1,0,0:0:0:0:
475,352,157061,1,0,0:0:0:0:
109,352,157061,1,0,0:0:0:0:
182,352,157158,1,0,0:0:0:0:
109,352,157255,1,0,0:0:0:0:
256,352,157255,1,8,0:0:0:0:
329,352,157448,1,0,0:0:0:0:
256,352,157642,1,0,0:0:0:0:
402,352,157642,1,0,0:0:0:0:
182,352,157835,1,0,0:0:0:0:
475,352,158029,1,0,0:0:0:0:
329,352,158029,1,8,0:0:0:0:
109,352,158222,1,0,0:0:0:0:
36,352,158319,1,0,0:0:0:0:
329,352,158416,1,0,0:0:0:0:
182,352,158416,1,0,0:0:0:0:
475,352,158513,1,0,0:0:0:0:
36,352,158610,1,0,0:0:0:0:
402,352,158610,1,0,0:0:0:0:
329,352,158706,1,0,0:0:0:0:
402,352,158803,1,0,0:0:0:0:
256,352,158803,1,8,0:0:0:0:
109,352,158997,1,0,0:0:0:0:
182,352,159190,1,0,0:0:0:0:
36,352,159190,1,0,0:0:0:0:
402,352,159384,1,0,0:0:0:0:
36,352,159577,1,0,0:0:0:0:
182,352,159577,1,8,0:0:0:0:
256,352,159771,1,0,0:0:0:0:
182,352,159868,1,0,0:0:0:0:
329,352,159964,1,0,0:0:0:0:
475,352,159964,1,0,0:0:0:0:
36,352,160061,1,0,0:0:0:0:
109,352,160158,1,0,0:0:0:0:
182,352,160255,1,0,0:0:0:0:
475,352,160351,1,0,0:0:0:0:
329,352,160351,1,8,0:0:0:0:
256,352,160545,1,0,0:0:0:0:
109,352,160739,1,0,0:0:0:0:
402,352,160739,1,0,0:0:0:0:
36,352,160932,1,0,0:0:0:0:
109,352,161126,1,0,0:0:0:0:
402,352,161126,1,8,0:0:0:0:
475,352,161319,1,0,0:0:0:0:
182,352,161513,2,0,L|182:272,1,70
329,352,161513,2,0,L|329:256,1,70
329,352,161900,2,0,L|329:272,1,70
182,352,161900,2,0,L|182:256,1,70
109,352,162287,1,0,0:0:0:0:
36,352,162287,1,0,0:0:0:0:
329,352,162480,1,0,0:0:0:0:
36,352,162674,1,0,0:0:0:0:
109,352,162674,1,8,0:0:0:0:
256,352,162868,1,0,0:0:0:0:
329,352,162964,1,0,0:0:0:0:
402,352,163061,1,0,0:0:0:0:
475,352,163061,1,0,0:0:0:0:
329,352,163158,1,0,0:0:0:0:
182,352,163255,1,0,0:0:0:0:
109,352,163351,1,0,0:0:0:0:
475,352,163448,1,0,0:0:0:0:
402,352,163448,1,8,0:0:0:0:
329,352,163642,1,0,0:0:0:0:
256,352,163642,1,0,0:0:0:0:
402,352,163739,1,0,0:0:0:0:
475,352,163835,1,0,0:0:0:0:
36,352,163835,1,0,0:0:0:0:
109,352,163835,1,0,0:0:0:0:
402,352,163932,1,0,0:0:0:0:
329,352,164029,1,0,0:0:0:0:
256,352,164126,1,0,0:0:0:0:
182,352,164222,1,0,0:0:0:0:
475,352,164222,1,0,0:0:0:0:
402,352,164222,1,8,0:0:0:0:
109,352,164319,1,0,0:0:0:0:
36,352,164416,1,0,0:0:0:0:
475,352,164513,1,0,0:0:0:0:
402,352,164610,1,0,0:0:0:0:
182,352,164610,1,0,0:0:0:0:
109,352,164610,1,0,0:0:0:0:
329,352,164706,1,0,0:0:0:0:
36,352,164706,1,0,0:0:0:0:
256,352,164803,1,0,0:0:0:0:
182,352,164900,1,0,0:0:0:0:
109,352,164997,1,0,0:0:0:0:
329,352,164997,1,0,0:0:0:0:
402,352,164997,1,8,0:0:0:0:
36,352,165093,1,0,0:0:0:0:
475,352,165190,1,0,0:0:0:0:
402,352,165287,1,0,0:0:0:0:
182,352,165384,1,0,0:0:0:0:
109,352,165384,1,0,0:0:0:0:
36,352,165577,1,0,0:0:0:0:
109,352,165771,1,0,0:0:0:0:
182,352,165771,1,8,0:0:0:0:
329,352,165964,1,0,0:0:0:0:
402,352,166061,1,0,0:0:0:0:
182,352,166158,1,0,0:0:0:0:
256,352,166158,1,0,0:0:0:0:
36,352,166255,1,0,0:0:0:0:
109,352,166351,1,0,0:0:0:0:
329,352,166448,1,0,0:0:0:0:
182,352,166545,1,0,0:0:0:0:
256,352,166545,1,8,0:0:0:0:
402,352,166739,1,0,0:0:0:0:
256,352,166932,1,0,0:0:0:0:
329,352,166932,1,0,0:0:0:0:
182,352,167126,1,0,0:0:0:0:
329,352,167319,1,0,0:0:0:0:
256,352,167319,1,8,0:0:0:0:
475,352,167513,1,0,0:0:0:0:
36,352,167610,1,0,0:0:0:0:
109,352,167706,2,0,L|109:256,1,70
329,352,167706,2,0,L|329:256,1,70
182,352,168093,2,0,L|182:272,1,70
402,352,168093,2,0,L|402:272,1,70
402,352,168480,1,0,0:0:0:0:
475,352,168480,1,0,0:0:0:0:
329,352,168674,1,0,0:0:0:0:
475,352,168868,1,0,0:0:0:0:
402,352,168868,1,8,0:0:0:0:
256,352,169061,1,0,0:0:0:0:
182,352,169158,1,0,0:0:0:0:
109,352,169255,1,0,0:0:0:0:
36,352,169255,1,0,0:0:0:0:
402,352,169351,1,0,0:0:0:0:
182,352,169448,1,0,0:0:0:0:
329,352,169545,1,0,0:0:0:0:
36,352,169642,1,0,0:0:0:0:
109,352,169642,1,8,0:0:0:0:
256,352,169835,1,0,0:0:0:0:
182,352,169835,1,0,0:0:0:0:
109,352,169932,1,0,0:0:0:0:
36,352,170029,1,0,0:0:0:0:
402,352,170029,1,0,0:0:0:0:
475,352,170029,1,0,0:0:0:0:
109,352,170126,1,0,0:0:0:0:
182,352,170222,1,0,0:0:0:0:
256,352,170319,1,0,0:0:0:0:
329,352,170416,1,0,0:0:0:0:
36,352,170416,1,0,0:0:0:0:
109,352,170416,1,8,0:0:0:0:
402,352,170513,1,0,0:0:0:0:
475,352,170610,1,0,0:0:0:0:
36,352,170706,1,0,0:0:0:0:
109,352,170803,1,0,0:0:0:0:
329,352,170803,1,0,0:0:0:0:
402,352,170803,1,0,0:0:0:0:
182,352,170900,1,0,0:0:0:0:
256,352,170997,1,0,0:0:0:0:
329,352,171093,1,0,0:0:0:0:
402,352,171190,1,0,0:0:0:0:
182,352,171190,1,0,0:0:0:0:
109,352,171190,1,8,0:0:0:0:
475,352,171287,1,0,0:0:0:0:
36,352,171384,1,0,0:0:0:0:
109,352,171480,1,0,0:0:0:0:
329,352,171577,1,0,0:0:0:0:
402,352,171577,1,0,0:0:0:0:
475,352,171771,1,0,0:0:0:0:
402,352,171964,1,0,0:0:0:0:
329,352,171964,1,8,0:0:0:0:
182,352,172158,1,0,0:0:0:0:
109,352,172255,1,0,0:0:0:0:
329,352,172351,1,0,0:0:0:0:
256,352,172351,1,0,0:0:0:0:
475,352,172448,1,0,0:0:0:0:
402,352,172545,1,0,0:0:0:0:
182,352,172642,1,0,0:0:0:0:
329,352,172739,1,0,0:0:0:0:
256,352,172739,1,8,0:0:0:0:
109,352,172932,1,0,0:0:0:0:
256,352,173126,1,0,0:0:0:0:
182,352,173126,1,0,0:0:0:0:
329,352,173319,1,0,0:0:0:0:
256,352,173513,1,0,0:0:0:0:
182,352,173513,1,8,0:0:0:0:
36,352,173706,1,0,0:0:0:0:
329,352,173803,1,0,0:0:0:0:
182,352,173900,1,0,0:0:0:0:
109,352,173900,1,8,0:0:0:0:
402,352,173997,1,0,0:0:0:0:
256,352,174093,1,0,0:0:0:0:
329,352,174190,1,0,0:0:0:0:
182,352,174287,1,0,0:0:0:0:
109,352,174287,1,8,0:0:0:0:
402,352,174480,1,0,0:0:0:0:
182,352,174674,5,0,0:0:0:0:
329,352,174771,1,0,0:0:0:0:
109,352,174868,1,0,0:0:0:0:
402,352,174964,1,0,0:0:0:0:
36,352,175061,1,0,0:0:0:0:
256,352,175061,1,8,0:0:0:0:
329,352,175448,1,0,0:0:0:0:
182,352,175545,1,0,0:0:0:0:
402,352,175642,1,0,0:0:0:0:
109,352,175739,1,0,0:0:0:0:
475,352,175835,1,0,0:0:0:0:
256,352,175835,1,8,0:0:0:0:
182,352,176222,1,0,0:0:0:0:
329,352,176319,1,0,0:0:0:0:
109,352,176416,1,0,0:0:0:0:
402,352,176513,1,0,0:0:0:0:
36,352,176610,1,0,0:0:0:0:
256,352,176610,1,8,0:0:0:0:
475,352,176706,1,0,0:0:0:0:
109,352,176803,1,0,0:0:0:0:
402,352,176900,1,0,0:0:0:0:
256,352,176900,1,8,0:0:0:0:
182,352,176997,1,0,0:0:0:0:
329,352,177093,1,0,0:0:0:0:
256,352,177093,1,8,0:0:0:0:
109,352,177190,1,0,0:0:0:0:
402,352,177287,1,0,0:0:0:0:
36,352,177384,1,0,0:0:0:0:
256,352,177384,1,8,0:0:0:0:
329,352,177771,1,0,0:0:0:0:
182,352,177868,1,0,0:0:0:0:
402,352,177964,1,0,0:0:0:0:
109,352,178061,1,0,0:0:0:0:
475,352,178158,1,0,0:0:0:0:
256,352,178158,1,8,0:0:0:0:
182,352,178545,1,0,0:0:0:0:
329,352,178642,1,0,0:0:0:0:
109,352,178739,1,0,0:0:0:0:
402,352,178835,1,0,0:0:0:0:
36,352,178932,1,0,0:0:0:0:
256,352,178932,1,8,0:0:0:0:
329,352,179319,1,0,0:0:0:0:
182,352,179416,1,0,0:0:0:0:
402,352,179513,1,0,0:0:0:0:
109,352,179610,1,0,0:0:0:0:
475,352,179706,1,0,0:0:0:0:
256,352,179706,1,8,0:0:0:0:
36,352,179803,1,0,0:0:0:0:
402,352,179900,1,0,0:0:0:0:
109,352,179997,1,0,0:0:0:0:
256,352,179997,1,8,0:0:0:0:
329,352,180093,1,0,0:0:0:0:
182,352,180190,1,0,0:0:0:0:
256,352,180190,1,8,0:0:0:0:
402,352,180287,1,0,0:0:0:0:
109,352,180384,1,0,0:0:0:0:
475,352,180480,1,0,0:0:0:0:
256,352,180480,1,8,0:0:0:0:
402,352,180674,1,0,0:0:0:0:
109,352,180868,1,0,0:0:0:0:
182,352,180964,1,0,0:0:0:0:
402,352,181061,1,0,0:0:0:0:
329,352,181158,1,0,0:0:0:0:
109,352,181255,1,0,0:0:0:0:
256,352,181255,1,8,0:0:0:0:
402,352,181642,1,0,0:0:0:0:
329,352,181739,1,0,0:0:0:0:
109,352,181835,1,0,0:0:0:0:
182,352,181932,1,0,0:0:0:0:
402,352,182029,1,0,0:0:0:0:
256,352,182029,1,8,0:0:0:0:
36,352,182416,1,0,0:0:0:0:
182,352,182513,1,0,0:0:0:0:
475,352,182610,1,0,0:0:0:0:
329,352,182706,1,0,0:0:0:0:
109,352,182803,1,0,0:0:0:0:
256,352,182803,1,8,0:0:0:0:
36,352,182900,1,0,0:0:0:0:
402,352,182997,1,0,0:0:0:0:
475,352,183093,1,0,0:0:0:0:
256,352,183093,1,8,0:0:0:0:
182,352,183190,1,0,0:0:0:0:
109,352,183287,1,0,0:0:0:0:
256,352,183287,1,8,0:0:0:0:
329,352,183384,1,0,0:0:0:0:
402,352,183480,1,0,0:0:0:0:
109,352,183577,1,0,0:0:0:0:
256,352,183577,1,8,0:0:0:0:
36,352,183674,1,0,0:0:0:0:
402,352,183771,1,0,0:0:0:0:
402,352,183964,1,0,0:0:0:0:
329,352,184061,1,0,0:0:0:0:
109,352,184158,1,0,0:0:0:0:
182,352,184255,1,0,0:0:0:0:
402,352,184351,1,0,0:0:0:0:
256,352,184351,1,8,0:0:0:0:
109,352,184739,1,0,0:0:0:0:
182,352,184835,1,0,0:0:0:0:
402,352,184932,1,0,0:0:0:0:
329,352,185029,1,0,0:0:0:0:
109,352,185126,1,0,0:0:0:0:
256,352,185126,1,8,0:0:0:0:
329,352,185513,1,0,0:0:0:0:
36,352,185706,1,0,0:0:0:0:
182,352,185900,1,0,0:0:0:0:
36,352,185997,1,0,0:0:0:0:
109,352,186190,1,0,0:0:0:0:
182,352,186287,1,0,0:0:0:0:
256,352,186384,1,0,0:0:0:0:
329,352,186480,1,0,0:0:0:0:
402,352,186577,1,0,0:0:0:0:
475,352,186771,1,0,0:0:0:0:
329,352,186868,1,0,0:0:0:0:
256,352,187061,1,0,0:0:0:0:
36,352,187255,1,0,0:0:0:0:
475,352,187255,1,0,0:0:0:0:
256,352,187448,1,0,0:0:0:0:
402,352,187545,1,0,0:0:0:0:
109,352,187545,1,0,0:0:0:0:
256,352,187739,1,0,0:0:0:0:
182,352,187835,1,0,0:0:0:0:
329,352,187835,1,0,0:0:0:0:
256,352,188029,1,0,0:0:0:0:
109,352,188126,1,0,0:0:0:0:
402,352,188126,1,0,0:0:0:0:
256,352,188319,1,0,0:0:0:0:
329,352,188416,1,0,0:0:0:0:
182,352,188416,1,0,0:0:0:0:
109,352,188513,1,0,0:0:0:0:
402,352,188513,1,0,0:0:0:0:
