osu file format v12

[General]
AudioFilename: Miku&GUMI-Minuet.mp3
AudioLeadIn: 0
PreviewTime: 119387
Countdown: 0
SampleSet: Soft
StackLeniency: 0.7
Mode: 0
LetterboxInBreaks: 1

[Editor]
DistanceSpacing: 1
BeatDivisor: 4
GridSize: 4

[Metadata]
Title:Minuet
TitleUnicode:メヌエット
Artist:rerulili
ArtistUnicode:rerulili
Creator:Sweet Vanilla
Version:Normal
Source:
Tags:Vocaloid sm21027611 Hatsune Miku Megpoid Gumi cossami hinanosuke Vocaloid2
BeatmapID:273175
BeatmapSetID:103718

[Difficulty]
HPDrainRate:3
CircleSize:4
OverallDifficulty:3
ApproachRate:4
SliderMultiplier:1.1
SliderTickRate:1

[Events]
//Background and Video events
Video,-180,"Miku&GUMI-Minuet.avi"
0,0,"background.jpg",0,0
//Break Periods
2,53662,63316
2,108624,115530
//Storyboard Layer 0 (Background)
//Storyboard Layer 1 (Fail)
//Storyboard Layer 2 (Pass)
//Storyboard Layer 3 (Foreground)
//Storyboard Sound Samples
//Background Colour Transformations
3,100,163,162,255

[TimingPoints]
9675,458.015267175573,3,2,1,50,1,0
9675,-100,3,2,1,40,0,0
86621,-100,3,2,2,40,0,1
91659,-100,3,2,1,40,0,1
96926,-100,3,2,1,40,0,0
107002,-100,3,2,3,40,0,0
107460,-100,3,2,1,40,0,0
128987,-100,3,2,3,40,0,0
129445,-100,3,2,1,40,0,0
134941,-100,3,2,3,40,0,0
135399,-100,3,2,1,40,0,0
141583,-100,3,2,2,50,0,1
146621,-100,3,2,1,50,0,1
155094,-100,3,2,1,50,0,0
158071,-100,3,2,1,60,0,1
173873,-100,3,2,2,60,0,1
174331,-100,3,2,1,60,0,1
192193,-100,3,2,2,65,0,1
192651,-100,3,2,1,60,0,1
192880,-100,3,2,1,70,0,0

[Colours]
Combo1 : 255,184,113
Combo2 : 255,147,201
Combo3 : 190,125,255
SliderBorder : 255,255,255

[HitObjects]
68,292,9675,2,0,P|152:272|184:240,1,110,2|8,0:0|0:0,0:0:0:0:
256,192,10591,1,0,0:0:0:0:
343,258,11049,2,0,P|360:272|444:292,2,110,10|0|8,0:0|0:0|0:0,0:0:0:0:
424,184,12423,5,2,0:0:0:0:
328,132,12881,1,8,0:0:0:0:
416,68,13339,2,0,L|488:102,2,55,0|0|10,0:0|0:0|0:0,0:0:0:0:
308,40,14255,2,0,P|256:28|200:40,1,110,0|8,0:0|0:0,0:0:0:0:
100,84,15171,6,0,P|128:128|116:192,1,110,2|8,0:0|0:0,0:0:0:0:
96,288,16087,1,0,0:0:0:0:
200,316,16545,2,0,P|254:327|306:315,1,110,10|0,0:0|0:0,0:0:0:0:
416,288,17461,1,8,0:0:0:0:
390,183,17919,6,0,P|384:128|412:84,1,110,2|8,0:0|0:0,0:0:0:0:
312,40,18835,1,0,0:0:0:0:
260,136,19293,2,0,P|156:224|60:236,1,220,10|8,0:0|0:0,0:0:0:0:
164,304,20667,6,0,P|236:312|272:348,1,110,0|8,0:0|0:0,0:0:0:0:
372,332,21583,1,0,0:0:0:0:
396,224,22041,2,0,P|456:252|480:308,2,110,10|0|8,0:0|0:0|0:0,0:0:0:0:
476,148,23415,6,0,P|416:120|392:64,1,110,2|8,0:0|0:0,0:0:0:0:
292,44,24331,1,0,0:0:0:0:
184,44,24789,2,0,B|140:76|80:56|80:56|64:116|8:148,1,220,10|8,0:0|0:0,0:0:0:0:
15,253,26163,5,2,0:0:0:0:
15,253,26621,2,0,P|84:272|104:316,1,110,8|0,0:0|0:0,0:0:0:0:
211,302,27537,2,0,P|228:271|297:252,1,110,10|0,0:0|0:0,0:0:0:0:
224,172,28453,1,8,0:0:0:0:
120,136,28911,6,0,P|68:116|32:64,1,110,2|8,0:0|0:0,0:0:0:0:
136,32,29827,1,0,0:0:0:0:
244,44,30285,2,0,B|288:40|312:72|308:112|308:112|348:112|376:140|364:200,1,220,10|8,0:0|0:0,0:0:0:0:
308,284,31659,6,0,P|364:300|424:280,1,110,2|8,0:0|0:0,0:0:0:0:
496,216,32575,1,2,0:0:0:0:
428,128,33033,2,0,P|404:64|420:16,2,110,10|0|8,0:0|0:0|0:0,0:0:0:0:
332,184,34407,6,0,P|292:132|236:124,1,110,2|8,0:0|0:0,0:0:0:0:
140,124,35323,1,2,0:0:0:0:
44,172,35781,2,0,B|56:208|84:232|128:228|128:228|148:264|188:272|228:260,1,220,10|8,0:0|0:0,0:0:0:0:
332,276,37155,5,2,0:0:0:0:
440,252,37613,2,0,L|496:296,2,55,8|0|2,0:0|0:0|0:0,0:0:0:0:
348,192,38529,1,10,0:0:0:0:
260,128,38987,2,0,L|208:88,2,55,0|0|8,0:0|0:0|0:0,0:0:0:0:
348,192,39904,6,0,P|308:228|236:232,1,110,2|10,0:0|0:0,0:0:0:0:
176,316,40820,1,2,0:0:0:0:
116,224,41278,2,0,B|92:176|68:128|68:128|132:104|132:44,1,220,10|10,0:0|0:0,0:0:0:0:
244,48,42652,5,2,0:0:0:0:
332,116,43110,2,0,P|368:144|440:148,1,110,8|2,0:0|0:0,0:0:0:0:
440,260,44026,1,10,0:0:0:0:
336,292,44484,1,2,0:0:0:0:
232,256,44942,1,10,0:0:0:0:
184,156,45400,6,0,P|140:96|96:84,2,110,2|8|2,0:0|0:0|0:0,0:0:0:0:
261,78,46774,2,0,B|269:114|297:146|341:138|341:138|356:180|409:198|441:174,1,220,10|10,0:0|0:0,0:0:0:0:
425,292,48148,6,0,P|361:296|317:336,1,110,2|8,0:0|0:0,0:0:0:0:
256,236,49064,1,0,0:0:0:0:
186,322,49522,2,0,P|151:296|87:292,1,110,10|0,0:0|0:0,0:0:0:0:
9,214,50438,1,10,0:0:0:0:
40,108,50896,6,0,P|78:44|110:36,1,110,2|8,0:0|0:0,0:0:0:0:
216,64,51812,1,0,0:0:0:0:
156,156,52270,2,0,B|181:182|223:189|255:164|255:164|284:192|332:188|360:156,1,220,10|10,0:0|0:0,0:0:0:0:
408,88,64636,6,0,P|396:148|420:196,1,110,0|8,0:0|0:0,0:0:0:0:
488,272,65552,1,2,0:0:0:0:
380,260,66010,2,0,P|324:252|264:280,2,110,10|0|8,0:0|0:0|0:0,0:0:0:0:
460,336,67384,6,0,P|464:268|496:232,1,110,2|8,0:0|0:0,0:0:0:0:
428,148,68300,2,0,L|484:100,2,55,2|0|10,0:0|0:0|0:0,0:0:0:0:
332,200,69216,2,0,P|272:220|216:192,1,110,0|2,0:0|0:0,0:0:0:0:
152,124,70133,5,0,0:0:0:0:
44,124,70591,1,8,0:0:0:0:
40,232,71049,2,0,L|-8:280,2,55,2|0|10,0:0|0:0|0:0,0:0:0:0:
116,152,71965,1,0,0:0:0:0:
196,76,72423,1,8,0:0:0:0:
256,168,72881,6,0,L|336:92,1,110,2|10,0:0|0:0,0:0:0:0:
444,116,73797,2,0,L|396:168,1,55,2|0,0:0|0:0,0:0:0:0:
368,196,74255,2,0,B|320:240|324:292|324:292|272:332|224:284,1,220,10|10,0:0|0:0,0:0:0:0:
120,312,75629,6,0,P|116:260|152:208,1,110,2|8,0:0|0:0,0:0:0:0:
68,132,76545,2,0,L|20:192,2,55,2|0|10,0:0|0:0|0:0,0:0:0:0:
144,52,77461,2,0,P|200:72|256:48,1,110,2|10,0:0|0:0,0:0:0:0:
320,136,78377,6,0,P|365:120|421:140,1,110,2|8,0:0|0:0,0:0:0:0:
440,248,79293,2,0,L|480:292,2,55,2|0|10,0:0|0:0|0:0,0:0:0:0:
344,308,80209,2,0,P|288:324|232:304,1,110,2|8,0:0|0:0,0:0:0:0:
132,288,81125,5,0,0:0:0:0:
36,236,81583,2,0,P|64:172|40:124,1,110,8|2,0:0|0:0,0:0:0:0:
24,32,82499,1,10,0:0:0:0:
124,80,82957,2,0,P|180:100|232:80,1,110,0|10,0:0|0:0,0:0:0:0:
304,160,83873,6,0,P|356:144|408:160,1,110,2|8,0:0|0:0,0:0:0:0:
356,260,84789,1,0,0:0:0:0:
248,284,85247,2,0,P|148:248|140:136,1,220,10|10,0:0|0:0,0:0:0:0:
184,48,86621,6,0,P|256:80|308:80,1,110,0|8,0:0|0:0,0:0:0:0:
396,92,87537,1,0,0:0:0:0:
312,164,87995,6,0,P|240:192|196:196,1,110,10|0,0:0|0:0,0:0:0:0:
104,228,88911,1,8,0:0:0:0:
192,292,89369,6,0,P|236:320|304:328,1,110,2|8,0:0|0:0,0:0:0:0:
400,312,90285,1,0,0:0:0:0:
356,212,90743,2,0,B|320:168|352:108|352:108|288:124|236:80,1,220,10|8,0:0|0:0,0:0:0:0:
144,124,92117,6,0,L|144:64,2,55,2|2|10,0:0|0:0|0:0,0:0:0:0:
173,170,92804,2,0,L|228:188,2,55,2|2|2,0:0|0:0|0:0,0:0:0:0:
118,170,93491,5,10,0:0:0:0:
68,272,93949,1,10,0:0:0:0:
176,268,94407,1,10,0:0:0:0:
284,256,94865,6,0,P|272:208|208:164,1,110,2|10,0:0|0:0,0:0:0:0:
128,124,95781,1,2,0:0:0:0:
228,76,96239,2,0,P|332:52|440:88,1,220,10|8,0:0|0:0,0:0:0:0:
376,176,97613,6,0,P|320:164|268:176,1,110,6|8,0:0|0:0,0:0:0:0:
160,192,98529,1,2,0:0:0:0:
88,276,98987,6,0,P|140:308|196:296,1,110,10|0,0:0|0:0,0:0:0:0:
296,300,99904,1,10,0:0:0:0:
240,204,100362,6,0,P|293:189|356:211,1,110,0|10,0:0|0:0,0:0:0:0:
439,258,101278,1,2,0:0:0:0:
460,152,101736,6,0,L|504:100,1,55,10|0,0:0|0:0,0:0:0:0:
464,64,102194,2,0,L|420:20,1,55
372,40,102652,2,0,P|332:76|268:64,1,110,8|4,0:0|0:0,0:0:0:0:
169,71,103568,6,0,P|116:75|76:39,1,110,8|0,0:0|0:0,0:0:0:0:
16,132,104484,1,10,0:0:0:0:
60,232,104942,1,2,0:0:0:0:
156,284,105400,1,10,0:0:0:0:
264,296,105858,6,0,L|332:296,2,55,2|0|10,0:0|0:0|0:0,0:0:0:0:
204,204,106774,2,0,P|264:84|296:212,1,330,2|0,0:0|0:0,0:0:0:0:
256,192,116850,12,2,119598,0:0:0:0:
368,216,120056,6,0,L|384:152,1,55,0|0,0:0|0:0,0:0:0:0:
432,140,120514,2,0,L|484:168,2,55,2|0|2,0:0|0:0|0:0,0:0:0:0:
344,76,121430,2,0,P|300:56|236:80,1,110,0|0,0:0|0:0,0:0:0:0:
244,184,122346,6,0,P|200:204|136:180,1,110,0|0,0:0|0:0,0:0:0:0:
40,144,123262,1,2,0:0:0:0:
24,252,123720,2,0,B|40:316|96:328|96:328|140:284|216:308,1,220,2|0,0:0|0:0,0:0:0:0:
308,320,125094,6,0,P|368:300|392:252,1,110,2|0,0:0|0:0,0:0:0:0:
436,164,126010,1,2,0:0:0:0:
377,70,126468,2,0,P|336:100|328:156,1,110,2|0,0:0|0:0,0:0:0:0:
376,256,127384,1,0,0:0:0:0:
268,236,127842,6,0,P|208:240|168:284,1,110,2|2,0:0|0:0,0:0:0:0:
64,292,128758,2,0,B|36:260|44:216|80:196|80:196|72:152|108:112|140:120,1,220,2|0,0:0|0:0,0:0:0:0:
240,88,130133,1,2,0:0:0:0:
308,176,130591,5,2,0:0:0:0:
396,108,131049,2,0,L|356:52,2,55,0|0|2,0:0|0:0|0:0,0:0:0:0:
460,196,131965,1,2,0:0:0:0:
396,284,132423,1,2,0:0:0:0:
292,320,132881,1,2,0:0:0:0:
220,236,133339,6,0,P|164:200|104:204,1,110,2|0,0:0|0:0,0:0:0:0:
32,136,134255,2,0,L|92:88,1,55,2|0,0:0|0:0,0:0:0:0:
120,68,134713,2,0,B|160:40|196:48|216:80|216:80|244:52|292:56|312:88,1,220,2|2,0:0|0:0,0:0:0:0:
256,184,136087,6,0,P|308:200|376:172,1,110,2|0,0:0|0:0,0:0:0:0:
452,128,137003,1,2,0:0:0:0:
428,236,137461,2,0,P|400:288|340:312,2,110,2|0|2,0:0|0:0|0:0,0:0:0:0:
324,204,138835,6,0,P|264:204|204:240,1,110,2|0,0:0|0:0,0:0:0:0:
136,296,139751,1,2,0:0:0:0:
76,204,140209,2,0,B|44:156|60:104|60:104|120:96|160:44,1,220,2|0,0:0|0:0,0:0:0:0:
276,44,141583,6,0,P|312:88|384:104,1,110,2|0,0:0|0:0,0:0:0:0:
416,112,142270,2,0,L|488:112,2,55,0|0|0,0:0|0:0|0:0,0:0:0:0:
408,168,142957,6,0,P|396:220|340:260,1,110,2|0,0:0|0:0,0:0:0:0:
304,276,143644,2,0,L|232:292,2,55,0|0|0,0:0|0:0|0:0,0:0:0:0:
280,224,144331,6,0,P|228:176|172:172,1,110,2|0,0:0|0:0,0:0:0:0:
136,172,145018,2,0,L|72:176,2,55,0|0|0,0:0|0:0|0:0,0:0:0:0:
148,120,145705,6,0,P|184:72|248:56,1,110,2|0,0:0|0:0,0:0:0:0:
248,156,146621,1,0,0:0:0:0:
156,212,147079,6,0,L|100:260,2,55,0|0|8,0:0|0:0|0:0,0:0:0:0:
156,157,147766,2,0,L|100:117,2,55
200,192,148453,5,10,0:0:0:0:
288,128,148911,1,0,0:0:0:0:
320,236,149369,1,8,0:0:0:0:
404,164,149827,6,0,L|452:124,2,55,2|0|10,0:0|0:0|0:0,0:0:0:0:
404,218,150514,2,0,L|452:254,2,55,2|0|2,0:0|0:0|0:0,0:0:0:0:
356,192,151201,5,10,0:0:0:0:
248,192,151659,1,2,0:0:0:0:
138,192,152117,1,10,0:0:0:0:
112,84,152575,6,0,L|56:128,1,55,2|8,0:0|0:0,0:0:0:0:
32,160,153033,2,0,L|32:224,1,55,8|8,0:0|0:0,0:0:0:0:
64,260,153491,2,0,L|116:300,1,55,0|8,0:0|0:0,0:0:0:0:
162,293,153949,2,0,P|217:278|278:305,2,110,10|0|10,0:0|0:0|0:0,0:0:0:0:
256,192,155323,12,6,158071,0:0:0:0:
96,88,158529,6,0,P|152:76|208:100,1,110,8|0,0:0|0:0,0:0:0:0:
280,168,159445,2,0,P|328:185|384:173,2,110,10|0|8,0:0|0:0|0:0,0:0:0:0:
184,116,160820,5,2,0:0:0:0:
184,224,161278,2,0,P|180:276|128:328,1,110,8|2,0:0|0:0,0:0:0:0:
252,344,162194,2,0,B|276:312|356:312|356:312|384:236|428:220,1,220,10|8,0:0|0:0,0:0:0:0:
464,124,163568,6,0,P|420:84|371:78,1,110,6|8,0:0|0:0,0:0:0:0:
280,136,164484,1,2,0:0:0:0:
180,184,164942,2,0,P|131:178|87:138,1,110,10|0,0:0|0:0,0:0:0:0:
87,248,165858,1,8,0:0:0:0:
192,284,166316,6,0,P|240:289|284:329,1,110,2|10,0:0|0:0,0:0:0:0:
394,329,167232,1,2,0:0:0:0:
471,251,167690,2,0,B|476:216|444:184|404:180|404:180|412:140|372:96|320:112,1,220,10|10,0:0|0:0,0:0:0:0:
232,76,169064,6,0,P|160:48|144:20,1,110,6|8,0:0|0:0,0:0:0:0:
40,52,169980,1,2,0:0:0:0:
84,152,170438,2,0,P|96:212|72:264,1,110,10|2,0:0|0:0,0:0:0:0:
20,348,171354,1,10,0:0:0:0:
124,312,171812,6,0,P|184:284|232:292,1,110,2|8,0:0|0:0,0:0:0:0:
320,344,172728,2,0,P|361:349|421:321,1,110,2|10,0:0|0:0,0:0:0:0:
344,248,173644,2,0,B|296:264|256:192|240:120|160:136,1,220,2|6,0:0|0:0,0:0:0:0:
88,64,175018,6,0,L|16:64,2,55,8|0|2,0:0|0:0|0:0,0:0:0:0:
200,64,175934,1,10,0:0:0:0:
312,64,176392,2,0,L|392:64,2,55,0|0|10,0:0|0:0|0:0,0:0:0:0:
234,141,177308,5,2,0:0:0:0:
156,218,177766,2,0,L|84:218,2,55,8|0|2,0:0|0:0|0:0,0:0:0:0:
264,224,178682,2,0,P|328:248|352:280,2,110,10|0|8,0:0|0:0|0:0,0:0:0:0:
154,224,180056,5,6,0:0:0:0:
56,176,180514,2,0,L|0:216,2,55,8|0|2,0:0|0:0|0:0,0:0:0:0:
152,120,181430,5,10,0:0:0:0:
248,64,181888,2,0,L|304:24,2,55,0|0|10,0:0|0:0|0:0,0:0:0:0:
280,168,182804,5,2,0:0:0:0:
312,272,183262,2,0,L|256:312,2,55,8|0|0,0:0|0:0|0:0,0:0:0:0:
400,208,184178,2,0,P|424:152|400:104,1,110,8|0,0:0|0:0,0:0:0:0:
320,48,185094,1,8,0:0:0:0:
208,48,185552,6,0,P|152:72|128:120,1,110,6|8,0:0|0:0,0:0:0:0:
184,208,186468,2,0,L|224:264,2,55,0|0|10,0:0|0:0|0:0,0:0:0:0:
80,160,187384,1,0,0:0:0:0:
64,272,187842,1,8,0:0:0:0:
176,280,188300,6,0,P|240:272|296:304,1,110,6|8,0:0|0:0,0:0:0:0:
352,208,189216,1,2,0:0:0:0:
344,96,189675,6,0,P|296:136|232:144,1,110,14|0,0:0|0:0,0:0:0:0:
152,96,190591,1,10,0:0:0:0:
64,168,191049,6,0,P|104:224|104:272,1,110,6|8,0:0|0:0,0:0:0:0:
208,312,191965,2,0,B|232:252|300:272|352:284|400:204,1,220,2|0,0:0|0:0,0:0:0:0:
300,160,193339,1,0,0:0:0:0:
256,192,193797,12,6,196545,0:0:0:0:
147,216,197461,5,2,0:0:0:0:
256,216,197919,1,2,0:0:0:0:
365,216,198377,1,6,0:0:0:0:
