osu file format v12

[General]
AudioFilename: Miku&GUMI-Minuet.mp3
AudioLeadIn: 0
PreviewTime: 119387
Countdown: 0
SampleSet: Soft
StackLeniency: 0.7
Mode: 0
LetterboxInBreaks: 1

[Editor]
DistanceSpacing: 1.4
BeatDivisor: 4
GridSize: 4

[Metadata]
Title:Minuet
TitleUnicode:メヌエット
Artist:rerulili
ArtistUnicode:rerulili
Creator:Sweet Vanilla
Version:Hard
Source:
Tags:Vocaloid sm21027611 Hatsune Miku Megpoid Gumi cossami hinanosuke Vocaloid2
BeatmapID:273174
BeatmapSetID:103718

[Difficulty]
HPDrainRate:6
CircleSize:4
OverallDifficulty:6
ApproachRate:7
SliderMultiplier:1.6
SliderTickRate:1

[Events]
//Background and Video events
Video,-180,"Miku&GUMI-Minuet.avi"
0,0,"background.jpg",0,0
//Break Periods
2,53644,63736
2,108624,115950
//Storyboard Layer 0 (Background)
//Storyboard Layer 1 (Fail)
//Storyboard Layer 2 (Pass)
//Storyboard Layer 3 (Foreground)
//Storyboard Sound Samples
//Background Colour Transformations
3,100,163,162,255

[TimingPoints]
9675,458.015267175573,3,2,1,35,1,0
9675,-100,3,2,1,35,0,0
31659,-100,3,2,1,40,0,0
86621,-100,3,2,2,40,0,1
91201,-100,3,2,1,40,0,1
96926,-100,3,2,1,45,0,0
107002,-100,3,2,3,45,0,0
107460,-100,3,2,1,45,0,0
141583,-100,3,2,2,35,0,1
146163,-100,3,2,1,35,0,1
155094,-100,3,2,1,50,0,0
158071,-100,3,2,1,60,0,1
192880,-100,3,2,1,60,0,0

[Colours]
Combo1 : 255,184,113
Combo2 : 255,147,201
Combo3 : 190,125,255
SliderBorder : 255,255,255

[HitObjects]
256,80,9675,1,2,0:0:0:0:
100,112,10133,2,0,P|104:152|148:180,1,80,8|0,0:0|0:0,0:0:0:0:
100,248,10591,2,0,P|152:252|192:224,1,80,8|0,0:0|0:0,0:0:0:0:
212,308,11049,2,0,P|276:272|372:264,1,160,2|0,0:0|0:0,0:0:0:0:
362,263,11965,1,8,0:0:0:0:
362,263,12423,5,2,0:0:0:0:
456,132,12881,2,0,L|368:84,1,80,8|0,0:0|0:0,0:0:0:0:
304,92,13339,2,0,P|316:52|348:24,2,80,8|0|10,0:0|0:0|0:0,0:0:0:0:
148,60,14255,2,0,P|130:143|51:204,1,160,8|8,0:0|0:0,0:0:0:0:
196,300,15171,6,0,P|252:248|344:232,1,160,2|8,0:0|0:0,0:0:0:0:
412,228,15858,1,0,0:0:0:0:
432,152,16087,2,0,P|452:96|488:80,2,80,0|0|10,0:0|0:0|0:0,0:0:0:0:
284,92,17003,6,0,P|299:82|319:26,2,80,0|0|8,0:0|0:0|0:0,0:0:0:0:
212,128,17690,1,0,0:0:0:0:
136,144,17919,2,0,P|56:176|24:244,1,160,2|8,0:0|0:0,0:0:0:0:
56,312,18606,5,0,0:0:0:0:
136,308,18835,2,0,P|180:320|208:348,1,80,8|0,0:0|0:0,0:0:0:0:
288,332,19293,2,0,P|264:264|308:180,1,160,10|0,0:0|0:0,0:0:0:0:
368,144,19980,5,0,0:0:0:0:
436,188,20209,1,0,0:0:0:0:
364,224,20438,1,8,0:0:0:0:
440,112,20667,5,2,0:0:0:0:
440,112,21125,2,0,P|404:88|384:32,1,80,8|0,0:0|0:0,0:0:0:0:
288,52,21583,2,0,P|295:90|283:129,1,80
192,50,22041,2,0,P|124:138|44:150,1,160,10|0,0:0|0:0,0:0:0:0:
184,272,22957,1,8,0:0:0:0:
80,152,23415,5,2,0:0:0:0:
184,272,23873,2,0,P|148:260|100:272,2,80,8|0|0,0:0|0:0|0:0,0:0:0:0:
256,304,24560,1,0,0:0:0:0:
336,304,24789,2,0,P|408:276|452:204,1,160,10|0,0:0|0:0,0:0:0:0:
440,128,25476,5,0,0:0:0:0:
364,108,25705,1,8,0:0:0:0:
380,188,25934,1,0,0:0:0:0:
420,44,26163,5,2,0:0:0:0:
420,44,26621,2,0,P|380:64|328:52,1,80,8|0,0:0|0:0,0:0:0:0:
272,32,27079,2,0,P|232:28|180:48,1,80
116,64,27537,2,0,P|108:132|28:192,1,160,10|0,0:0|0:0,0:0:0:0:
20,268,28224,1,0,0:0:0:0:
76,328,28453,2,0,P|124:300|168:304,1,80,8|0,0:0|0:0,0:0:0:0:
212,344,28911,6,0,P|268:312|252:208,1,160,2|8,0:0|0:0,0:0:0:0:
208,168,29598,1,0,0:0:0:0:
140,212,29827,2,0,P|128:144|152:116,1,80,8|0,0:0|0:0,0:0:0:0:
176,72,30285,2,0,P|256:96|352:64,1,160,10|0,0:0|0:0,0:0:0:0:
428,204,31201,1,8,0:0:0:0:
296,296,31659,6,0,P|256:232|264:144,1,160,2|8,0:0|0:0,0:0:0:0:
292,76,32346,1,0,0:0:0:0:
372,68,32575,2,0,P|396:120|380:164,1,80,2|0,0:0|0:0,0:0:0:0:
368,216,33033,2,0,P|280:232|220:304,1,160,10|0,0:0|0:0,0:0:0:0:
72,304,33949,1,8,0:0:0:0:
72,304,34407,6,0,P|24:236|40:140,1,160,2|8,0:0|0:0,0:0:0:0:
48,84,35094,1,0,0:0:0:0:
88,12,35323,2,0,P|124:48|128:88,1,80,2|0,0:0|0:0,0:0:0:0:
208,56,35781,2,0,P|180:132|92:160,1,160,10|0,0:0|0:0,0:0:0:0:
60,316,36697,1,8,0:0:0:0:
60,316,37155,6,0,P|124:280|224:296,1,160,2|8,0:0|0:0,0:0:0:0:
288,300,37842,1,0,0:0:0:0:
340,240,38071,2,0,P|360:204|396:184,1,80,2|0,0:0|0:0,0:0:0:0:
472,156,38529,6,0,P|416:112|316:148,1,160,10|8,0:0|0:0,0:0:0:0:
256,156,39216,1,0,0:0:0:0:
170,157,39445,2,0,P|176:188|208:224,1,80,8|0,0:0|0:0,0:0:0:0:
200,84,39904,6,0,P|120:96|84:176,1,160,2|10,0:0|0:0,0:0:0:0:
60,236,40591,1,0,0:0:0:0:
72,316,40820,2,0,P|108:344|156:344,1,80,2|0,0:0|0:0,0:0:0:0:
220,336,41278,2,0,P|300:304|380:316,1,160,10|0,0:0|0:0,0:0:0:0:
452,328,41965,5,0,0:0:0:0:
400,268,42194,1,10,0:0:0:0:
404,188,42423,1,0,0:0:0:0:
472,148,42652,6,0,P|444:76|360:44,1,160,2|8,0:0|0:0,0:0:0:0:
300,80,43339,1,0,0:0:0:0:
224,100,43568,2,0,P|184:84|168:20,2,80,2|0|10,0:0|0:0|0:0,0:0:0:0:
380,128,44484,1,2,0:0:0:0:
224,100,44942,1,10,0:0:0:0:
288,248,45400,6,0,P|244:300|152:328,1,160,2|8,0:0|0:0,0:0:0:0:
80,332,46087,1,0,0:0:0:0:
36,264,46316,2,0,P|32:224|-4:176,1,80,2|0,0:0|0:0,0:0:0:0:
88,164,46774,2,0,P|116:92|208:48,1,160,10|0,0:0|0:0,0:0:0:0:
344,40,47690,1,10,0:0:0:0:
344,40,48148,6,0,P|328:112|376:192,1,160,2|8,0:0|0:0,0:0:0:0:
436,228,48835,1,0,0:0:0:0:
448,148,49064,2,0,P|472:88|512:72,1,80,2|0,0:0|0:0,0:0:0:0:
428,20,49522,2,0,P|348:60|260:44,1,160,10|0,0:0|0:0,0:0:0:0:
200,44,50209,1,0,0:0:0:0:
164,116,50438,2,0,P|124:80|120:40,2,80,10|0|2,0:0|0:0|0:0,0:0:0:0:
284,212,51354,6,0,P|324:248|328:288,1,80,8|0,0:0|0:0,0:0:0:0:
252,280,51812,2,0,P|224:316|176:332,1,80,2|0,0:0|0:0,0:0:0:0:
176,252,52270,2,0,P|108:224|84:144,2,160
212,36,64636,5,8,0:0:0:0:
364,80,65094,2,0,P|356:113|302:145,1,80,8|0,0:0|0:0,0:0:0:0:
276,204,65552,2,0,P|248:173|240:136,1,80,2|0,0:0|0:0,0:0:0:0:
160,148,66010,2,0,P|128:84|24:52,2,160,10|0|8,0:0|0:0|0:0,0:0:0:0:
232,292,67384,5,2,0:0:0:0:
232,292,67842,2,0,P|176:320|164:360,1,80,8|0,0:0|0:0,0:0:0:0:
89,333,68300,2,0,P|82:319|26:291,1,80,2|0,0:0|0:0,0:0:0:0:
27,211,68758,2,0,P|72:160|159:139,1,160,10|0,0:0|0:0,0:0:0:0:
316,136,69675,1,8,0:0:0:0:
160,140,70133,6,0,P|176:216|252:260,1,160,2|8,0:0|0:0,0:0:0:0:
320,272,70820,1,0,0:0:0:0:
384,324,71049,2,0,P|344:352|296:348,2,80,2|0|10,0:0|0:0|0:0,0:0:0:0:
484,200,71965,6,0,P|460:172|416:160,1,80
340,172,72423,2,0,P|360:112|388:92,1,80,8|0,0:0|0:0,0:0:0:0:
304,60,72881,2,0,P|384:24|448:80,1,160,2|10,0:0|0:0,0:0:0:0:
500,120,73568,1,0,0:0:0:0:
432,160,73797,2,0,P|468:192|524:200,1,80,2|0,0:0|0:0,0:0:0:0:
456,268,74255,2,0,P|376:276|308:340,1,160,10|0,0:0|0:0,0:0:0:0:
388,360,74942,5,0,0:0:0:0:
380,280,75171,1,10,0:0:0:0:
316,232,75400,1,0,0:0:0:0:
240,212,75629,6,0,P|180:192|128:112,1,160,2|8,0:0|0:0,0:0:0:0:
104,40,76316,1,0,0:0:0:0:
40,88,76545,2,0,P|8:116|4:168,1,80,2|0,0:0|0:0,0:0:0:0:
80,152,77003,2,0,P|128:196|132:292,2,160,10|2|10,0:0|0:0|0:0,0:0:0:0:
192,40,78377,5,2,0:0:0:0:
192,40,78835,2,0,P|236:28|280:47,2,80,8|0|0,0:0|0:0|0:0,0:0:0:0:
233,108,79522,1,0,0:0:0:0:
231,187,79751,2,0,P|229:230|263:283,1,80,2|8,0:0|0:0,0:0:0:0:
312,304,80209,2,0,P|376:257|466:257,1,160,0|8,0:0|0:0,0:0:0:0:
355,96,81125,6,0,P|299:176|243:198,1,160,2|8,0:0|0:0,0:0:0:0:
165,218,81812,1,0,0:0:0:0:
88,244,82041,2,0,P|44:272|28:320,1,80,2|0,0:0|0:0,0:0:0:0:
108,320,82499,6,0,P|188:344|268:312,1,160,10|0,0:0|0:0,0:0:0:0:
324,272,83186,1,0,0:0:0:0:
380,332,83415,2,0,P|404:292|400:248,1,80,10|0,0:0|0:0,0:0:0:0:
484,248,83873,6,0,P|432:184|344:208,1,160,2|8,0:0|0:0,0:0:0:0:
284,184,84560,1,0,0:0:0:0:
324,116,84789,2,0,P|344:64|324:28,1,80,2|0,0:0|0:0,0:0:0:0:
260,68,85247,2,0,P|176:92|88:56,1,160,10|0,0:0|0:0,0:0:0:0:
228,176,86163,1,10,0:0:0:0:
108,72,86621,6,0,P|136:140|108:232,1,160,2|8,0:0|0:0,0:0:0:0:
64,280,87308,2,0,P|16:308|-4:336,2,80
140,252,87995,6,0,P|216:236|300:260,1,160,10|0,0:0|0:0,0:0:0:0:
364,292,88682,2,0,P|396:332|432:348,2,80,0|8|0,0:0|0:0|0:0,0:0:0:0:
320,224,89369,6,0,P|292:156|312:72,1,160,2|8,0:0|0:0,0:0:0:0:
380,32,90056,1,0,0:0:0:0:
460,44,90285,2,0,P|440:84|400:108,1,80
444,176,90743,2,0,P|364:172|300:112,1,160,10|0,0:0|0:0,0:0:0:0:
256,60,91430,1,0,0:0:0:0:
208,124,91659,2,0,P|149:174|69:178,1,160,8|2,0:0|0:0,0:0:0:0:
116,112,92346,5,2,0:0:0:0:
148,188,92575,1,10,0:0:0:0:
216,228,92804,1,2,0:0:0:0:
296,228,93033,1,2,0:0:0:0:
364,188,93262,1,2,0:0:0:0:
396,112,93491,5,10,0:0:0:0:
256,32,93949,1,2,0:0:0:0:
116,112,94407,1,10,0:0:0:0:
256,200,94865,1,2,0:0:0:0:
116,112,95323,1,10,0:0:0:0:
256,32,95781,1,2,0:0:0:0:
116,112,96239,2,0,P|76:140|136:300,1,240,8|0,0:0|0:0,0:0:0:0:
120,296,97155,1,0,0:0:0:0:
388,116,97613,6,0,B|312:156|204:168,1,160,6|8,0:0|0:0,0:0:0:0:
156,180,98300,1,0,0:0:0:0:
76,184,98529,1,2,0:0:0:0:
188,304,98987,6,0,P|264:316|372:312,1,160,10|0,0:0|0:0,0:0:0:0:
428,312,99675,1,0,0:0:0:0:
508,308,99904,1,10,0:0:0:0:
432,168,100362,6,0,P|360:224|284:224,1,160,2|10,0:0|0:0,0:0:0:0:
140,184,101278,1,2,0:0:0:0:
140,184,101736,5,8,0:0:0:0:
184,116,101965,1,0,0:0:0:0:
256,84,102194,1,0,0:0:0:0:
328,116,102423,1,0,0:0:0:0:
372,184,102652,1,8,0:0:0:0:
220,240,103110,6,0,P|164:220|136:180,2,80,4|0|8,0:0|0:0|0:0,0:0:0:0:
292,240,103797,2,0,P|348:220|376:180,2,80
256,164,104484,1,10,0:0:0:0:
176,304,104942,1,2,0:0:0:0:
335,304,105400,1,10,0:0:0:0:
256,164,105858,22,0,P|216:140|160:148,2,80,2|0|10,0:0|0:0|0:0,0:0:0:0:
256,164,106774,2,0,B|312:92|448:184|256:336|256:336|144:252|156:176,1,480,2|0,0:0|0:0,0:0:0:0:
256,192,116850,12,0,119598,0:0:0:0:
120,264,120056,6,0,P|160:288|200:280,1,80,0|0,0:0|0:0,0:0:0:0:
256,328,120514,2,0,P|268:288|256:244,1,80,2|0,0:0|0:0,0:0:0:0:
328,216,120972,2,0,P|300:136|336:68,1,160,2|0,0:0|0:0,0:0:0:0:
480,12,121888,1,8,0:0:0:0:
332,72,122346,6,0,P|256:108|176:88,1,160,2|0,0:0|0:0,0:0:0:0:
116,52,123033,1,0,0:0:0:0:
40,72,123262,2,0,P|12:104|4:152,1,80,2|0,0:0|0:0,0:0:0:0:
16,220,123720,2,0,P|96:280|112:352,1,160,2|0,0:0|0:0,0:0:0:0:
220,220,124636,1,8,0:0:0:0:
220,220,125094,6,0,P|232:272|312:336,1,160,2|0,0:0|0:0,0:0:0:0:
392,336,125781,1,0,0:0:0:0:
472,324,126010,2,0,P|454:288|408:260,1,80,2|0,0:0|0:0,0:0:0:0:
348,232,126468,1,2,0:0:0:0:
348,232,126926,6,0,P|376:196|432:192,2,80,0|0|0,0:0|0:0|0:0,0:0:0:0:
304,300,127613,1,0,0:0:0:0:
252,240,127842,2,0,P|232:156|276:88,1,160,2|2,0:0|0:0,0:0:0:0:
220,28,128529,1,0,0:0:0:0:
140,36,128758,2,0,P|152:80|200:104,1,80,0|0,0:0|0:0,0:0:0:0:
132,168,129216,2,0,P|232:192|292:140,1,160,2|0,0:0|0:0,0:0:0:0:
328,104,129904,5,0,0:0:0:0:
360,32,130133,1,10,0:0:0:0:
412,92,130362,1,0,0:0:0:0:
488,116,130591,5,2,0:0:0:0:
488,116,131049,2,0,P|456:160|416:168,1,80,0|0,0:0|0:0,0:0:0:0:
392,236,131507,2,0,P|360:192|320:184,1,80,2|0,0:0|0:0,0:0:0:0:
260,172,131965,2,0,P|180:204|96:172,1,160,2|2,0:0|0:0,0:0:0:0:
260,172,132881,1,0,0:0:0:0:
112,184,133339,6,0,P|68:132|68:44,1,160,2|0,0:0|0:0,0:0:0:0:
148,52,134026,1,0,0:0:0:0:
228,68,134255,2,0,P|204:112|144:124,1,80,2|0,0:0|0:0,0:0:0:0:
232,184,134713,2,0,P|168:236|148:320,1,160,2|2,0:0|0:0,0:0:0:0:
48,180,135629,1,10,0:0:0:0:
40,20,136087,6,0,P|120:64|200:48,1,160,2|0,0:0|0:0,0:0:0:0:
264,32,136774,1,0,0:0:0:0:
316,92,137003,2,0,P|368:132|400:128,1,80,2|0,0:0|0:0,0:0:0:0:
460,136,137461,6,0,P|444:200|352:252,1,160,2|0,0:0|0:0,0:0:0:0:
288,248,138148,1,0,0:0:0:0:
248,320,138377,2,0,P|212:276|168:264,1,80,2|0,0:0|0:0,0:0:0:0:
112,252,138835,6,0,P|140:180|236:136,1,160,2|0,0:0|0:0,0:0:0:0:
288,120,139522,1,0,0:0:0:0:
364,92,139751,2,0,P|424:56|440:24,1,80,2|0,0:0|0:0,0:0:0:0:
484,104,140209,2,0,P|519:146|499:262,1,160,2|0,0:0|0:0,0:0:0:0:
400,360,141125,1,8,0:0:0:0:
400,360,141583,6,0,P|316:308|224:304,1,160,2|0,0:0|0:0,0:0:0:0:
180,324,142270,2,0,P|124:356|76:356,2,80
240,272,142957,6,0,P|280:204|276:92,1,160,2|0,0:0|0:0,0:0:0:0:
260,48,143644,2,0,P|316:24|360:28,2,80,0|0|0,0:0|0:0|0:0,0:0:0:0:
184,68,144331,6,0,P|104:84|28:64,1,160,2|0,0:0|0:0,0:0:0:0:
40,144,145018,2,0,P|72:176|80:208,1,80
88,288,145476,1,0,0:0:0:0:
88,288,145705,2,0,P|172:252|252:264,1,160,2|0,0:0|0:0,0:0:0:0:
316,280,146392,1,0,0:0:0:0:
372,336,146621,2,0,P|424:292|428:200,1,160,2|8,0:0|0:0,0:0:0:0:
428,124,147308,6,0,P|480:140|500:168,2,80,0|8|0,0:0|0:0|0:0,0:0:0:0:
348,108,147995,2,0,P|376:60|424:48,2,80,0|0|10,0:0|0:0|0:0,0:0:0:0:
232,216,148911,1,0,0:0:0:0:
140,336,149369,2,0,P|92:288|80:200,1,160,8|2,0:0|0:0,0:0:0:0:
80,120,150056,6,0,P|28:136|8:164,2,80,2|8|2,0:0|0:0|0:0,0:0:0:0:
160,104,150743,2,0,P|132:56|84:44,2,80,0|0|10,0:0|0:0|0:0,0:0:0:0:
32,208,151659,1,10,0:0:0:0:
180,272,152117,2,0,P|252:296|344:264,1,160,10|0,0:0|0:0,0:0:0:0:
408,260,152804,6,0,P|404:304|376:340,2,80,0|8|0,0:0|0:0|0:0,0:0:0:0:
420,180,153491,2,0,P|424:136|452:100,2,80,0|0|10,0:0|0:0|0:0,0:0:0:0:
300,72,154407,1,0,0:0:0:0:
464,164,154865,1,8,0:0:0:0:
280,260,155323,5,2,0:0:0:0:
176,304,155552,1,0,0:0:0:0:
192,192,155781,1,8,0:0:0:0:
280,260,156010,5,0,0:0:0:0:
176,304,156239,1,0,0:0:0:0:
192,192,156468,1,0,0:0:0:0:
204,80,156697,5,10,0:0:0:0:
100,124,156926,1,0,0:0:0:0:
192,192,157155,1,0,0:0:0:0:
204,80,157384,5,0,0:0:0:0:
100,124,157613,1,8,0:0:0:0:
192,192,157842,1,0,0:0:0:0:
360,272,158071,5,4,0:0:0:0:
360,272,158529,2,0,P|328:232|292:224,1,80,8|0,0:0|0:0,0:0:0:0:
304,120,158987,2,0,P|330:112|362:72,1,80
452,40,159445,2,0,P|460:116|512:196,1,160,10|0,0:0|0:0,0:0:0:0:
364,320,160362,1,8,0:0:0:0:
172,340,160820,6,0,P|84:312|44:240,1,160,2|8,0:0|0:0,0:0:0:0:
20,168,161507,1,0,0:0:0:0:
108,132,161736,2,0,P|152:92|160:56,1,80,2|0,0:0|0:0,0:0:0:0:
212,0,162194,2,0,P|276:32|316:132,1,160,10|0,0:0|0:0,0:0:0:0:
288,300,163110,1,8,0:0:0:0:
288,300,163568,6,0,P|364:340|452:324,1,160,6|8,0:0|0:0,0:0:0:0:
512,280,164255,1,0,0:0:0:0:
456,204,164484,2,0,P|436:168|436:128,1,80,2|0,0:0|0:0,0:0:0:0:
480,44,164942,6,0,P|396:40|336:100,1,160,10|0,0:0|0:0,0:0:0:0:
280,160,165629,1,0,0:0:0:0:
216,232,165858,2,0,P|180:264|120:268,1,80,8|0,0:0|0:0,0:0:0:0:
56,296,166316,6,0,P|36:196|-16:156,1,160,2|10,0:0|0:0,0:0:0:0:
88,132,167003,1,0,0:0:0:0:
180,104,167232,2,0,P|228:76|256:40,1,80,2|0,0:0|0:0,0:0:0:0:
332,16,167690,2,0,P|416:72|432:132,1,160,10|0,0:0|0:0,0:0:0:0:
420,316,168606,1,10,0:0:0:0:
432,124,169064,6,0,P|324:140|284:188,1,160,6|8,0:0|0:0,0:0:0:0:
220,236,169751,1,0,0:0:0:0:
144,292,169980,2,0,P|108:320|56:328,2,80,2|0|10,0:0|0:0|0:0,0:0:0:0:
72,116,170896,1,2,0:0:0:0:
144,292,171354,1,10,0:0:0:0:
72,116,171812,6,0,P|120:72|220:52,1,160,2|8,0:0|0:0,0:0:0:0:
308,60,172499,1,0,0:0:0:0:
260,140,172728,2,0,P|248:188|272:244,1,80,2|0,0:0|0:0,0:0:0:0:
180,276,173186,2,0,P|256:312|336:276,1,160,10|2,0:0|0:0,0:0:0:0:
385,194,173873,5,0,0:0:0:0:
324,288,174102,1,10,0:0:0:0:
385,194,174331,1,0,0:0:0:0:
478,130,174560,5,6,0:0:0:0:
478,130,175018,2,0,P|458:82|482:38,1,80,8|0,0:0|0:0,0:0:0:0:
381,9,175476,2,0,P|333:29|289:17,1,80,2|0,0:0|0:0,0:0:0:0:
337,115,175934,2,0,P|261:126|195:181,1,160,10|0,0:0|0:0,0:0:0:0:
137,252,176621,1,0,0:0:0:0:
100,164,176850,2,0,P|76:116|32:88,1,80,10|0,0:0|0:0,0:0:0:0:
136,48,177308,6,0,P|212:76|292:40,1,160,2|8,0:0|0:0,0:0:0:0:
368,4,177995,1,0,0:0:0:0:
448,60,178224,2,0,P|476:92|480:136,1,80,2|0,0:0|0:0,0:0:0:0:
388,140,178682,2,0,P|348:196|244:216,1,160,10|0,0:0|0:0,0:0:0:0:
186,138,179369,5,0,0:0:0:0:
264,220,179598,1,8,0:0:0:0:
186,138,179827,1,0,0:0:0:0:
80,176,180056,5,6,0:0:0:0:
80,176,180514,2,0,P|52:228|4:240,1,80,8|0,0:0|0:0,0:0:0:0:
120,280,180972,2,0,P|136:288|164:340,1,80,2|0,0:0|0:0,0:0:0:0:
260,340,181430,2,0,P|340:340|416:272,1,160,10|0,0:0|0:0,0:0:0:0:
440,208,182117,1,0,0:0:0:0:
468,116,182346,2,0,P|496:68|532:48,1,80,10|0,0:0|0:0,0:0:0:0:
420,44,182804,6,0,P|348:72|256:48,1,160,2|8,0:0|0:0,0:0:0:0:
180,20,183491,1,0,0:0:0:0:
88,52,183720,2,0,P|108:92|164:112,1,80,2|0,0:0|0:0,0:0:0:0:
96,196,184178,2,0,P|168:200|240:140,1,160,10|0,0:0|0:0,0:0:0:0:
96,196,185094,1,8,0:0:0:0:
92,44,185552,6,0,P|164:72|256:48,1,160,6|8,0:0|0:0,0:0:0:0:
332,20,186239,1,0,0:0:0:0:
424,52,186468,2,0,P|404:92|348:112,1,80,2|0,0:0|0:0,0:0:0:0:
416,196,186926,2,0,P|344:200|272:140,1,160,10|0,0:0|0:0,0:0:0:0:
320,320,187842,1,8,0:0:0:0:
40,304,188300,6,0,P|116:332|208:312,1,160,6|8,0:0|0:0,0:0:0:0:
256,228,188987,1,0,0:0:0:0:
320,320,189216,1,2,0:0:0:0:
256,228,189445,1,0,0:0:0:0:
472,304,189675,6,0,P|396:332|304:312,1,160,14|0,0:0|0:0,0:0:0:0:
256,228,190362,1,0,0:0:0:0:
192,320,190591,1,10,0:0:0:0:
256,228,190820,1,0,0:0:0:0:
332,56,191049,6,0,P|256:68|164:48,2,160,4|8|0,0:0|0:0|0:0,0:0:0:0:
100,236,192423,2,0,P|256:272|428:224,1,320,10|0,0:0|0:0,0:0:0:0:
256,192,193797,12,0,196545,0:0:0:0:
104,248,197461,21,2,0:0:0:0:
256,204,197919,1,2,0:0:0:0:
408,256,198377,1,6,0:0:0:0:
