osu file format v13

[General]
AudioFilename: cutee.mp3
AudioLeadIn: 0
PreviewTime: 75182
Countdown: 0
SampleSet: Soft
StackLeniency: 0.4
Mode: 0
LetterboxInBreaks: 0
EpilepsyWarning: 1
WidescreenStoryboard: 0

[Editor]
Bookmarks: 77719
DistanceSpacing: 1
BeatDivisor: 4
GridSize: 4
TimelineZoom: 1

[Metadata]
Title:Itsumo Yori Nakimushi Na Sora
TitleUnicode:いつもより泣き虫な空
Artist:rerulili
ArtistUnicode:れるりり
Creator:Chewin
Version:Normal
Source:
Tags:A Sky More Apt to Cry Than Usual 初音ミク V3 Vocaloid Hatsune Miku cut Kenterz
BeatmapID:439527
BeatmapSetID:128869

[Difficulty]
HPDrainRate:4
CircleSize:4
OverallDifficulty:4
ApproachRate:5
SliderMultiplier:1.6
SliderTickRate:1

[Events]
//Background and Video events
0,0,"maxresdefault.jpg",0,0
//Break Periods
//Storyboard Layer 0 (Background)
//Storyboard Layer 1 (Fail)
//Storyboard Layer 2 (Pass)
//Storyboard Layer 3 (Foreground)
//Storyboard Sound Samples
//Background Colour Transformations
3,100,163,162,255

[TimingPoints]
6580,441.176470588235,4,2,0,50,1,0
37021,-100,4,2,0,30,0,0
37131,-100,4,2,0,50,0,0
40550,-100,4,2,0,30,0,0
40660,-100,4,2,0,50,0,0
47609,-100,4,2,0,30,0,0
47719,-100,4,2,0,50,0,0
51138,-100,4,2,0,30,0,0
51249,-100,4,2,0,50,0,0
54668,-100,4,2,0,30,0,0
54778,-100,4,2,0,50,0,0
67021,-100,4,2,0,30,0,0
67131,-100,4,2,0,50,0,0
70550,-100,4,2,0,30,0,0
70660,-100,4,2,0,50,0,0
75403,-100,4,2,0,60,0,1
81138,-100,4,2,0,30,0,1
81359,-100,4,2,0,60,0,1
88197,-100,4,2,0,30,0,1
88307,-100,4,2,0,60,0,1
89521,-100,4,2,0,50,0,0
92388,-100,4,2,0,30,0,0
92499,-100,4,2,0,50,0,0
103197,-100,4,2,0,30,0,0
103307,-100,4,2,0,50,0,0
103638,-100,4,2,0,60,0,1
107168,-100,4,2,0,50,0,1
107278,-100,4,2,0,60,0,1
109374,-100,4,2,0,30,0,1
109484,-100,4,2,0,60,0,1
112903,-100,4,2,0,30,0,1
113013,-100,4,2,0,60,0,1
116432,-100,4,2,0,30,0,1
116543,-100,4,2,0,60,0,1
117756,-100,4,2,0,50,0,0
119962,-100,4,2,0,30,0,0
120072,-100,4,2,0,50,0,0
120624,-100,4,2,0,35,0,0
120734,-100,4,2,0,50,0,0
123491,-100,4,2,0,30,0,0
123602,-100,4,2,0,50,0,0
124374,-100,4,2,0,40,0,0
124815,-100,4,2,0,50,0,0

[Colours]
Combo1 : 51,255,255
Combo2 : 243,243,243
Combo3 : 53,154,255
Combo4 : 255,85,170

[HitObjects]
256,192,31285,12,0,33050,3:0:0:0:
56,232,33491,6,0,L|52:140,1,80,0|0,3:0|0:0,0:0:0:0:
132,132,33932,2,0,L|135:211,1,80,4|0,3:0|0:0,0:0:0:0:
212,232,34374,1,0,0:0:0:0:
256,80,34815,5,4,0:0:0:0:
388,168,35256,1,0,0:0:0:0:
388,168,35477,2,0,L|396:60,1,80,0|0,0:0|1:0,0:0:0:0:
500,208,36138,2,0,L|494:287,1,80,0|0,0:0|0:0,0:0:0:0:
488,368,36579,5,0,3:0:0:0:
332,328,37021,2,0,P|248:300|168:340,1,160,4|0,3:0|1:0,0:0:0:0:
108,348,37682,2,0,P|52:352|0:264,1,160,0|0,0:0|0:0,0:0:0:0:
80,272,38344,5,4,0:0:0:0:
224,204,38785,2,0,L|220:108,1,80,0|0,0:0|0:0,0:0:0:0:
156,72,39227,2,0,P|200:44|296:92,1,160,0|0,1:0|0:0,0:0:0:0:
328,156,39888,1,0,3:0:0:0:
396,112,40109,6,0,L|392:28,2,80,0|0|4,3:0|3:0|3:0,0:0:0:0:
492,240,40991,1,0,1:0:0:0:
348,312,41432,1,0,0:0:0:0:
504,356,41874,6,0,P|444:336|348:372,1,160,4|0,0:0|0:0,0:0:0:0:
276,356,42535,1,0,0:0:0:0:
264,276,42756,2,0,L|261:197,1,80,0|0,1:0|0:0,0:0:0:0:
344,232,43197,1,0,0:0:0:0:
344,232,43418,2,0,L|348:312,1,80,0|0,0:0|0:0,0:0:0:0:
276,356,43859,1,0,0:0:0:0:
276,356,44079,1,0,0:0:0:0:
132,280,44521,5,0,1:0:0:0:
272,200,44962,1,0,0:0:0:0:
396,304,45403,2,0,B|460:336|460:336|496:288|472:228,1,160,4|0,0:0|0:0,0:0:0:0:
424,192,46065,1,0,0:0:0:0:
479,131,46285,2,0,B|496:96|460:48|460:48|396:80,1,160,0|0,1:0|0:0,0:0:0:0:
340,136,46947,1,0,0:0:0:0:
288,196,47168,6,0,L|292:296,1,80,0|2,3:0|3:0,0:0:0:0:
256,348,47609,2,0,B|208:368|172:348|172:348|136:328|88:352,1,160,4|0,0:0|1:0,0:0:0:0:
48,288,48271,2,0,L|44:208,1,80,0|0,0:0|0:0,0:0:0:0:
44,128,48712,1,0,0:0:0:0:
44,128,48932,5,4,0:0:0:0:
176,40,49374,2,0,L|179:119,1,80,0|0,0:0|0:0,0:0:0:0:
132,184,49815,2,0,P|184:200|256:128,1,160,0|0,1:0|0:0,0:0:0:0:
268,56,50477,1,0,0:0:0:0:
328,108,50697,6,0,B|362:126|398:106|398:106|434:86|482:106,2,160,0|4|0,3:0|3:0|1:0,0:0:0:0:
236,240,52021,2,0,L|232:340,1,80,0|0,0:0|0:0,0:0:0:0:
164,360,52462,6,0,P|104:380|16:316,1,160,4|0,0:0|0:0,0:0:0:0:
36,256,53124,1,0,0:0:0:0:
36,256,53344,2,0,L|40:92,1,160,0|0,1:0|0:0,0:0:0:0:
104,48,54006,1,0,0:0:0:0:
140,120,54227,6,0,L|136:199,1,80,0|2,3:0|3:0,0:0:0:0:
164,276,54668,2,0,P|224:308|324:256,1,160,4|4,0:0|3:0,0:0:0:0:
328,204,55329,1,0,0:0:0:0:
328,204,55550,2,0,L|331:124,1,80,0|0,0:0|0:0,0:0:0:0:
272,68,55991,6,0,P|320:44|412:112,1,160,4|0,0:0|0:0,0:0:0:0:
405,292,56874,2,0,P|345:339|272:316,1,160,0|0,1:0|0:0,0:0:0:0:
180,192,57756,6,0,B|132:212|96:192|96:192|60:172|12:196,2,160,0|0|0,0:0|0:0|1:0,0:0:0:0:
256,192,58859,2,0,L|356:192,1,80,0|0,0:0|0:0,0:0:0:0:
256,192,59521,12,4,61285,0:0:0:0:
68,136,61727,5,0,0:0:0:0:
176,16,62168,1,0,1:0:0:0:
184,176,62609,2,0,L|180:288,1,80,0|0,0:0|0:0,0:0:0:0:
216,328,63050,6,0,P|276:360|364:324,1,160,0|0,0:0|0:0,0:0:0:0:
364,252,63712,1,0,0:0:0:0:
288,276,63932,2,0,L|284:180,2,80,0|0|0,1:0|0:0|0:0,0:0:0:0:
428,356,64815,5,4,0:0:0:0:
484,204,65256,1,0,0:0:0:0:
352,112,65697,2,0,P|284:80|204:136,1,160,0|0,1:0|0:0,0:0:0:0:
176,188,66359,1,0,0:0:0:0:
108,144,66579,6,0,L|104:48,2,80,0|0|4,3:0|3:0|3:0,0:0:0:0:
216,260,67462,2,0,L|208:356,2,80,0|0|0,1:0|0:0|0:0,0:0:0:0:
268,200,68124,1,0,0:0:0:0:
312,268,68344,6,0,P|384:292|456:244,1,160,4|0,0:0|0:0,0:0:0:0:
396,192,69006,1,0,0:0:0:0:
451,132,69227,2,0,P|385:92|312:116,1,160,0|0,1:0|0:0,0:0:0:0:
284,192,69888,1,0,0:0:0:0:
204,192,70109,6,0,B|156:212|120:192|120:192|88:172|36:196,2,160,0|4|0,0:0|3:0|1:0,0:0:0:0:
284,192,71212,2,0,L|280:92,1,80,0|0,0:0|0:0,0:0:0:0:
332,48,71653,1,0,0:0:0:0:
364,120,71874,6,0,L|367:199,1,80,4|0,0:0|3:0,0:0:0:0:
432,244,72315,1,0,0:0:0:0:
396,316,72535,2,0,P|352:312|304:328,1,80,0|0,0:0|1:0,0:0:0:0:
256,372,72977,1,0,0:0:0:0:
176,356,73197,2,0,P|128:360|84:340,1,80,0|0,0:0|0:0,0:0:0:0:
144,284,73638,6,0,L|140:124,1,160,4|0,0:0|1:0,0:0:0:0:
184,56,74300,1,8,3:0:0:0:
232,120,74521,2,0,L|324:108,1,80,0|0,1:0|1:0,0:0:0:0:
308,188,74962,2,0,L|400:196,1,80,8|0,3:0|0:0,0:0:0:0:
428,264,75403,5,4,0:0:0:0:
308,368,75844,1,0,0:0:0:0:
280,292,76065,1,0,0:0:0:0:
220,344,76285,2,0,B|156:360|156:360|52:332,1,160,0|0,1:0|0:0,0:0:0:0:
20,268,76947,1,0,0:0:0:0:
96,244,77168,6,0,L|88:72,1,160,0|0,0:0|0:0,0:0:0:0:
236,20,78050,2,0,L|239:99,1,80,0|0,1:0|0:0,0:0:0:0:
300,152,78491,6,0,P|352:176|464:136,2,160,0|0|0,0:0|0:0|0:0,0:0:0:0:
240,100,79594,1,0,0:0:0:0:
180,152,79815,2,0,P|128:128|32:160,1,160,0|0,1:0|0:0,0:0:0:0:
32,236,80477,1,0,0:0:0:0:
112,220,80697,6,0,L|108:332,1,80,0|0,3:0|3:0,0:0:0:0:
168,356,81138,2,0,P|228:372|316:328,1,160,4|0,3:0|1:0,0:0:0:0:
324,252,81800,2,0,L|320:140,2,80,0|0|0,0:0|0:0|0:0,0:0:0:0:
313,331,82462,6,0,P|245:370|168:356,1,160,4|0,0:0|0:0,0:0:0:0:
96,316,83124,1,0,0:0:0:0:
56,248,83344,2,0,L|64:80,1,160,0|0,1:0|0:0,0:0:0:0:
124,36,84006,1,0,0:0:0:0:
160,108,84227,6,0,B|194:126|230:106|230:106|266:86|314:106,2,160,0|0|0,0:0|0:0|1:0,0:0:0:0:
124,36,85329,1,0,0:0:0:0:
63,88,85550,2,0,L|60:200,1,80,0|0,0:0|0:0,0:0:0:0:
0,224,85991,6,0,P|72:248|144:180,1,160,4|0,0:0|0:0,0:0:0:0:
196,148,86653,1,0,0:0:0:0:
232,220,86874,2,0,L|400:228,1,160,0|0,1:0|0:0,0:0:0:0:
460,272,87535,1,0,0:0:0:0:
424,344,87756,6,0,P|376:348|324:332,1,80,0|0,3:0|3:0,0:0:0:0:
264,336,88197,2,0,P|184:312|88:344,1,160,4|0,3:0|1:0,0:0:0:0:
36,360,88859,1,0,0:0:0:0:
48,280,89079,2,0,L|44:168,1,80,0|0,0:0|0:0,0:0:0:0:
40,120,89521,5,4,0:0:0:0:
176,36,89962,1,0,0:0:0:0:
208,108,90182,1,0,0:0:0:0:
280,72,90403,2,0,P|340:44|440:96,1,160,0|0,1:0|0:0,0:0:0:0:
448,152,91065,1,0,0:0:0:0:
448,152,91285,6,0,L|444:244,1,80,0|0,0:0|3:0,0:0:0:0:
424,308,91727,2,0,B|344:324|344:324|288:252,1,160,0|0,3:0|1:0,0:0:0:0:
216,262,92388,2,0,B|168:324|168:324|88:308,1,160,4|0,0:0|0:0,0:0:0:0:
67,231,93050,1,4,0:0:0:0:
308,20,93932,6,0,P|336:72|280:184,1,160,0|0,1:0|0:0,0:0:0:0:
256,224,94594,1,0,0:0:0:0:
203,164,94815,2,0,P|173:91|204:20,1,160,0|0,0:0|3:0,0:0:0:0:
256,80,95477,1,0,0:0:0:0:
308,20,95697,2,0,P|336:72|280:184,1,160,0|0,1:0|0:0,0:0:0:0:
188,272,96579,6,0,P|124:236|32:296,1,160,4|0,0:0|0:0,0:0:0:0:
116,328,97241,1,0,0:0:0:0:
188,272,97462,2,0,L|184:168,1,80,0|0,1:0|0:0,0:0:0:0:
180,112,97903,5,0,0:0:0:0:
320,32,98344,2,0,P|384:20|472:80,1,160,4|0,0:0|3:0,0:0:0:0:
420,132,99006,1,0,0:0:0:0:
464,200,99227,2,0,P|398:243|320:233,1,160,0|0,1:0|0:0,0:0:0:0:
272,172,99888,1,0,0:0:0:0:
212,120,100109,6,0,L|220:24,2,80,0|0|0,3:0|3:0|0:0,0:0:0:0:
84,216,100991,2,0,L|92:308,2,80,0|0|0,1:0|0:0|3:0,0:0:0:0:
212,120,101874,6,0,L|220:24,2,80,4|0|2,0:0|0:0|3:0,0:0:0:0:
168,188,102535,1,0,0:0:0:0:
196,264,102756,2,0,P|232:256|292:276,1,80,0|0,0:0|3:0,0:0:0:0:
320,332,103197,2,0,P|376:344|416:336,1,80,4|0,3:0|0:0,0:0:0:0:
460,288,103638,5,4,0:0:0:0:
460,128,104079,2,0,P|408:116|360:128,1,80,0|0,0:0|0:0,0:0:0:0:
304,108,104521,2,0,P|240:132|136:84,1,160,0|0,1:0|0:0,0:0:0:0:
96,56,105182,1,0,0:0:0:0:
76,132,105403,6,0,L|68:304,1,160,0|0,0:0|0:0,0:0:0:0:
216,348,106285,2,0,L|219:268,1,80,0|0,1:0|0:0,0:0:0:0:
284,220,106726,6,0,P|336:196|448:236,2,160,0|4|0,0:0|0:0|0:0,0:0:0:0:
240,288,107829,1,0,0:0:0:0:
184,232,108050,2,0,P|132:256|36:224,1,160,0|0,1:0|0:0,0:0:0:0:
32,148,108712,1,0,0:0:0:0:
112,164,108932,6,0,L|108:52,1,80,0|0,3:0|3:0,0:0:0:0:
168,28,109373,2,0,P|228:12|316:56,1,160,4|0,3:0|1:0,0:0:0:0:
324,132,110035,2,0,L|320:244,2,80,0|0|0,0:0|0:0|0:0,0:0:0:0:
313,52,110697,6,0,P|245:13|168:28,1,160,4|0,0:0|0:0,0:0:0:0:
96,68,111359,1,0,0:0:0:0:
56,136,111579,2,0,L|64:304,1,160,0|0,1:0|0:0,0:0:0:0:
124,348,112241,1,0,0:0:0:0:
160,276,112462,6,0,B|194:257|230:277|230:277|266:297|314:277,2,160,0|4|0,3:0|3:0|1:0,0:0:0:0:
124,348,113564,1,0,0:0:0:0:
63,295,113785,2,0,L|60:184,1,80,0|0,0:0|0:0,0:0:0:0:
0,160,114226,6,0,P|72:136|144:204,1,160,4|0,0:0|0:0,0:0:0:0:
196,236,114888,1,0,0:0:0:0:
232,164,115109,2,0,L|400:156,1,160,0|0,1:0|0:0,0:0:0:0:
460,112,115770,1,0,0:0:0:0:
424,40,115991,6,0,P|376:36|324:52,1,80,0|0,3:0|3:0,0:0:0:0:
264,48,116432,2,0,P|184:72|88:40,1,160,4|4,3:0|0:0,0:0:0:0:
36,24,117094,1,0,0:0:0:0:
48,104,117314,2,0,L|44:216,1,80,0|0,0:0|0:0,0:0:0:0:
40,264,117756,5,4,0:0:0:0:
176,348,118197,1,0,0:0:0:0:
208,276,118417,1,0,0:0:0:0:
280,312,118638,2,0,P|340:340|440:288,1,160,0|0,1:0|0:0,0:0:0:0:
448,232,119300,1,0,0:0:0:0:
448,232,119520,6,0,L|444:140,1,80,0|0,3:0|3:0,0:0:0:0:
424,76,119962,2,0,B|344:60|344:60|288:132,1,160,4|0,3:0|1:0,0:0:0:0:
216,121,120623,2,0,B|168:60|168:60|88:76,1,160,4|0,0:0|0:0,0:0:0:0:
67,152,121285,1,4,0:0:0:0:
308,364,122167,6,0,P|336:312|280:200,1,160,0|0,1:0|0:0,0:0:0:0:
256,160,122829,1,0,0:0:0:0:
203,219,123050,2,0,P|173:292|204:364,1,160,4|4,0:0|3:0,0:0:0:0:
256,160,123932,6,0,B|240:116|256:80|256:80|268:40|256:0,2,160,0|4|4,1:0|3:0|0:0,0:0:0:0:
256,192,124925,12,0,128344,3:0:0:0:
