osu file format v13

[General]
AudioFilename: cutee.mp3
AudioLeadIn: 0
PreviewTime: 75182
Countdown: 0
SampleSet: Soft
StackLeniency: 0.4
Mode: 0
LetterboxInBreaks: 0
EpilepsyWarning: 1
WidescreenStoryboard: 0

[Editor]
Bookmarks: 63050
DistanceSpacing: 1
BeatDivisor: 4
GridSize: 4
TimelineZoom: 1

[Metadata]
Title:Itsumo Yori Nakimushi Na Sora
TitleUnicode:いつもより泣き虫な空
Artist:rerulili
ArtistUnicode:れるりり
Creator:Chewin
Version:Hard
Source:
Tags:A Sky More Apt to Cry Than Usual 初音ミク V3 Vocaloid Hatsune Miku cut Kenterz
BeatmapID:326044
BeatmapSetID:128869

[Difficulty]
HPDrainRate:6
CircleSize:4
OverallDifficulty:6
ApproachRate:8
SliderMultiplier:1.8
SliderTickRate:1

[Events]
//Background and Video events
0,0,"maxresdefault.jpg",0,0
//Break Periods
//Storyboard Layer 0 (Background)
//Storyboard Layer 1 (Fail)
//Storyboard Layer 2 (Pass)
//Storyboard Layer 3 (Foreground)
//Storyboard Sound Samples
//Background Colour Transformations
3,100,163,162,255

[TimingPoints]
6580,441.176470588235,4,2,0,50,1,0
37021,-100,4,2,0,30,0,0
37131,-100,4,2,0,50,0,0
40550,-100,4,2,0,30,0,0
40660,-100,4,2,0,50,0,0
47609,-100,4,2,0,30,0,0
47719,-100,4,2,0,50,0,0
51138,-100,4,2,0,30,0,0
51249,-100,4,2,0,50,0,0
54668,-100,4,2,0,30,0,0
54778,-100,4,2,0,50,0,0
67021,-100,4,2,0,30,0,0
67131,-100,4,2,0,50,0,0
70550,-100,4,2,0,30,0,0
70660,-100,4,2,0,50,0,0
75403,-100,4,2,0,60,0,1
81138,-100,4,2,0,30,0,1
81359,-100,4,2,0,60,0,1
88197,-100,4,2,0,30,0,1
88307,-100,4,2,0,60,0,1
89521,-100,4,2,0,50,0,0
92388,-100,4,2,0,30,0,0
92499,-100,4,2,0,50,0,0
103197,-100,4,2,0,30,0,0
103307,-100,4,2,0,50,0,0
103638,-100,4,2,0,60,0,1
107168,-100,4,2,0,50,0,1
107278,-100,4,2,0,60,0,1
109374,-100,4,2,0,30,0,1
109484,-100,4,2,0,60,0,1
112903,-100,4,2,0,30,0,1
113013,-100,4,2,0,60,0,1
116432,-100,4,2,0,30,0,1
116543,-100,4,2,0,60,0,1
117756,-100,4,2,0,50,0,0
119962,-100,4,2,0,30,0,0
120072,-100,4,2,0,50,0,0
120624,-100,4,2,0,35,0,0
120734,-100,4,2,0,50,0,0
123491,-100,4,2,0,30,0,0
123602,-100,4,2,0,50,0,0
124374,-100,4,2,0,40,0,0
124815,-100,4,2,0,50,0,0

[Colours]
Combo1 : 51,255,255
Combo2 : 243,243,243
Combo3 : 53,154,255
Combo4 : 255,85,170

[HitObjects]
256,192,31285,12,0,33050,3:0:0:0:
128,44,33491,22,0,P|136:96|124:152,1,90,0|0,3:0|0:0,0:0:0:0:
48,168,33932,2,0,P|40:224|56:280,1,90,4|0,3:0|0:0,0:0:0:0:
100,328,34374,1,0,0:0:0:0:
184,360,34594,1,0,0:0:0:0:
252,300,34815,6,0,P|268:208|248:112,1,180,4|0,0:0|0:0,0:0:0:0:
164,108,35477,1,0,0:0:0:0:
188,196,35697,2,0,P|276:212|352:140,1,180,0|0,1:0|0:0,0:0:0:0:
408,96,36359,1,0,0:0:0:0:
468,164,36579,6,0,P|480:224|460:276,1,90,0|0,3:0|3:0,0:0:0:0:
460,340,37021,1,4,3:0:0:0:
376,312,37241,2,0,P|328:304|268:320,1,90,0|0,0:0|1:0,0:0:0:0:
220,360,37682,1,0,0:0:0:0:
132,344,37903,2,0,P|76:352|28:336,1,90
16,256,38344,6,0,L|28:76,1,180,4|0,0:0|0:0,0:0:0:0:
92,16,39006,1,0,0:0:0:0:
164,72,39227,2,0,P|172:132|164:168,1,90,0|0,1:0|0:0,0:0:0:0:
112,232,39668,1,0,0:0:0:0:
84,316,39888,5,0,3:0:0:0:
156,368,40109,1,0,3:0:0:0:
232,320,40329,1,0,3:0:0:0:
232,228,40550,2,0,P|216:136|232:48,1,180,4|0,3:0|1:0,0:0:0:0:
312,16,41212,1,0,0:0:0:0:
392,60,41432,2,0,P|400:104|392:148,1,90
320,216,41874,6,4,P|396:248|480:184,1,180,4|0,0:0|0:0,0:0:0:0:
392,148,42535,1,0,0:0:0:0:
392,148,42756,2,0,L|392:352,1,180,0|0,1:0|0:0,0:0:0:0:
304,356,43418,5,0,0:0:0:0:
304,356,43528,1,0,0:0:0:0:
304,356,43638,2,0,P|264:368|192:336,1,90,0|0,0:0|0:0,0:0:0:0:
160,288,44079,1,0,0:0:0:0:
92,344,44300,2,0,P|40:336|-12:352,2,90,0|0|0,0:0|1:0|0:0,0:0:0:0:
160,288,44962,1,0,0:0:0:0:
228,232,45182,1,0,0:0:0:0:
284,152,45403,6,0,P|320:216|268:324,1,180,4|0,0:0|0:0,0:0:0:0:
228,232,46065,1,0,0:0:0:0:
192,148,46285,2,0,P|208:88|244:60,1,90,0|0,1:0|0:0,0:0:0:0:
312,36,46727,1,0,0:0:0:0:
380,96,46947,6,0,L|488:104,1,90,0|0,0:0|3:0,0:0:0:0:
488,192,47388,1,2,3:0:0:0:
476,280,47609,2,0,P|412:324|304:276,1,180,4|0,0:0|1:0,0:0:0:0:
280,216,48271,1,0,0:0:0:0:
344,152,48491,1,0,0:0:0:0:
308,68,48712,1,0,0:0:0:0:
220,92,48932,6,0,P|156:132|52:84,1,180,4|0,0:0|0:0,0:0:0:0:
138,35,49594,1,0,0:0:0:0:
220,92,49815,2,0,L|208:272,1,180,0|0,1:0|0:0,0:0:0:0:
152,344,50477,6,0,P|100:360|40:336,1,90,0|0,0:0|3:0,0:0:0:0:
16,276,50918,1,0,0:0:0:0:
80,212,51138,2,0,P|184:188|252:264,1,180,4|0,3:0|1:0,0:0:0:0:
256,316,51800,1,0,0:0:0:0:
336,364,52021,2,0,P|384:372|448:356,1,90
464,284,52462,6,0,L|456:96,1,180,4|0,0:0|0:0,0:0:0:0:
392,44,53124,1,0,0:0:0:0:
316,92,53344,2,0,L|323:271,1,180,0|0,1:0|0:0,0:0:0:0:
280,352,54006,1,0,0:0:0:0:
224,280,54227,5,0,3:0:0:0:
140,316,54447,1,2,3:0:0:0:
56,348,54668,1,4,0:0:0:0:
12,268,54888,2,0,P|0:216|8:168,1,90,0|4,0:0|3:0,0:0:0:0:
32,96,55329,1,0,0:0:0:0:
112,52,55550,1,0,0:0:0:0:
168,124,55771,5,0,0:0:0:0:
168,124,55881,1,0,0:0:0:0:
168,124,55991,2,0,P|268:152|352:96,1,180,4|0,0:0|0:0,0:0:0:0:
396,56,56653,1,0,0:0:0:0:
452,128,56874,2,0,P|464:184|456:232,1,90,0|0,1:0|0:0,0:0:0:0:
396,276,57315,2,0,P|384:324|392:372,1,90
468,316,57756,6,0,P|404:276|304:324,1,180
240,368,58418,1,0,0:0:0:0:
168,320,58638,2,0,P|88:348|8:288,1,180,0|0,1:0|0:0,0:0:0:0:
24,208,59300,1,0,0:0:0:0:
96,152,59521,6,0,P|168:128|256:188,1,180,4|0,0:0|0:0,0:0:0:0:
292,260,60182,1,0,0:0:0:0:
292,260,60293,1,0,0:0:0:0:
292,260,60403,2,0,P|284:324|300:368,1,90,0|0,1:0|0:0,0:0:0:0:
376,372,60844,1,0,3:0:0:0:
448,320,61065,6,0,P|456:272|432:204,1,90,0|4,0:0|0:0,0:0:0:0:
332,92,61727,2,0,P|324:140|340:192,1,90
292,260,62168,2,0,P|240:296|128:240,1,180,0|0,1:0|0:0,0:0:0:0:
80,192,62829,1,0,0:0:0:0:
138,125,63050,2,0,P|214:84|292:124,1,180,0|0,1:0|0:0,0:0:0:0:
356,188,63712,1,0,0:0:0:0:
432,144,63932,2,0,P|439:100|427:56,1,90,0|0,1:0|0:0,0:0:0:0:
356,188,64374,2,0,P|348:236|364:288,1,90
432,328,64815,6,0,P|388:360|268:304,1,180,4|0,0:0|0:0,0:0:0:0:
104,364,65697,2,0,L|96:180,1,180,0|0,1:0|0:0,0:0:0:0:
104,100,66359,1,0,0:0:0:0:
168,160,66579,6,0,L|258:154,1,90,0|0,3:0|3:0,0:0:0:0:
296,72,67021,2,0,P|340:128|292:236,1,180,4|0,3:0|1:0,0:0:0:0:
256,152,67682,1,0,0:0:0:0:
216,72,67903,2,0,P|224:28|268:-4,1,90
256,152,68344,6,0,P|180:160|128:80,1,180,4|0,0:0|0:0,0:0:0:0:
216,72,69006,1,0,0:0:0:0:
256,152,69227,2,0,L|248:336,1,180,0|0,1:0|0:0,0:0:0:0:
164,364,69888,1,0,0:0:0:0:
83,319,70109,6,0,P|75:275|84:232,1,90,0|0,0:0|3:0,0:0:0:0:
152,172,70550,2,0,P|88:144|-4:208,1,180,4|0,3:0|1:0,0:0:0:0:
84,232,71212,1,0,0:0:0:0:
152,172,71432,2,0,L|152:80,1,90
68,52,71874,6,0,L|68:142,1,90,4|0,0:0|3:0,0:0:0:0:
84,232,72315,1,0,0:0:0:0:
164,272,72535,2,0,P|176:320|156:384,1,90,0|0,0:0|1:0,0:0:0:0:
88,316,72977,1,0,0:0:0:0:
84,232,73197,2,0,P|124:196|244:236,1,180,0|4,0:0|0:0,0:0:0:0:
296,292,73859,5,0,0:0:0:0:
368,348,74079,2,0,P|424:348|464:320,1,90,0|8,1:0|3:0,0:0:0:0:
472,244,74521,2,0,L|468:140,1,90,0|0,1:0|1:0,0:0:0:0:
404,92,74962,2,0,P|352:80|304:104,1,90,8|0,3:0|0:0,0:0:0:0:
280,172,75403,6,0,P|204:208|104:152,1,180,4|0,0:0|0:0,0:0:0:0:
116,84,76065,1,0,0:0:0:0:
200,124,76285,2,0,L|192:312,1,180,0|0,1:0|0:0,0:0:0:0:
112,344,76947,1,0,0:0:0:0:
40,292,77168,2,0,P|20:216|36:104,1,180
72,36,77829,1,0,0:0:0:0:
148,84,78050,2,0,L|260:88,1,90,0|0,1:0|0:0,0:0:0:0:
308,28,78491,2,0,P|324:72|312:136,1,90
256,176,78932,6,0,P|232:256|264:356,1,180
344,368,79594,1,0,0:0:0:0:
424,328,79815,2,0,P|436:276|428:232,1,90,0|0,1:0|0:0,0:0:0:0:
364,180,80256,2,0,P|352:120|360:76,1,90
424,32,80697,5,0,3:0:0:0:
500,80,80918,1,0,3:0:0:0:
472,164,81138,2,0,P|480:216|472:264,1,90,4|0,3:0|3:0,0:0:0:0:
424,328,81579,2,0,P|352:360|244:304,1,180,0|0,1:0|0:0,0:0:0:0:
252,236,82241,1,0,0:0:0:0:
168,268,82462,6,0,P|92:239|8:304,1,180,4|0,0:0|0:0,0:0:0:0:
100,336,83124,1,0,0:0:0:0:
168,268,83344,2,0,L|164:84,1,180,0|0,1:0|0:0,0:0:0:0:
96,28,84006,1,0,0:0:0:0:
32,92,84227,6,0,L|35:271,1,180
100,336,84888,1,0,0:0:0:0:
168,268,85109,2,0,P|176:204|164:152,1,90,0|0,1:0|0:0,0:0:0:0:
124,104,85550,1,0,0:0:0:0:
188,40,85771,1,0,0:0:0:0:
244,108,85991,6,0,P|336:144|408:92,1,180,4|0,0:0|0:0,0:0:0:0:
320,52,86653,1,0,0:0:0:0:
320,52,86874,2,0,L|324:240,1,180,0|0,1:0|0:0,0:0:0:0:
324,320,87535,1,0,0:0:0:0:
404,360,87756,6,0,P|452:364|500:336,1,90,0|0,3:0|3:0,0:0:0:0:
512,260,88197,2,0,B|508:156,1,90,4|0,3:0|3:0,0:0:0:0:
500,80,88638,1,0,1:0:0:0:
420,36,88859,1,0,0:0:0:0:
364,104,89079,2,0,P|356:160|372:208,1,90
444,232,89521,6,0,P|392:276|280:228,1,180,4|0,0:0|0:0,0:0:0:0:
260,164,90182,1,0,0:0:0:0:
208,88,90403,2,0,P|136:44|36:92,1,180,0|0,1:0|0:0,0:0:0:0:
120,132,91065,1,0,0:0:0:0:
48,188,91285,2,0,L|52:292,1,90,0|0,0:0|3:0,0:0:0:0:
124,332,91727,6,0,P|176:368|296:340,1,180,0|0,3:0|1:0,0:0:0:0:
300,260,92388,2,0,L|296:80,1,180,4|0,0:0|0:0,0:0:0:0:
208,56,93050,2,0,L|212:236,1,180,4|0,0:0|0:0,0:0:0:0:
248,320,93712,1,0,0:0:0:0:
336,324,93932,6,0,P|404:348|488:280,1,180,0|0,1:0|0:0,0:0:0:0:
400,256,94594,1,0,0:0:0:0:
460,188,94815,2,0,P|376:167|311:224,1,180,0|0,0:0|3:0,0:0:0:0:
268,304,95477,1,0,0:0:0:0:
184,348,95697,2,0,P|132:356|84:328,1,90,0|0,1:0|0:0,0:0:0:0:
76,256,96138,2,0,B|80:164,1,90
12,104,96579,6,0,P|60:76|168:132,1,180,4|0,0:0|0:0,0:0:0:0:
256,132,97241,1,0,0:0:0:0:
228,216,97462,2,0,P|220:260|228:312,1,90,0|0,1:0|0:0,0:0:0:0:
296,360,97903,2,0,L|408:368,1,90
456,308,98344,6,0,P|472:216|456:124,1,180,4|0,0:0|3:0,0:0:0:0:
408,56,99006,1,0,0:0:0:0:
340,116,99227,2,0,P|332:168|348:220,1,90,0|0,1:0|0:0,0:0:0:0:
376,288,99668,1,0,0:0:0:0:
324,360,99888,1,0,0:0:0:0:
256,304,100109,5,0,3:0:0:0:
188,360,100329,1,0,3:0:0:0:
136,288,100550,2,0,P|108:208|144:96,1,180,0|0,0:0|1:0,0:0:0:0:
200,64,101212,1,0,0:0:0:0:
256,132,101432,2,0,P|264:184|256:232,1,90,0|0,3:0|0:0,0:0:0:0:
216,300,101874,5,4,0:0:0:0:
272,372,102094,1,0,0:0:0:0:
364,368,102315,1,2,3:0:0:0:
424,300,102535,1,0,0:0:0:0:
408,212,102756,1,0,0:0:0:0:
340,156,102977,2,0,P|328:104|344:48,1,90,0|4,3:0|3:0,0:0:0:0:
412,112,103418,1,0,0:0:0:0:
408,212,103638,6,0,P|348:244|256:180,1,180,4|0,0:0|0:0,0:0:0:0:
252,100,104300,1,0,0:0:0:0:
172,60,104521,2,0,L|64:64,1,90,0|0,1:0|0:0,0:0:0:0:
52,148,104962,2,0,L|141:144,1,90
180,228,105403,6,0,L|-4:236,2,180,0|0|0,0:0|0:0|1:0,0:0:0:0:
268,220,106506,1,0,0:0:0:0:
304,304,106727,2,0,P|356:340|460:260,1,180,0|4,0:0|0:0,0:0:0:0:
464,204,107388,5,0,0:0:0:0:
396,144,107609,2,0,P|372:192|392:252,1,90
464,204,108050,2,0,P|488:156|392:52,1,180,0|0,1:0|0:0,0:0:0:0:
340,80,108712,1,0,0:0:0:0:
256,48,108932,5,0,3:0:0:0:
188,108,109153,1,0,3:0:0:0:
236,184,109374,2,0,P|256:280|236:364,1,180,4|0,3:0|1:0,0:0:0:0:
148,364,110035,1,0,0:0:0:0:
80,308,110256,2,0,P|68:244|80:200,1,90
8,160,110697,6,0,P|64:216|164:168,1,180,4|0,0:0|0:0,0:0:0:0:
188,108,111359,1,0,0:0:0:0:
260,160,111579,2,0,P|332:120|432:184,1,180,0|0,1:0|0:0,0:0:0:0:
428,244,112241,1,0,0:0:0:0:
352,296,112462,6,0,P|336:248|356:188,1,90,0|0,3:0|3:0,0:0:0:0:
412,156,112903,2,0,B|400:96|424:40|424:40|396:56|360:48,2,180,4|0|0,3:0|1:0|0:0,0:0:0:0:
324,148,114006,1,0,0:0:0:0:
252,204,114227,6,0,P|180:240|100:180,1,180,4|0,0:0|0:0,0:0:0:0:
184,148,114888,1,0,0:0:0:0:
184,148,115109,2,0,L|168:332,1,180,0|0,1:0|0:0,0:0:0:0:
80,340,115771,1,0,0:0:0:0:
16,276,115991,6,0,P|8:224|24:176,1,90,0|0,3:0|3:0,0:0:0:0:
96,143,116432,2,0,P|103:99|97:55,1,90,4|0,3:0|0:0,0:0:0:0:
97,55,116763,1,0,0:0:0:0:
97,55,116874,2,0,L|208:72,1,90,4|0,0:0|0:0,0:0:0:0:
272,40,117315,1,0,0:0:0:0:
288,128,117535,1,0,0:0:0:0:
364,80,117756,6,0,B|408:112|468:80|468:80|488:124|464:160,1,180,4|0,0:0|0:0,0:0:0:0:
404,208,118418,1,0,0:0:0:0:
344,276,118638,2,0,P|336:328|348:372,1,90,0|0,1:0|0:0,0:0:0:0:
424,320,119079,1,0,0:0:0:0:
480,252,119300,1,0,0:0:0:0:
404,208,119521,6,0,P|340:188|284:212,1,90,0|0,3:0|3:0,0:0:0:0:
280,224,119852,1,0,0:0:0:0:
280,224,119962,2,0,P|232:236|168:220,1,90,4|0,3:0|0:0,0:0:0:0:
112,272,120403,1,0,1:0:0:0:
28,304,120624,2,0,P|76:352|192:320,1,180,4|0,0:0|0:0,0:0:0:0:
194,242,121285,6,0,P|146:194|34:230,1,180,4|0,0:0|0:0,0:0:0:0:
304,300,122168,2,0,P|352:348|464:312,1,180,0|0,1:0|0:0,0:0:0:0:
388,264,122829,1,0,0:0:0:0:
388,264,123050,6,0,L|384:72,1,180,4|4,0:0|3:0,0:0:0:0:
111,84,123932,2,0,L|104:252,1,90,0|0,1:0|0:0,0:0:0:0:
40,236,124374,2,0,L|48:344,1,90,4|8,3:0|3:0,0:0:0:0:
132,352,124815,1,4,0:0:0:0:
256,192,124925,12,0,128344,3:0:0:0:
