osu file format v12

[General]
AudioFilename: connect_r.mp3
AudioLeadIn: 2000
PreviewTime: 66840
Countdown: 0
SampleSet: Normal
StackLeniency: 0.7
Mode: 1
LetterboxInBreaks: 0

[Editor]
Bookmarks: 66840
DistanceSpacing: 1
BeatDivisor: 4
GridSize: 32

[Metadata]
Title:CONNECT r
TitleUnicode:CONNECT γ
Artist:remixed celas vs 44teru-k
ArtistUnicode:remixed celas vs 44teru-k
Creator:dialgadu77
Version:Oni
Source:BMS
Tags:gamma mahou shoujo puella magi madoka magica madomagi creation anime hardcore
BeatmapID:204161
BeatmapSetID:71163

[Difficulty]
HPDrainRate:6
CircleSize:5
OverallDifficulty:6
ApproachRate:5
SliderMultiplier:1.4
SliderTickRate:1

[Events]
//Background and Video events
0,0,"mdk_ichiou.jpg",0,0
//Break Periods
//Storyboard Layer 0 (Background)
//Storyboard Layer 1 (Fail)
//Storyboard Layer 2 (Pass)
//Storyboard Layer 3 (Foreground)
//Storyboard Sound Samples
//Background Colour Transformations
3,100,163,162,255

[TimingPoints]
1011,342.857142857143,4,1,0,70,1,0
66840,-100,4,1,0,70,0,1
76268,-100,4,1,0,70,0,0
78154,-100,4,1,0,70,0,1
79697,-100,4,1,0,70,0,0
80382,-100,4,1,0,70,0,1
88782,-100,4,1,0,70,0,0

[HitObjects]
256,192,668,1,0,0:0:0:0:
256,192,754,1,0,0:0:0:0:
256,192,840,1,0,0:0:0:0:
256,192,925,1,0,0:0:0:0:
256,192,1011,5,8,0:0:0:0:
256,192,1182,5,0,0:0:0:0:
256,192,1268,1,0,0:0:0:0:
256,192,1354,1,0,0:0:0:0:
256,192,1525,5,8,0:0:0:0:
256,192,1697,5,0,0:0:0:0:
256,192,1782,1,0,0:0:0:0:
256,192,1868,1,0,0:0:0:0:
256,192,1954,1,0,0:0:0:0:
256,192,2040,5,8,0:0:0:0:
256,192,2211,5,0,0:0:0:0:
256,192,2382,5,8,0:0:0:0:
256,192,2468,5,0,0:0:0:0:
256,192,2554,1,0,0:0:0:0:
256,192,2640,1,0,0:0:0:0:
256,192,2725,1,0,0:0:0:0:
256,192,2897,5,8,0:0:0:0:
256,192,2982,5,0,0:0:0:0:
256,192,3068,1,0,0:0:0:0:
256,192,3154,1,0,0:0:0:0:
256,192,3240,1,0,0:0:0:0:
256,192,3411,5,8,0:0:0:0:
256,192,3497,5,0,0:0:0:0:
256,192,3582,1,0,0:0:0:0:
256,192,3754,5,8,0:0:0:0:
256,192,3925,5,0,0:0:0:0:
256,192,4011,5,8,0:0:0:0:
256,192,4097,5,0,0:0:0:0:
256,192,4268,5,8,0:0:0:0:
256,192,4440,5,0,0:0:0:0:
256,192,4525,5,8,0:0:0:0:
256,192,4611,5,0,0:0:0:0:
256,192,4782,5,8,0:0:0:0:
256,192,4868,1,8,0:0:0:0:
256,192,4954,5,0,0:0:0:0:
256,192,5125,5,8,0:0:0:0:
256,192,5211,5,0,0:0:0:0:
256,192,5297,5,8,0:0:0:0:
256,192,5468,1,8,0:0:0:0:
256,192,5554,1,0,0:0:0:0:
256,192,5640,5,0,0:0:0:0:
256,192,5982,1,0,0:0:0:0:
256,192,6068,1,0,0:0:0:0:
256,192,6154,5,8,0:0:0:0:
256,192,6325,1,8,0:0:0:0:
256,192,6497,1,8,0:0:0:0:
256,192,6668,5,0,0:0:0:0:
256,192,6754,1,0,0:0:0:0:
256,192,6840,1,0,0:0:0:0:
256,192,7011,5,8,0:0:0:0:
256,192,7182,1,12,0:0:0:0:
256,192,7354,5,0,0:0:0:0:
256,192,7440,1,0,0:0:0:0:
256,192,7525,5,8,0:0:0:0:
256,192,7697,5,0,0:0:0:0:
256,192,7868,5,8,0:0:0:0:
256,192,8040,5,0,0:0:0:0:
256,192,8125,1,0,0:0:0:0:
256,192,8211,1,0,0:0:0:0:
256,192,8382,5,8,0:0:0:0:
256,192,8554,5,0,0:0:0:0:
256,192,8640,1,0,0:0:0:0:
256,192,8725,1,0,0:0:0:0:
256,192,8897,5,8,0:0:0:0:
256,192,8982,1,8,0:0:0:0:
256,192,9068,5,0,0:0:0:0:
256,192,9240,1,0,0:0:0:0:
256,192,9411,1,0,0:0:0:0:
256,192,9582,5,8,0:0:0:0:
256,192,9754,5,0,0:0:0:0:
256,192,9925,1,0,0:0:0:0:
256,192,10097,5,8,0:0:0:0:
256,192,10268,1,8,0:0:0:0:
256,192,10440,5,4,0:0:0:0:
256,192,10782,1,0,0:0:0:0:
256,192,10954,1,0,0:0:0:0:
256,192,11125,5,8,0:0:0:0:
256,192,11297,5,0,0:0:0:0:
256,192,11382,1,0,0:0:0:0:
256,192,11468,1,0,0:0:0:0:
256,192,11554,1,0,0:0:0:0:
256,192,11640,5,8,0:0:0:0:
256,192,11697,1,8,0:0:0:0:
256,192,11754,1,8,0:0:0:0:
256,192,11811,1,8,0:0:0:0:
256,192,11897,1,8,0:0:0:0:
256,192,11982,1,8,0:0:0:0:
256,192,12154,5,0,0:0:0:0:
256,192,12240,1,0,0:0:0:0:
256,192,12325,5,8,0:0:0:0:
256,192,12497,5,0,0:0:0:0:
256,192,12668,1,0,0:0:0:0:
256,192,12754,1,0,0:0:0:0:
256,192,12840,1,8,0:0:0:0:
256,192,13011,5,8,0:0:0:0:
256,192,13182,5,0,0:0:0:0:
256,192,13525,1,0,0:0:0:0:
256,192,13697,5,8,0:0:0:0:
256,192,13868,5,0,0:0:0:0:
256,192,14040,5,8,0:0:0:0:
256,192,14211,5,0,0:0:0:0:
256,192,14297,5,8,0:0:0:0:
256,192,14468,5,0,0:0:0:0:
256,192,14554,5,8,0:0:0:0:
256,192,14725,1,12,0:0:0:0:
256,192,14897,5,0,0:0:0:0:
256,192,14982,1,0,0:0:0:0:
256,192,15068,1,0,0:0:0:0:
256,192,15240,5,8,0:0:0:0:
256,192,15411,5,0,0:0:0:0:
256,192,15497,1,0,0:0:0:0:
256,192,15582,5,8,0:0:0:0:
256,192,15754,5,0,0:0:0:0:
256,192,15925,5,8,0:0:0:0:
256,192,16268,5,0,0:0:0:0:
256,192,16354,1,0,0:0:0:0:
256,192,16440,5,8,0:0:0:0:
256,192,16611,5,0,0:0:0:0:
256,192,16697,1,0,0:0:0:0:
256,192,16782,5,8,0:0:0:0:
256,192,16954,5,0,0:0:0:0:
256,192,17040,5,8,0:0:0:0:
256,192,17125,5,0,0:0:0:0:
256,192,17211,1,0,0:0:0:0:
256,192,17297,5,8,0:0:0:0:
256,192,17382,1,0,0:0:0:0:
256,192,17468,1,8,0:0:0:0:
256,192,17640,5,0,0:0:0:0:
256,192,17811,5,12,0:0:0:0:
256,192,17982,5,0,0:0:0:0:
256,192,18154,1,0,0:0:0:0:
256,192,18240,1,0,0:0:0:0:
256,192,18325,1,0,0:0:0:0:
256,192,18497,5,12,0:0:0:0:
256,192,18668,5,4,0:0:0:0:
256,192,19011,1,0,0:0:0:0:
256,192,19097,1,0,0:0:0:0:
256,192,19182,5,8,0:0:0:0:
256,192,19354,5,0,0:0:0:0:
256,192,19525,5,8,0:0:0:0:
256,192,19611,5,0,0:0:0:0:
256,192,19697,1,0,0:0:0:0:
256,192,19782,5,8,0:0:0:0:
256,192,19868,5,0,0:0:0:0:
256,192,19954,1,0,0:0:0:0:
256,192,20040,5,8,0:0:0:0:
256,192,20125,5,0,0:0:0:0:
256,192,20211,5,8,0:0:0:0:
256,192,20382,5,0,0:0:0:0:
256,192,20468,1,0,0:0:0:0:
256,192,20554,5,8,0:0:0:0:
256,192,20640,5,0,0:0:0:0:
256,192,20725,5,8,0:0:0:0:
256,192,20811,5,0,0:0:0:0:
256,192,20897,1,0,0:0:0:0:
256,192,21068,5,8,0:0:0:0:
256,192,21154,1,8,0:0:0:0:
256,192,21240,5,0,0:0:0:0:
256,192,21411,5,4,0:0:0:0:
256,192,21754,5,0,0:0:0:0:
256,192,21840,1,0,0:0:0:0:
256,192,21925,5,8,0:0:0:0:
256,192,22268,1,8,0:0:0:0:
256,192,22354,1,8,0:0:0:0:
256,192,22440,1,0,0:0:0:0:
256,192,22525,5,0,0:0:0:0:
256,192,22611,1,0,0:0:0:0:
256,192,22697,1,0,0:0:0:0:
256,192,22782,5,8,0:0:0:0:
256,192,22868,1,8,0:0:0:0:
256,192,22954,5,0,0:0:0:0:
256,192,23125,1,0,0:0:0:0:
256,192,23297,5,8,0:0:0:0:
256,192,23468,5,0,0:0:0:0:
256,192,23640,5,8,0:0:0:0:
256,192,23897,1,8,0:0:0:0:
256,192,24154,1,8,0:0:0:0:
256,192,24325,5,0,0:0:0:0:
256,192,24497,1,0,0:0:0:0:
256,192,24582,1,0,0:0:0:0:
256,192,24668,5,8,0:0:0:0:
256,192,24840,5,0,0:0:0:0:
256,192,25011,1,0,0:0:0:0:
256,192,25097,1,0,0:0:0:0:
256,192,25182,1,0,0:0:0:0:
256,192,25268,1,0,0:0:0:0:
256,192,25354,5,8,0:0:0:0:
256,192,25525,5,0,0:0:0:0:
256,192,25697,1,0,0:0:0:0:
256,192,25868,1,0,0:0:0:0:
256,192,25954,1,0,0:0:0:0:
256,192,26040,5,8,0:0:0:0:
256,192,26211,1,8,0:0:0:0:
256,192,26382,1,8,0:0:0:0:
256,192,26554,5,0,0:0:0:0:
256,192,26640,1,0,0:0:0:0:
256,192,26725,5,8,0:0:0:0:
256,192,26897,5,0,0:0:0:0:
256,192,27068,1,0,0:0:0:0:
256,192,27240,5,8,0:0:0:0:
256,192,27411,5,0,0:0:0:0:
256,192,27582,5,8,0:0:0:0:
256,192,27754,5,0,0:0:0:0:
256,192,27925,5,8,0:0:0:0:
256,192,27982,1,8,0:0:0:0:
256,192,28040,1,8,0:0:0:0:
256,192,28097,5,0,0:0:0:0:
256,192,28268,5,8,0:0:0:0:
256,192,28354,1,8,0:0:0:0:
256,192,28440,5,0,0:0:0:0:
256,192,28611,1,0,0:0:0:0:
256,192,28697,1,0,0:0:0:0:
256,192,28782,1,0,0:0:0:0:
256,192,28954,1,0,0:0:0:0:
256,192,29040,1,0,0:0:0:0:
256,192,29125,5,8,0:0:0:0:
256,192,29297,1,8,0:0:0:0:
256,192,29468,5,0,0:0:0:0:
256,192,29640,5,8,0:0:0:0:
256,192,29811,1,8,0:0:0:0:
256,192,29982,5,0,0:0:0:0:
256,192,30068,1,0,0:0:0:0:
256,192,30154,5,8,0:0:0:0:
256,192,30240,1,0,0:0:0:0:
256,192,30325,5,0,0:0:0:0:
256,192,30497,5,8,0:0:0:0:
256,192,30668,5,0,0:0:0:0:
256,192,30840,1,0,0:0:0:0:
256,192,31011,5,8,0:0:0:0:
256,192,31182,5,0,0:0:0:0:
256,192,31268,5,8,0:0:0:0:
256,192,31354,5,0,0:0:0:0:
256,192,31525,5,8,0:0:0:0:
256,192,31697,1,8,0:0:0:0:
256,192,31868,5,0,0:0:0:0:
256,192,32040,1,0,0:0:0:0:
256,192,32211,5,8,0:0:0:0:
256,192,32382,5,0,0:0:0:0:
256,192,32554,5,12,0:0:0:0:
256,192,32725,1,8,0:0:0:0:
256,192,32811,1,8,0:0:0:0:
256,192,32982,1,8,0:0:0:0:
256,192,33068,5,0,0:0:0:0:
256,192,33154,1,0,0:0:0:0:
256,192,33240,5,8,0:0:0:0:
256,192,33325,5,0,0:0:0:0:
256,192,33411,5,8,0:0:0:0:
256,192,33497,5,0,0:0:0:0:
256,192,33582,1,0,0:0:0:0:
256,192,33668,5,8,0:0:0:0:
256,192,33754,5,0,0:0:0:0:
256,192,33840,1,0,0:0:0:0:
256,192,33925,5,8,0:0:0:0:
256,192,34097,5,0,0:0:0:0:
256,192,34182,1,0,0:0:0:0:
256,192,34268,5,8,0:0:0:0:
256,192,34440,5,0,0:0:0:0:
256,192,34525,1,0,0:0:0:0:
256,192,34611,1,0,0:0:0:0:
256,192,34782,5,8,0:0:0:0:
256,192,34868,1,8,0:0:0:0:
256,192,34954,5,0,0:0:0:0:
256,192,35040,1,0,0:0:0:0:
256,192,35125,5,8,0:0:0:0:
256,192,35297,5,0,0:0:0:0:
256,192,35382,5,0,0:0:0:0:
256,192,35468,1,8,0:0:0:0:
256,192,35640,5,8,0:0:0:0:
256,192,35725,1,0,0:0:0:0:
256,192,35811,1,0,0:0:0:0:
256,192,35897,1,0,0:0:0:0:
256,192,35982,5,8,0:0:0:0:
256,192,36154,5,0,0:0:0:0:
256,192,36240,1,0,0:0:0:0:
256,192,36325,5,8,0:0:0:0:
256,192,36497,5,0,0:0:0:0:
256,192,36668,1,0,0:0:0:0:
256,192,36840,1,0,0:0:0:0:
256,192,36925,1,0,0:0:0:0:
256,192,37011,5,8,0:0:0:0:
256,192,37182,5,0,0:0:0:0:
256,192,37354,1,0,0:0:0:0:
256,192,37525,1,0,0:0:0:0:
256,192,37611,1,0,0:0:0:0:
256,192,37697,5,8,0:0:0:0:
256,192,37868,5,0,0:0:0:0:
256,192,37954,1,0,0:0:0:0:
256,192,38040,5,8,0:0:0:0:
256,192,38211,1,8,0:0:0:0:
256,192,38382,5,0,0:0:0:0:
256,192,38554,5,8,0:0:0:0:
256,192,38725,5,8,0:0:0:0:
256,192,38811,5,8,0:0:0:0:
256,192,38897,5,0,0:0:0:0:
256,192,39068,5,8,0:0:0:0:
256,192,39154,1,8,0:0:0:0:
256,192,39240,5,0,0:0:0:0:
256,192,39325,1,0,0:0:0:0:
256,192,39411,1,0,0:0:0:0:
256,192,39582,1,0,0:0:0:0:
256,192,39668,1,0,0:0:0:0:
256,192,39754,5,8,0:0:0:0:
256,192,39925,5,0,0:0:0:0:
256,192,40097,1,0,0:0:0:0:
256,192,40268,1,0,0:0:0:0:
256,192,40354,1,0,0:0:0:0:
256,192,40440,5,8,0:0:0:0:
256,192,40611,5,0,0:0:0:0:
256,192,40782,5,8,0:0:0:0:
256,192,40954,5,0,0:0:0:0:
256,192,41040,1,0,0:0:0:0:
256,192,41125,5,8,0:0:0:0:
256,192,41297,1,8,0:0:0:0:
256,192,41382,5,0,0:0:0:0:
256,192,41468,5,8,0:0:0:0:
256,192,41640,5,0,0:0:0:0:
256,192,41811,5,8,0:0:0:0:
256,192,41982,5,0,0:0:0:0:
256,192,42068,1,0,0:0:0:0:
256,192,42154,5,8,0:0:0:0:
256,192,42325,5,0,0:0:0:0:
256,192,42411,1,0,0:0:0:0:
256,192,42497,1,0,0:0:0:0:
256,192,42668,5,12,0:0:0:0:
256,192,42840,5,0,0:0:0:0:
256,192,42925,1,0,0:0:0:0:
256,192,43011,1,0,0:0:0:0:
256,192,43182,5,12,0:0:0:0:
256,192,43354,5,0,0:0:0:0:
256,192,43440,1,0,0:0:0:0:
256,192,43525,1,0,0:0:0:0:
256,192,43697,5,12,0:0:0:0:
256,192,43868,5,0,0:0:0:0:
256,192,43954,1,0,0:0:0:0:
256,192,44040,5,8,0:0:0:0:
256,192,44211,1,0,0:0:0:0:
256,192,44297,1,0,0:0:0:0:
256,192,44382,1,8,0:0:0:0:
256,192,44468,1,0,0:0:0:0:
256,192,44554,1,8,0:0:0:0:
256,192,44640,1,8,0:0:0:0:
256,192,44725,1,0,0:0:0:0:
256,192,44897,1,8,0:0:0:0:
256,192,45068,5,0,0:0:0:0:
256,192,45154,1,0,0:0:0:0:
256,192,45240,1,0,0:0:0:0:
256,192,45411,5,8,0:0:0:0:
256,192,45754,5,0,0:0:0:0:
256,192,45925,5,8,0:0:0:0:
256,192,46097,5,0,0:0:0:0:
256,192,46182,1,0,0:0:0:0:
256,192,46268,1,0,0:0:0:0:
256,192,46440,5,8,0:0:0:0:
256,192,46525,1,8,0:0:0:0:
256,192,46611,5,0,0:0:0:0:
256,192,46697,1,0,0:0:0:0:
256,192,46782,5,8,0:0:0:0:
256,192,47125,5,0,0:0:0:0:
256,192,47297,5,8,0:0:0:0:
256,192,47468,1,0,0:0:0:0:
256,192,47640,5,8,0:0:0:0:
256,192,47811,5,0,0:0:0:0:
256,192,47897,5,8,0:0:0:0:
256,192,48068,5,0,0:0:0:0:
256,192,48154,5,8,0:0:0:0:
256,192,48325,5,0,0:0:0:0:
256,192,48497,1,0,0:0:0:0:
256,192,48668,5,8,0:0:0:0:
256,192,48840,5,0,0:0:0:0:
256,192,49011,1,0,0:0:0:0:
256,192,49097,1,0,0:0:0:0:
256,192,49182,1,0,0:0:0:0:
256,192,49268,1,0,0:0:0:0:
256,192,49354,5,8,0:0:0:0:
256,192,49525,1,8,0:0:0:0:
256,192,49697,1,8,0:0:0:0:
256,192,49782,5,0,0:0:0:0:
256,192,49868,1,0,0:0:0:0:
256,192,49954,1,0,0:0:0:0:
256,192,50040,5,8,0:0:0:0:
256,192,50211,5,0,0:0:0:0:
256,192,50297,1,0,0:0:0:0:
256,192,50382,1,8,0:0:0:0:
256,192,50554,1,0,0:0:0:0:
256,192,50640,1,0,0:0:0:0:
256,192,50811,1,0,0:0:0:0:
256,192,50897,1,0,0:0:0:0:
256,192,51068,1,0,0:0:0:0:
256,192,51154,1,0,0:0:0:0:
256,192,51325,1,0,0:0:0:0:
256,192,51411,1,0,0:0:0:0:
256,192,51582,1,0,0:0:0:0:
256,192,51754,1,4,0:0:0:0:
256,192,51925,1,0,0:0:0:0:
256,192,52011,5,8,0:0:0:0:
256,192,52182,5,0,0:0:0:0:
256,192,52268,5,8,0:0:0:0:
256,192,52440,5,0,0:0:0:0:
256,192,52525,5,8,0:0:0:0:
256,192,52697,5,0,0:0:0:0:
256,192,52782,5,8,0:0:0:0:
256,192,52954,1,8,0:0:0:0:
256,192,53125,1,12,0:0:0:0:
256,192,53297,1,0,0:0:0:0:
256,192,53468,1,8,0:0:0:0:
256,192,53811,5,0,0:0:0:0:
256,192,54154,5,8,0:0:0:0:
256,192,54325,5,0,0:0:0:0:
256,192,54668,1,0,0:0:0:0:
256,192,54840,5,8,0:0:0:0:
256,192,55182,5,0,0:0:0:0:
256,192,55354,1,0,0:0:0:0:
256,192,55440,1,0,0:0:0:0:
256,192,55525,5,8,0:0:0:0:
256,192,55697,5,0,0:0:0:0:
256,192,55868,1,4,0:0:0:0:
256,192,56211,5,8,0:0:0:0:
256,192,56725,5,0,0:0:0:0:
256,192,56897,5,8,0:0:0:0:
256,192,57240,5,0,0:0:0:0:
256,192,57582,5,8,0:0:0:0:
256,192,57754,5,0,0:0:0:0:
256,192,58097,1,0,0:0:0:0:
256,192,58182,1,0,0:0:0:0:
256,192,58268,5,8,0:0:0:0:
256,192,58440,5,0,0:0:0:0:
256,192,58611,5,8,0:0:0:0:
256,192,58782,5,0,0:0:0:0:
256,192,58868,5,8,0:0:0:0:
256,192,59040,5,0,0:0:0:0:
256,192,59125,5,8,0:0:0:0:
256,192,59297,5,0,0:0:0:0:
256,192,59468,1,0,0:0:0:0:
256,192,59640,5,8,0:0:0:0:
256,192,59811,5,0,0:0:0:0:
256,192,59897,1,0,0:0:0:0:
256,192,59982,1,0,0:0:0:0:
256,192,60325,5,8,0:0:0:0:
256,192,60668,5,0,0:0:0:0:
256,192,60840,1,0,0:0:0:0:
256,192,61011,5,8,0:0:0:0:
256,192,61182,5,0,0:0:0:0:
256,192,61268,1,0,0:0:0:0:
256,192,61354,1,0,0:0:0:0:
256,192,61525,5,8,0:0:0:0:
256,192,61697,1,8,0:0:0:0:
256,192,61868,1,0,0:0:0:0:
256,192,62040,1,8,0:0:0:0:
256,192,62211,1,8,0:0:0:0:
256,192,62382,1,8,0:0:0:0:
256,192,62554,5,0,0:0:0:0:
256,192,62640,1,0,0:0:0:0:
256,192,62725,1,0,0:0:0:0:
256,192,62897,5,8,0:0:0:0:
256,192,63068,1,8,0:0:0:0:
256,192,63240,1,0,0:0:0:0:
256,192,63411,1,8,0:0:0:0:
256,192,63582,1,8,0:0:0:0:
256,192,63754,1,8,0:0:0:0:
256,192,63925,5,0,0:0:0:0:
256,192,64011,1,0,0:0:0:0:
256,192,64097,1,0,0:0:0:0:
256,192,64268,1,0,0:0:0:0:
256,192,64440,1,0,0:0:0:0:
256,192,64611,1,0,0:0:0:0:
256,192,64697,1,0,0:0:0:0:
256,192,64782,1,0,0:0:0:0:
256,192,64954,1,0,0:0:0:0:
256,192,65125,1,0,0:0:0:0:
256,192,65211,1,0,0:0:0:0:
256,192,65297,1,0,0:0:0:0:
256,192,65468,5,8,0:0:0:0:
256,192,65554,5,0,0:0:0:0:
256,192,65640,5,8,0:0:0:0:
256,192,65725,5,0,0:0:0:0:
256,192,65811,1,0,0:0:0:0:
256,192,65982,5,8,0:0:0:0:
256,192,66040,1,8,0:0:0:0:
256,192,66097,1,8,0:0:0:0:
256,192,66154,5,0,0:0:0:0:
256,192,66325,1,0,0:0:0:0:
256,192,66497,1,0,0:0:0:0:
256,192,66668,1,0,0:0:0:0:
256,192,66840,1,0,0:0:0:0:
256,192,67011,1,0,0:0:0:0:
256,192,67097,1,0,0:0:0:0:
256,192,67182,1,8,0:0:0:0:
256,192,67354,1,0,0:0:0:0:
256,192,67440,1,8,0:0:0:0:
256,192,67525,1,0,0:0:0:0:
256,192,67697,1,0,0:0:0:0:
256,192,67782,1,8,0:0:0:0:
256,192,67954,1,0,0:0:0:0:
256,192,68040,1,8,0:0:0:0:
256,192,68211,1,8,0:0:0:0:
256,192,68297,1,8,0:0:0:0:
256,192,68382,1,0,0:0:0:0:
256,192,68554,1,8,0:0:0:0:
256,192,68640,1,8,0:0:0:0:
256,192,68725,1,0,0:0:0:0:
256,192,68811,1,8,0:0:0:0:
256,192,68897,1,0,0:0:0:0:
256,192,69068,1,0,0:0:0:0:
256,192,69154,1,8,0:0:0:0:
256,192,69325,1,0,0:0:0:0:
256,192,69411,1,8,0:0:0:0:
256,192,69582,1,0,0:0:0:0:
256,192,69754,1,8,0:0:0:0:
256,192,69925,1,0,0:0:0:0:
256,192,70011,1,8,0:0:0:0:
256,192,70182,1,0,0:0:0:0:
256,192,70268,1,8,0:0:0:0:
256,192,70440,1,0,0:0:0:0:
256,192,70525,1,8,0:0:0:0:
256,192,70697,1,8,0:0:0:0:
256,192,70782,1,8,0:0:0:0:
256,192,70868,1,0,0:0:0:0:
256,192,70954,1,8,0:0:0:0:
256,192,71125,1,12,0:0:0:0:
256,192,71297,1,4,0:0:0:0:
256,192,71468,1,12,0:0:0:0:
256,192,71640,1,0,0:0:0:0:
256,192,71725,1,0,0:0:0:0:
256,192,71811,1,8,0:0:0:0:
256,192,71982,1,0,0:0:0:0:
256,192,72068,1,8,0:0:0:0:
256,192,72154,1,8,0:0:0:0:
256,192,72325,1,0,0:0:0:0:
256,192,72411,1,0,0:0:0:0:
256,192,72497,1,8,0:0:0:0:
256,192,72668,1,0,0:0:0:0:
256,192,72754,1,8,0:0:0:0:
256,192,72925,1,0,0:0:0:0:
256,192,73011,1,8,0:0:0:0:
256,192,73182,1,0,0:0:0:0:
256,192,73268,1,8,0:0:0:0:
256,192,73440,1,0,0:0:0:0:
256,192,73525,1,8,0:0:0:0:
256,192,73611,1,0,0:0:0:0:
256,192,73697,1,0,0:0:0:0:
256,192,73782,1,0,0:0:0:0:
256,192,73868,1,8,0:0:0:0:
256,192,74040,1,0,0:0:0:0:
256,192,74125,1,8,0:0:0:0:
256,192,74297,1,0,0:0:0:0:
256,192,74382,1,8,0:0:0:0:
256,192,74554,1,8,0:0:0:0:
256,192,74640,1,8,0:0:0:0:
256,192,74811,1,8,0:0:0:0:
256,192,74897,1,0,0:0:0:0:
256,192,75240,1,0,0:0:0:0:
256,192,75411,1,8,0:0:0:0:
256,192,75497,1,8,0:0:0:0:
256,192,75582,1,8,0:0:0:0:
256,192,75668,1,8,0:0:0:0:
256,192,75754,1,8,0:0:0:0:
256,192,75925,1,4,0:0:0:0:
256,192,76097,1,12,0:0:0:0:
256,192,76268,1,4,0:0:0:0:
256,192,76611,1,0,0:0:0:0:
256,192,76782,1,8,0:0:0:0:
256,192,76840,1,8,0:0:0:0:
256,192,76897,1,8,0:0:0:0:
256,192,76954,1,8,0:0:0:0:
256,192,77040,1,0,0:0:0:0:
256,192,77125,1,0,0:0:0:0:
256,192,77297,1,0,0:0:0:0:
256,192,77468,1,0,0:0:0:0:
256,192,77554,1,0,0:0:0:0:
256,192,77640,1,0,0:0:0:0:
256,192,77725,1,8,0:0:0:0:
256,192,78154,5,12,0:0:0:0:
256,192,78325,5,0,0:0:0:0:
256,192,78411,1,0,0:0:0:0:
256,192,78497,1,0,0:0:0:0:
256,192,78582,1,0,0:0:0:0:
256,192,78668,5,8,0:0:0:0:
256,192,78840,5,0,0:0:0:0:
256,192,78925,1,0,0:0:0:0:
256,192,79011,5,8,0:0:0:0:
256,192,79182,5,0,0:0:0:0:
256,192,79354,5,8,0:0:0:0:
256,192,79440,5,8,0:0:0:0:
256,192,79525,5,0,0:0:0:0:
256,192,79697,1,12,0:0:0:0:
256,192,80040,1,12,0:0:0:0:
256,192,80382,5,4,0:0:0:0:
256,192,80725,1,0,0:0:0:0:
256,192,80811,1,0,0:0:0:0:
256,192,80897,1,8,0:0:0:0:
256,192,81068,5,0,0:0:0:0:
256,192,81240,1,0,0:0:0:0:
256,192,81411,1,0,0:0:0:0:
256,192,81497,1,8,0:0:0:0:
256,192,81668,1,8,0:0:0:0:
256,192,81754,1,0,0:0:0:0:
256,192,81925,1,12,0:0:0:0:
256,192,82097,1,12,0:0:0:0:
256,192,82268,5,4,0:0:0:0:
256,192,82440,5,12,0:0:0:0:
256,192,82611,5,0,0:0:0:0:
256,192,82668,1,0,0:0:0:0:
256,192,82725,1,0,0:0:0:0:
256,192,82782,5,8,0:0:0:0:
256,192,82954,5,0,0:0:0:0:
256,192,83040,1,0,0:0:0:0:
256,192,83125,5,8,0:0:0:0:
256,192,83297,5,4,0:0:0:0:
256,192,83468,5,8,0:0:0:0:
256,192,83640,5,0,0:0:0:0:
256,192,83725,5,8,0:0:0:0:
256,192,83811,1,8,0:0:0:0:
256,192,83982,1,8,0:0:0:0:
256,192,84154,5,0,0:0:0:0:
256,192,84240,5,8,0:0:0:0:
256,192,84411,5,0,0:0:0:0:
256,192,84497,5,8,0:0:0:0:
256,192,84668,5,4,0:0:0:0:
256,192,84840,5,8,0:0:0:0:
256,192,85011,5,0,0:0:0:0:
256,192,85068,1,0,0:0:0:0:
256,192,85125,1,0,0:0:0:0:
256,192,85182,5,8,0:0:0:0:
256,192,85354,1,8,0:0:0:0:
256,192,85440,1,0,0:0:0:0:
256,192,85525,5,0,0:0:0:0:
256,192,85611,5,8,0:0:0:0:
256,192,85782,5,0,0:0:0:0:
256,192,85868,5,8,0:0:0:0:
256,192,86040,5,4,0:0:0:0:
256,192,86211,5,8,0:0:0:0:
256,192,86382,5,0,0:0:0:0:
256,192,86468,5,8,0:0:0:0:
256,192,86640,5,0,0:0:0:0:
256,192,86725,5,8,0:0:0:0:
256,192,86897,5,0,0:0:0:0:
256,192,86982,5,8,0:0:0:0:
256,192,87240,5,0,0:0:0:0:
256,192,87325,1,0,0:0:0:0:
256,192,87411,5,8,0:0:0:0:
256,192,87582,5,0,0:0:0:0:
256,192,87754,5,8,0:0:0:0:
256,192,87811,1,8,0:0:0:0:
256,192,87868,1,8,0:0:0:0:
256,192,87925,1,8,0:0:0:0:
256,192,88011,1,0,0:0:0:0:
256,192,88097,1,0,0:0:0:0:
256,192,88782,1,4,0:0:0:0:
