osu file format v12

[General]
AudioFilename: connect_r.mp3
AudioLeadIn: 2000
PreviewTime: 66840
Countdown: 0
SampleSet: Normal
StackLeniency: 0.7
Mode: 1
LetterboxInBreaks: 0

[Editor]
Bookmarks: 66840
DistanceSpacing: 1
BeatDivisor: 4
GridSize: 32

[Metadata]
Title:CONNECT r
TitleUnicode:CONNECT γ
Artist:remixed celas vs 44teru-k
ArtistUnicode:remixed celas vs 44teru-k
Creator:dialgadu77
Version:Muzukashii
Source:BMS
Tags:gamma mahou shoujo puella magi madoka magica madomagi creation anime hardcore
BeatmapID:204160
BeatmapSetID:71163

[Difficulty]
HPDrainRate:5
CircleSize:5
OverallDifficulty:5
ApproachRate:5
SliderMultiplier:1.4
SliderTickRate:1

[Events]
//Background and Video events
0,0,"mdk_ichiou.jpg",0,0
//Break Periods
//Storyboard Layer 0 (Background)
//Storyboard Layer 1 (Fail)
//Storyboard Layer 2 (Pass)
//Storyboard Layer 3 (Foreground)
//Storyboard Sound Samples
//Background Colour Transformations
3,100,163,162,255

[TimingPoints]
1011,342.857142857143,4,1,0,70,1,0
66840,-100,4,1,0,70,0,1
76268,-100,4,1,0,70,0,0
78154,-100,4,1,0,70,0,1
79697,-100,4,1,0,70,0,0
80382,-100,4,1,0,70,0,1
88782,-100,4,1,0,70,0,0

[HitObjects]
256,192,1011,21,12,0:0:0:0:
256,192,1525,5,8,0:0:0:0:
256,192,1696,1,0,0:0:0:0:
256,192,1868,1,0,0:0:0:0:
256,192,2040,5,8,0:0:0:0:
256,192,2211,5,0,0:0:0:0:
256,192,2382,5,8,0:0:0:0:
256,192,2554,5,0,0:0:0:0:
256,192,2725,1,0,0:0:0:0:
256,192,2897,5,8,0:0:0:0:
256,192,3240,5,0,0:0:0:0:
256,192,3411,5,8,0:0:0:0:
256,192,3582,5,0,0:0:0:0:
256,192,3754,5,8,0:0:0:0:
256,192,3925,5,0,0:0:0:0:
256,192,4097,1,0,0:0:0:0:
256,192,4268,5,8,0:0:0:0:
256,192,4611,5,0,0:0:0:0:
256,192,4782,5,8,0:0:0:0:
256,192,4954,5,0,0:0:0:0:
256,192,5125,5,8,0:0:0:0:
256,192,5297,1,8,0:0:0:0:
256,192,5468,5,0,0:0:0:0:
256,192,5640,1,0,0:0:0:0:
256,192,5982,1,0,0:0:0:0:
256,192,6154,1,0,0:0:0:0:
256,192,6325,1,8,0:0:0:0:
256,192,6497,5,8,0:0:0:0:
256,192,7011,5,0,0:0:0:0:
256,192,7182,5,12,0:0:0:0:
256,192,7525,5,0,0:0:0:0:
256,192,7697,1,0,0:0:0:0:
256,192,7868,5,8,0:0:0:0:
256,192,8040,5,0,0:0:0:0:
256,192,8211,1,0,0:0:0:0:
256,192,8382,5,8,0:0:0:0:
256,192,8554,5,0,0:0:0:0:
256,192,8725,1,0,0:0:0:0:
256,192,8897,5,8,0:0:0:0:
256,192,9068,1,8,0:0:0:0:
256,192,9240,5,0,0:0:0:0:
256,192,9754,1,0,0:0:0:0:
256,192,10268,1,8,0:0:0:0:
256,192,10440,5,0,0:0:0:0:
256,192,10782,1,0,0:0:0:0:
256,192,10954,1,0,0:0:0:0:
256,192,11125,1,8,0:0:0:0:
256,192,11640,1,8,0:0:0:0:
256,192,11725,1,8,0:0:0:0:
256,192,11811,1,8,0:0:0:0:
256,192,11897,1,8,0:0:0:0:
256,192,11982,1,8,0:0:0:0:
256,192,12325,1,8,0:0:0:0:
256,192,12668,5,0,0:0:0:0:
256,192,13011,5,8,0:0:0:0:
256,192,13182,5,0,0:0:0:0:
256,192,13525,1,0,0:0:0:0:
256,192,13697,5,8,0:0:0:0:
256,192,13868,5,0,0:0:0:0:
256,192,14040,5,8,0:0:0:0:
256,192,14297,1,8,0:0:0:0:
256,192,14554,1,8,0:0:0:0:
256,192,14725,5,4,0:0:0:0:
256,192,15068,5,8,0:0:0:0:
256,192,15240,5,0,0:0:0:0:
256,192,15582,5,8,0:0:0:0:
256,192,15925,5,4,0:0:0:0:
256,192,16268,5,8,0:0:0:0:
256,192,16354,1,8,0:0:0:0:
256,192,16440,1,8,0:0:0:0:
256,192,16782,5,0,0:0:0:0:
256,192,17125,5,8,0:0:0:0:
256,192,17211,1,8,0:0:0:0:
256,192,17297,1,8,0:0:0:0:
256,192,17382,1,8,0:0:0:0:
256,192,17468,1,8,0:0:0:0:
256,192,17811,1,12,0:0:0:0:
256,192,18154,5,0,0:0:0:0:
256,192,18497,5,8,0:0:0:0:
256,192,18668,5,0,0:0:0:0:
256,192,19011,1,0,0:0:0:0:
256,192,19182,5,8,0:0:0:0:
256,192,19354,5,0,0:0:0:0:
256,192,19525,5,8,0:0:0:0:
256,192,19782,1,8,0:0:0:0:
256,192,20040,1,8,0:0:0:0:
256,192,20211,1,4,0:0:0:0:
256,192,20725,1,0,0:0:0:0:
256,192,21240,1,8,0:0:0:0:
256,192,21411,5,0,0:0:0:0:
256,192,21754,5,8,0:0:0:0:
256,192,21840,1,8,0:0:0:0:
256,192,21925,1,8,0:0:0:0:
256,192,22268,1,8,0:0:0:0:
256,192,22525,5,0,0:0:0:0:
256,192,22782,5,8,0:0:0:0:
256,192,22954,5,4,0:0:0:0:
256,192,23297,1,0,0:0:0:0:
256,192,23640,1,0,0:0:0:0:
256,192,23982,1,0,0:0:0:0:
256,192,24325,1,0,0:0:0:0:
256,192,24668,1,0,0:0:0:0:
256,192,25011,1,0,0:0:0:0:
256,192,25182,1,0,0:0:0:0:
256,192,25354,5,8,0:0:0:0:
256,192,25525,1,8,0:0:0:0:
256,192,25697,5,0,0:0:0:0:
256,192,26040,1,0,0:0:0:0:
256,192,26382,1,0,0:0:0:0:
256,192,26554,1,0,0:0:0:0:
256,192,26725,1,8,0:0:0:0:
256,192,27068,1,0,0:0:0:0:
256,192,27411,1,0,0:0:0:0:
256,192,27754,1,0,0:0:0:0:
256,192,28097,5,8,0:0:0:0:
256,192,28268,5,0,0:0:0:0:
256,192,28354,1,0,0:0:0:0:
256,192,28440,1,0,0:0:0:0:
256,192,28782,5,0,0:0:0:0:
256,192,29125,5,0,0:0:0:0:
256,192,29468,5,0,0:0:0:0:
256,192,29811,1,8,0:0:0:0:
256,192,30154,1,0,0:0:0:0:
256,192,30497,1,0,0:0:0:0:
256,192,30840,1,0,0:0:0:0:
256,192,31011,1,0,0:0:0:0:
256,192,31182,1,0,0:0:0:0:
256,192,31525,1,0,0:0:0:0:
256,192,31868,5,8,0:0:0:0:
256,192,32040,1,8,0:0:0:0:
256,192,32125,1,8,0:0:0:0:
256,192,32211,1,8,0:0:0:0:
256,192,32554,1,12,0:0:0:0:
256,192,32725,5,0,0:0:0:0:
256,192,32897,1,0,0:0:0:0:
256,192,33068,1,0,0:0:0:0:
256,192,33240,5,12,0:0:0:0:
256,192,33411,5,0,0:0:0:0:
256,192,33582,1,0,0:0:0:0:
256,192,33754,1,0,0:0:0:0:
256,192,33925,1,4,0:0:0:0:
256,192,34268,1,0,0:0:0:0:
256,192,34611,1,0,0:0:0:0:
256,192,34954,1,0,0:0:0:0:
256,192,35125,5,8,0:0:0:0:
256,192,35297,5,0,0:0:0:0:
256,192,35640,1,0,0:0:0:0:
256,192,35982,5,8,0:0:0:0:
256,192,36325,1,8,0:0:0:0:
256,192,36668,5,0,0:0:0:0:
256,192,37011,5,8,0:0:0:0:
256,192,37354,5,0,0:0:0:0:
256,192,37697,1,0,0:0:0:0:
256,192,37868,1,8,0:0:0:0:
256,192,38040,5,0,0:0:0:0:
256,192,38382,5,8,0:0:0:0:
256,192,38725,5,0,0:0:0:0:
256,192,39068,5,8,0:0:0:0:
256,192,39240,1,8,0:0:0:0:
256,192,39411,5,0,0:0:0:0:
256,192,39754,1,0,0:0:0:0:
256,192,39925,5,8,0:0:0:0:
256,192,40097,5,0,0:0:0:0:
256,192,40268,5,8,0:0:0:0:
256,192,40440,5,0,0:0:0:0:
256,192,40611,5,8,0:0:0:0:
256,192,40782,1,8,0:0:0:0:
256,192,41125,1,8,0:0:0:0:
256,192,41297,5,0,0:0:0:0:
256,192,41468,1,0,0:0:0:0:
256,192,41640,5,8,0:0:0:0:
256,192,41811,5,0,0:0:0:0:
256,192,41982,5,8,0:0:0:0:
256,192,42154,1,12,0:0:0:0:
256,192,42497,5,0,0:0:0:0:
256,192,42668,5,12,0:0:0:0:
256,192,43011,5,0,0:0:0:0:
256,192,43182,5,12,0:0:0:0:
256,192,43525,5,0,0:0:0:0:
256,192,43697,5,12,0:0:0:0:
256,192,44040,5,0,0:0:0:0:
256,192,44211,5,12,0:0:0:0:
256,192,44554,5,0,0:0:0:0:
256,192,44897,5,12,0:0:0:0:
256,192,45240,1,8,0:0:0:0:
256,192,45754,5,0,0:0:0:0:
256,192,45925,5,8,0:0:0:0:
256,192,46268,5,0,0:0:0:0:
256,192,46611,5,8,0:0:0:0:
256,192,46782,5,0,0:0:0:0:
256,192,47297,5,8,0:0:0:0:
256,192,47640,1,8,0:0:0:0:
256,192,47982,1,8,0:0:0:0:
256,192,48325,1,8,0:0:0:0:
256,192,48497,5,0,0:0:0:0:
256,192,48668,5,8,0:0:0:0:
256,192,49011,5,0,0:0:0:0:
256,192,49354,5,8,0:0:0:0:
256,192,49697,5,0,0:0:0:0:
256,192,50040,5,8,0:0:0:0:
256,192,50211,5,0,0:0:0:0:
256,192,50297,1,0,0:0:0:0:
256,192,50382,1,0,0:0:0:0:
256,192,50725,5,8,0:0:0:0:
256,192,50897,5,0,0:0:0:0:
256,192,51411,5,8,0:0:0:0:
256,192,51754,5,4,0:0:0:0:
256,192,52097,5,8,0:0:0:0:
256,192,52268,5,0,0:0:0:0:
256,192,52611,1,0,0:0:0:0:
256,192,52782,5,8,0:0:0:0:
256,192,52954,5,0,0:0:0:0:
256,192,53125,1,4,0:0:0:0:
256,192,53468,5,8,0:0:0:0:
256,192,53811,5,0,0:0:0:0:
256,192,54154,5,8,0:0:0:0:
256,192,54325,5,0,0:0:0:0:
256,192,54668,1,0,0:0:0:0:
256,192,54840,5,8,0:0:0:0:
256,192,55182,5,0,0:0:0:0:
256,192,55354,1,0,0:0:0:0:
256,192,55440,1,0,0:0:0:0:
256,192,55525,1,0,0:0:0:0:
256,192,55697,1,0,0:0:0:0:
256,192,55868,1,4,0:0:0:0:
256,192,56211,1,0,0:0:0:0:
256,192,56382,5,8,0:0:0:0:
256,192,56554,5,0,0:0:0:0:
256,192,56897,5,8,0:0:0:0:
256,192,57240,5,0,0:0:0:0:
256,192,57411,1,0,0:0:0:0:
256,192,57582,5,8,0:0:0:0:
256,192,57754,5,0,0:0:0:0:
256,192,58097,1,0,0:0:0:0:
256,192,58268,5,8,0:0:0:0:
256,192,58611,1,8,0:0:0:0:
256,192,58954,1,8,0:0:0:0:
256,192,59297,1,8,0:0:0:0:
256,192,59468,5,0,0:0:0:0:
256,192,59640,5,8,0:0:0:0:
256,192,59982,5,0,0:0:0:0:
256,192,60325,5,8,0:0:0:0:
256,192,60668,5,0,0:0:0:0:
256,192,61011,5,8,0:0:0:0:
256,192,61182,5,0,0:0:0:0:
256,192,61268,1,0,0:0:0:0:
256,192,61354,1,0,0:0:0:0:
256,192,61525,5,8,0:0:0:0:
256,192,61697,1,8,0:0:0:0:
256,192,61868,5,0,0:0:0:0:
256,192,62040,5,8,0:0:0:0:
256,192,62382,5,8,0:0:0:0:
256,192,62554,5,0,0:0:0:0:
256,192,62640,1,0,0:0:0:0:
256,192,62725,1,0,0:0:0:0:
256,192,62897,5,8,0:0:0:0:
256,192,63068,1,8,0:0:0:0:
256,192,63240,5,0,0:0:0:0:
256,192,63411,5,8,0:0:0:0:
256,192,63582,1,8,0:0:0:0:
256,192,63754,1,8,0:0:0:0:
256,192,64097,1,4,0:0:0:0:
256,192,64611,1,0,0:0:0:0:
256,192,64697,1,0,0:0:0:0:
256,192,64782,1,0,0:0:0:0:
256,192,65125,1,0,0:0:0:0:
256,192,65297,1,0,0:0:0:0:
256,192,65382,1,0,0:0:0:0:
256,192,65468,1,0,0:0:0:0:
256,192,65640,5,8,0:0:0:0:
256,192,65811,5,0,0:0:0:0:
256,192,65982,5,8,0:0:0:0:
256,192,66154,5,0,0:0:0:0:
256,192,66325,1,0,0:0:0:0:
256,192,66497,1,0,0:0:0:0:
256,192,66668,1,0,0:0:0:0:
256,192,66840,1,4,0:0:0:0:
256,192,67011,1,0,0:0:0:0:
256,192,67182,5,8,0:0:0:0:
256,192,67525,5,0,0:0:0:0:
256,192,67697,5,8,0:0:0:0:
256,192,67782,1,8,0:0:0:0:
256,192,67868,1,8,0:0:0:0:
256,192,68040,5,0,0:0:0:0:
256,192,68211,1,0,0:0:0:0:
256,192,68382,5,8,0:0:0:0:
256,192,68554,5,0,0:0:0:0:
256,192,68725,5,8,0:0:0:0:
256,192,68897,5,0,0:0:0:0:
256,192,69153,5,8,0:0:0:0:
256,192,69411,5,4,0:0:0:0:
256,192,69754,5,8,0:0:0:0:
256,192,69925,1,8,0:0:0:0:
256,192,70096,5,0,0:0:0:0:
256,192,70268,1,0,0:0:0:0:
256,192,70439,1,8,0:0:0:0:
256,192,70611,5,0,0:0:0:0:
256,192,70782,1,8,0:0:0:0:
256,192,70954,1,12,0:0:0:0:
256,192,71125,1,12,0:0:0:0:
256,192,71297,5,4,0:0:0:0:
256,192,71468,5,12,0:0:0:0:
256,192,71811,1,8,0:0:0:0:
256,192,72154,1,8,0:0:0:0:
256,192,72240,1,8,0:0:0:0:
256,192,72325,1,8,0:0:0:0:
256,192,72497,1,8,0:0:0:0:
256,192,72668,5,0,0:0:0:0:
256,192,72840,5,8,0:0:0:0:
256,192,73011,5,0,0:0:0:0:
256,192,73268,5,8,0:0:0:0:
256,192,73525,1,8,0:0:0:0:
256,192,73697,5,4,0:0:0:0:
256,192,73868,5,8,0:0:0:0:
256,192,74040,5,0,0:0:0:0:
256,192,74211,5,8,0:0:0:0:
256,192,74382,1,8,0:0:0:0:
256,192,74640,1,8,0:0:0:0:
256,192,74897,5,4,0:0:0:0:
256,192,75240,5,8,0:0:0:0:
256,192,75411,1,8,0:0:0:0:
256,192,75754,5,0,0:0:0:0:
256,192,75925,5,12,0:0:0:0:
256,192,76097,1,12,0:0:0:0:
256,192,76268,5,4,0:0:0:0:
256,192,76611,1,0,0:0:0:0:
256,192,76782,1,0,0:0:0:0:
256,192,76868,1,0,0:0:0:0:
256,192,76954,1,0,0:0:0:0:
256,192,77125,1,0,0:0:0:0:
256,192,77297,1,0,0:0:0:0:
256,192,77468,5,8,0:0:0:0:
256,192,77725,1,8,0:0:0:0:
256,192,78154,1,12,0:0:0:0:
256,192,78325,5,0,0:0:0:0:
256,192,78497,5,8,0:0:0:0:
256,192,78754,1,8,0:0:0:0:
256,192,79011,5,0,0:0:0:0:
256,192,79182,5,8,0:0:0:0:
256,192,79354,1,8,0:0:0:0:
256,192,79525,5,0,0:0:0:0:
256,192,79697,5,12,0:0:0:0:
256,192,80040,1,12,0:0:0:0:
256,192,80382,1,4,0:0:0:0:
256,192,80725,5,0,0:0:0:0:
256,192,80897,1,0,0:0:0:0:
256,192,81068,1,0,0:0:0:0:
256,192,81240,5,8,0:0:0:0:
256,192,81411,1,8,0:0:0:0:
256,192,81582,5,0,0:0:0:0:
256,192,81925,1,12,0:0:0:0:
256,192,82097,1,12,0:0:0:0:
256,192,82268,5,4,0:0:0:0:
256,192,82440,5,12,0:0:0:0:
256,192,82782,1,0,0:0:0:0:
256,192,82953,1,8,0:0:0:0:
256,192,83297,5,0,0:0:0:0:
256,192,83468,5,8,0:0:0:0:
256,192,83725,1,8,0:0:0:0:
256,192,83982,1,8,0:0:0:0:
256,192,84240,1,8,0:0:0:0:
256,192,84497,5,0,0:0:0:0:
256,192,84582,1,0,0:0:0:0:
256,192,84668,1,0,0:0:0:0:
256,192,84840,5,8,0:0:0:0:
256,192,85097,1,8,0:0:0:0:
256,192,85354,1,8,0:0:0:0:
256,192,85611,1,8,0:0:0:0:
256,192,85868,5,0,0:0:0:0:
256,192,85954,1,0,0:0:0:0:
256,192,86040,1,0,0:0:0:0:
256,192,86211,5,8,0:0:0:0:
256,192,86468,1,8,0:0:0:0:
256,192,86725,1,8,0:0:0:0:
256,192,86982,1,8,0:0:0:0:
256,192,87240,1,8,0:0:0:0:
256,192,87325,1,8,0:0:0:0:
256,192,87411,1,8,0:0:0:0:
256,192,87582,1,8,0:0:0:0:
256,192,87754,1,8,0:0:0:0:
256,192,87840,1,8,0:0:0:0:
256,192,87925,1,8,0:0:0:0:
256,192,88097,5,0,0:0:0:0:
256,192,88782,1,4,0:0:0:0:
