osu file format v9

[General]
AudioFilename: Timotei! (EXTENDED SPARTA REMIX).mp3
AudioLeadIn: 0
PreviewTime: -1
Countdown: 1
SampleSet: Normal
StackLeniency: 0.7
Mode: 0
LetterboxInBreaks: 1

[Editor]
Bookmarks: -44,10716,27455,34303,44629,48433,68868,78977
DistanceSpacing: 0.8
BeatDivisor: 4
GridSize: 4

[Metadata]
Title:Timotei! (EXTENDED SPARTA REMIX)
Artist:remix by thealandj02
Creator:WolfDragon
Version:Insane
Source:Lucky Star
Tags:Lucky star Sparta remix timotei insane button mash konota shampoo hair blue bathroom youtube water tilethealandj02 extended !

[Difficulty]
HPDrainRate:5
CircleSize:4
OverallDifficulty:6
ApproachRate:8
SliderMultiplier:1.5
SliderTickRate:4

[Events]
//Background and Video events
0,0,"hairk.jpg"
//Break Periods
//Storyboard Layer 0 (Background)
//Storyboard Layer 1 (Fail)
//Storyboard Layer 2 (Pass)
//Storyboard Layer 3 (Foreground)
//Storyboard Sound Samples
//Background Colour Transformations
3,100,163,162,255

[TimingPoints]
3977.08695652174,434.782608695652,4,1,0,100,1,0

[Colours]
Combo1 : 215,44,34
Combo2 : 30,206,38
Combo3 : 43,88,193

[HitObjects]
112,64,3542,1,0
128,64,3759,1,0
144,64,3977,1,0
160,64,4194,1,0
176,64,4411,1,0
192,64,4629,1,0
208,64,4846,1,0
224,64,5063,1,0
240,64,5281,5,8
256,64,5498,1,8
272,64,5716,1,8
288,64,5933,1,8
304,64,6150,1,8
320,64,6368,1,8
336,64,6585,1,8
352,64,6803,1,8
368,64,7020,6,2,B|496:176|336:368|144:224,1,450
144,208,8542,1,0
144,192,8759,1,8
144,176,8977,1,8
160,160,9194,1,8
176,144,9411,1,8
192,128,9629,1,8
208,112,9846,1,8
224,96,10064,1,0
240,80,10281,1,8
256,80,10498,5,0
448,112,10933,1,0
448,288,11369,1,0
443,283,11477,1,0
438,277,11586,1,0
416,272,11803,6,0,B|384:240,2,37.5
352,224,12237,1,0
256,224,12672,1,0
80,144,12998,1,0
86,135,13107,1,0
91,126,13216,1,0
112,112,13433,6,0,B|144:128,2,37.5
128,64,13868,1,0
224,64,14303,1,0
400,144,14737,1,0
407,151,14846,1,0
414,157,14955,1,0
448,160,15172,6,0,B|480:128,2,37.5
448,208,15607,1,0
352,208,16042,1,0
224,272,16368,1,0
221,263,16477,1,0
217,254,16585,1,0
208,224,16803,6,0,B|192:192,2,37.5
256,192,17129,12,0,20498
256,192,20716,6,0,B|240:112|352:112|400:240|320:320|192:320|128:288|48:32|288:32|336:48|384:144|384:160,2,562.5
256,192,24085,2,0,B|16:192|16:176|16:48|16:32|256:32|256:48|256:192,1,562.5
256,176,25824,2,0,B|256:304|256:320|480:320|480:303|480:192|480:176|256:176,1,525
240,176,27564,5,0
233,176,27672,1,0
225,175,27781,1,0
218,175,27890,1,0
210,174,27998,1,0
201,174,28107,1,0
193,172,28216,1,0
185,172,28324,1,0
177,171,28433,1,0
172,166,28542,1,0
167,159,28650,1,0
162,153,28759,1,0
159,145,28868,1,0
160,136,28977,1,0
159,126,29085,1,0
159,118,29194,1,0
158,110,29303,1,0
159,100,29411,5,0
159,93,29520,1,0
160,84,29629,1,0
164,76,29737,1,0
171,68,29846,1,0
179,62,29955,1,0
188,58,30064,1,0
196,55,30172,1,0
204,55,30281,1,0
213,54,30389,1,0
221,53,30498,1,0
230,52,30607,1,0
239,53,30715,1,0
248,55,30824,1,0
255,54,30933,1,0
262,55,31042,1,0
269,54,31150,5,0
276,58,31259,1,0
283,61,31368,1,0
289,67,31477,1,0
295,76,31585,1,0
298,84,31694,1,0
299,95,31803,1,0
300,104,31911,1,0
301,113,32020,1,0
301,123,32129,1,0
300,132,32237,1,0
300,143,32346,1,0
299,154,32455,1,0
297,167,32564,1,0
291,174,32672,5,0
285,178,32781,1,0
279,182,32889,1,0
272,185,32998,1,0
261,186,33107,1,0
253,186,33216,1,0
246,186,33325,1,0
238,187,33434,1,0
228,187,33542,1,0
220,189,33651,1,0
211,188,33760,1,0
200,186,33869,1,0
191,188,33977,1,0
183,188,34086,1,0
175,187,34195,1,0
144,160,34411,5,12
256,48,34846,1,0
496,48,35281,1,0
496,304,35716,1,0
496,48,36150,1,0
256,48,36585,1,0
16,48,37020,1,0
16,304,37455,1,0
256,192,37890,6,0,B|320:128,1,75
256,192,38324,2,0,B|192:128,1,75
256,192,38759,2,0,B|256:272,1,75
256,275,39085,1,0
255,283,39194,1,0
256,320,39411,1,0
264,320,39520,1,0
271,318,39629,1,0
368,320,39846,6,0,B|368:272,1,37.5
368,282,40064,2,0,B|368:240,1,37.5
368,245,40281,2,0,B|368:208,1,37.5
368,207,40498,2,0,B|368:160,1,37.5
368,170,40716,2,0,B|368:128,1,37.5
368,132,40933,2,0,B|368:96,1,37.5
368,95,41150,2,0,B|368:48,1,37.5
352,32,41368,6,0,B|288:96,1,75
298,85,41694,2,0,B|224:160,1,75
245,138,42020,2,0,B|192:192,1,75
192,191,42347,2,0,B|128:256,1,75
139,244,42672,2,0,B|80:176,1,75
90,187,42998,2,0,B|32:128,1,75
37,134,43324,2,0,B|112:80,1,75
97,90,43650,2,0,B|160:48,1,75
159,48,43977,2,0,B|240:48,1,75
234,48,44303,2,0,B|256:128,1,75
256,192,44737,6,0,B|256:224,32,18.75
256,192,46585,6,0,B|256:160,30,18.75
256,192,48542,6,0,B|416:192,1,150
448,192,49194,1,0
416,240,49411,2,0,B|256:240,1,150
224,208,50064,1,0
208,160,50281,2,0,B|368:160,1,150
352,112,50933,1,0
304,96,51150,2,0,B|144:96,1,150
256,192,51694,12,0,54955
256,192,55172,6,0,B|336:112,1,112.5
256,192,55933,2,0,B|352:272,1,112.5
256,192,56694,1,0
160,192,57129,1,0
256,192,57564,1,0
256,192,58433,6,0,B|176:96,1,112.5
256,192,59303,2,0,B|176:272,1,112.5
400,192,60172,1,0
256,192,60607,1,0
400,192,61042,2,0,B|240:192,1,150
256,144,61803,6,0,B|256:16,1,112.5
256,240,62672,2,0,B|256:352,1,112.5
256,240,63542,1,0
256,112,63977,1,0
160,176,64303,2,0,B|496:176,2,337.5
144,176,66477,1,0
144,112,67020,2,0,B|144:0,1,112.5
144,224,67781,2,0,B|144:336|144:336|64:272|64:272|144:160,1,337.5
144,170,68868,5,0
151,165,68977,1,0
159,160,69085,1,0
167,154,69194,1,0
174,147,69303,1,0
180,140,69411,1,0
186,132,69520,1,0
193,123,69629,1,0
201,119,69737,1,0
208,116,69846,1,0
215,110,69955,1,0
222,106,70064,1,0
231,103,70172,1,0
240,96,70281,1,0
249,92,70390,1,0
256,96,70498,6,0,B|448:128|448:128|256:176|256:176|448:208,1,562.5
424,212,72237,1,0
424,220,72346,1,0
424,228,72455,1,0
424,236,72564,1,0
424,244,72672,1,0
424,252,72781,1,0
424,260,72890,1,0
420,268,72998,1,0
416,276,73107,1,0
408,284,73216,1,0
400,292,73324,1,0
392,292,73433,1,0
384,292,73542,1,0
376,292,73650,1,0
368,292,73759,1,0
360,292,73868,6,0,B|40:288|40:288|40:80,1,525
80,80,75607,1,0
112,80,75824,1,0
144,80,76042,1,0
176,80,76259,1,0
208,80,76477,1,0
240,80,76694,1,0
272,80,76911,1,0
304,80,77129,1,0
336,80,77346,5,0
336,88,77455,1,0
336,96,77564,1,0
336,104,77672,1,0
336,112,77781,1,0
336,120,77890,1,0
336,128,77998,1,0
336,136,78107,1,0
336,144,78216,1,0
336,152,78324,1,0
336,160,78433,1,0
336,168,78542,1,0
336,176,78650,1,0
336,184,78759,1,0
336,192,78868,1,0
336,200,78977,6,0,B|144:200,1,187.5
256,192,79629,12,0,120390
