osu file format v9

[General]
AudioFilename: Silver Pizza.mp3
AudioLeadIn: 500
PreviewTime: 5429
Countdown: 0
SampleSet: Normal
StackLeniency: 0.7
Mode: 0
LetterboxInBreaks: 1
SkinPreference:taiko

[Editor]
DistanceSpacing: 1
BeatDivisor: 2
GridSize: 8

[Metadata]
Title:Gin iro no Sora (TV Size)
Artist:redballoon
Creator:arien666
Version:Futsuu
Source:Gintama
Tags:taiko taikosu op3 arken1015 sliver soul sky lily lilac mariobros777 jericho2442

[Difficulty]
HPDrainRate:3
CircleSize:4
OverallDifficulty:2
ApproachRate:3
SliderMultiplier:0.72
SliderTickRate:1

[Events]
//Background and Video events
Video,0,"silve peace.avi"
0,0,"blahblah.jpg"
//Break Periods
//Storyboard Layer 0 (Background)
//Storyboard Layer 1 (Fail)
//Storyboard Layer 2 (Pass)
//Storyboard Layer 3 (Foreground)
//Storyboard Sound Samples
//Background Colour Transformations
3,100,163,162,255

[TimingPoints]
341,319.148936170213,4,1,1,80,1,0
5447,-100,4,1,1,80,0,1
30979,-100,4,1,1,80,0,0
61617,-100,4,1,1,80,0,1
84596,-100,4,1,1,80,0,0

[Colours]
Combo1 : 112,196,193
Combo2 : 243,89,34

[HitObjects]
480,192,2894,21,0
368,192,3532,1,8
256,192,4170,2,0,B|216:192|200:152,2,72,0|8|4
400,192,5447,6,0,B|400:120,1,72
400,48,6085,1,0
256,48,6723,2,0,B|256:120,1,72
256,192,7362,1,0
112,192,8000,1,0
184,320,8638,1,8
328,320,9277,1,4
131,120,10553,6,0,B|131:192,1,72
131,264,11192,1,0
256,336,11830,2,0,B|256:264,1,72
256,192,12468,1,0
256,48,13106,1,0
256,192,15660,6,0,B|192:256,1,72
152,296,16298,1,0
8,296,16936,2,0,B|72:232,1,72
104,192,17575,1,0
184,64,18213,1,0
328,64,18851,1,8
256,192,19489,1,4
256,192,20766,5,0
112,192,21404,1,0
184,64,22043,1,0
328,64,22681,2,0,B|400:64,1,72
256,192,23319,12,2,24436
0,192,25872,5,0
256,64,27149,1,0
512,192,28426,5,0
256,192,29543,1,4
256,192,30979,5,0
112,192,31617,1,0
184,64,32255,2,0,B|104:64,1,72
40,64,32894,1,0
112,192,33532,5,0
256,192,34170,1,0
184,320,34809,2,0,B|264:320,1,72
328,320,35447,1,0
400,192,36085,5,0
256,192,36723,1,0
112,192,37362,1,0
352,344,38638,5,0
320,280,38958,1,0
256,256,39277,1,0
192,280,39596,1,0
160,344,39915,1,0
256,72,41192,5,0
256,144,41511,1,0
464,192,42468,1,0
392,192,42787,1,0
176,192,43745,5,0
176,264,44064,1,0
296,192,44702,1,0
296,120,45021,1,0
16,192,46298,5,0
88,192,46617,1,0
208,112,47255,1,0
256,56,47575,1,0
304,112,47894,1,0
424,192,48532,1,0
256,192,48851,12,8,51085
328,192,51404,5,0
184,192,52043,1,0
112,64,52681,1,8
184,64,53000,1,8
256,64,53319,1,8
184,192,53958,5,0
328,192,54596,1,0
400,320,55234,1,8
328,320,55553,1,8
256,320,55872,1,8
328,192,56511,5,0
128,264,57468,1,4
128,120,58106,1,8
128,48,58426,1,8
272,48,59064,2,0,B|392:48|464:192|392:336|272:336,1,432,8|4
256,192,61617,5,0
184,192,61936,1,0
112,192,62255,1,0
40,64,62894,1,0
112,64,63213,1,0
184,64,63532,1,0
328,64,64170,1,0
256,192,64809,1,8
184,320,65447,1,4
440,192,66723,5,0
368,192,67043,1,0
296,192,67362,1,0
256,56,68000,1,0
224,120,68319,1,0
192,184,68638,1,0
128,320,69277,1,0
256,192,71830,5,0
328,192,72149,1,0
400,192,72468,1,0
472,320,73106,1,0
400,320,73426,1,0
328,320,73745,1,0
184,320,74383,1,0
112,192,75021,1,8
184,64,75660,1,4
256,344,76936,5,0
256,192,77575,1,0
256,40,78213,1,0
256,192,78851,2,0,B|328:192,1,72
256,192,79489,12,2,80606
40,192,82043,5,0
184,192,82681,1,0
328,192,83319,1,0
467,156,83958,1,0
467,228,84277,1,0
404,192,84596,1,4
