osu file format v14

[General]
AudioFilename: raja_ffm_-_the_light.mp3
AudioLeadIn: 0
PreviewTime: 105641
Countdown: 0
SampleSet: Soft
StackLeniency: 0.7
Mode: 0
LetterboxInBreaks: 0
WidescreenStoryboard: 0

[Editor]
Bookmarks: 21474,42807,58807,64141,85474,106807,117474,128141
DistanceSpacing: 1
BeatDivisor: 4
GridSize: 4
TimelineZoom: 1

[Metadata]
Title:the light
TitleUnicode:the light
Artist:raja
ArtistUnicode:raja
Creator:Shadren
Version:Hard
Source:
Tags:snowflake emily richards ralf jacobsen remix winter mbc8 Monthly Mapping Contest 8
BeatmapID:676506
BeatmapSetID:301731

[Difficulty]
HPDrainRate:5
CircleSize:4
OverallDifficulty:6
ApproachRate:7
SliderMultiplier:1.8
SliderTickRate:2

[Events]
//Background and Video events
0,0,"BG.jpg",0,0
//Break Periods
//Storyboard Layer 0 (Background)
//Storyboard Layer 1 (Fail)
//Storyboard Layer 2 (Pass)
//Storyboard Layer 3 (Foreground)
//Storyboard Sound Samples

[TimingPoints]
10807,666.666666666667,4,2,0,50,1,0
42807,-90.9090909090909,4,2,0,50,0,1
58140,-100,4,2,0,50,0,0
61474,-100,4,2,0,30,0,0
64141,-100,4,2,0,50,0,0
106807,-90.9090909090909,4,2,0,50,0,1
128140,-100,4,2,0,50,0,0
128807,-100,4,2,0,45,0,0
129474,-100,4,2,0,35,0,0
130141,-100,4,2,0,25,0,0
130807,-100,4,2,0,15,0,0

[Colours]
Combo1 : 210,166,255
Combo2 : 66,160,255
Combo3 : 160,205,250
Combo4 : 7,206,235

[HitObjects]
288,116,21474,6,0,P|264:204|168:220,1,180,4|8,0:3|0:0,0:0:0:0:
200,136,22474,1,0,0:0:0:0:
232,52,22807,2,0,P|272:32|332:44,1,90,0|4,0:0|0:3,0:0:0:0:
396,76,23474,1,8,0:0:0:0:
444,152,23807,1,2,0:0:0:0:
444,152,23974,1,2,0:0:0:0:
444,152,24141,6,0,B|423:187|439:239|439:239|455:291|435:327,1,180,4|8,0:3|0:0,0:0:0:0:
352,368,25141,2,0,L|294:374,2,45
356,280,25807,1,4,0:3:0:0:
296,212,26141,2,0,P|288:156|304:116,1,90,8|0,0:0|0:0,0:0:0:0:
360,60,26807,6,0,P|264:88|200:36,1,180,4|8,0:3|0:0,0:0:0:0:
120,76,27807,2,0,L|116:176,1,90,0|0,0:0|0:0,0:0:0:0:
156,248,28474,1,4,0:3:0:0:
232,292,28807,2,0,P|280:296|324:280,1,90,8|2,0:0|0:0,0:0:0:0:
360,264,29307,1,2,0:0:0:0:
396,240,29474,6,0,L|404:52,1,180,4|8,0:3|0:0,0:0:0:0:
280,32,30474,2,0,L|288:136,1,90,0|0,0:0|0:0,0:0:0:0:
480,148,31141,1,8,0:0:0:0:
396,240,31474,1,8,0:0:0:0:
288,120,31807,1,2,0:0:0:0:
288,120,31974,1,2,0:0:0:0:
288,120,32141,6,0,P|244:120|192:144,1,90,4|0,0:3|0:0,0:0:0:0:
128,188,32807,2,0,P|80:212|28:208,1,90,8|0,0:0|0:0,0:0:0:0:
264,208,33474,1,0,0:0:0:0:
128,100,33807,1,4,0:3:0:0:
173,258,34141,1,8,0:0:0:0:
200,168,34474,1,2,0:0:0:0:
200,168,34641,1,2,0:0:0:0:
200,168,34807,6,0,P|236:136|288:136,1,90,4|0,0:3|0:0,0:0:0:0:
360,172,35474,1,8,0:0:0:0:
412,244,35807,2,0,P|448:168|396:92,1,180,0|4,0:0|0:3,0:0:0:0:
312,112,36807,1,8,0:0:0:0:
252,44,37141,1,2,0:0:0:0:
208,40,37307,1,2,0:0:0:0:
164,36,37474,6,0,L|176:132,1,90,4|0,0:3|0:0,0:0:0:0:
172,216,38141,2,0,P|124:232|80:228,1,90,8|0,0:0|0:0,0:0:0:0:
252,172,38807,2,0,P|300:156|344:160,1,90,0|4,0:0|0:3,0:0:0:0:
118,144,39474,1,8,0:0:0:0:
252,256,39807,1,2,0:0:0:0:
252,256,39974,1,2,0:0:0:0:
252,256,40141,6,0,P|340:272|412:208,1,180,4|8,0:3|0:0,0:0:0:0:
476,276,41141,2,0,P|440:300|420:348,1,90,0|0,0:0|0:0,0:0:0:0:
312,172,41807,1,8,0:0:0:0:
284,348,42141,1,8,0:0:0:0:
248,248,42474,1,2,0:0:0:0:
248,248,42641,1,2,0:0:0:0:
248,248,42807,6,0,P|200:236|144:244,1,99.0000030212403,4|0,0:3|0:0,0:0:0:0:
56,264,43474,2,0,L|48:160,1,99.0000030212403,8|0,0:0|0:0,0:0:0:0:
192,324,44141,1,0,0:0:0:0:
312,172,44474,1,4,0:3:0:0:
296,312,44807,1,8,0:0:0:0:
216,196,45141,1,2,0:0:0:0:
216,196,45307,1,2,0:0:0:0:
216,196,45474,6,0,P|220:132|344:76,1,198.000006042481,4|8,0:3|0:0,0:0:0:0:
312,172,46474,1,0,0:0:0:0:
148,100,46807,2,0,P|88:96|44:120,1,99.0000030212403,0|8,0:0|0:0,0:0:0:0:
112,192,47474,1,8,0:0:0:0:
228,56,47807,1,2,0:0:0:0:
228,56,47974,1,2,0:0:0:0:
228,56,48141,6,0,L|344:60,1,99.0000030212403,4|0,0:3|0:0,0:0:0:0:
396,132,48807,2,0,P|448:144|496:132,1,99.0000030212403,8|0,0:0|0:0,0:0:0:0:
446,46,49474,1,0,0:0:0:0:
312,176,49807,2,0,P|256:180|216:160,1,99.0000030212403,4|8,0:3|0:0,0:0:0:0:
128,116,50474,1,2,0:0:0:0:
128,116,50641,1,2,0:0:0:0:
128,116,50807,6,0,L|140:320,1,198.000006042481,4|8,0:3|0:0,0:0:0:0:
232,352,51807,2,0,P|328:344|376:248,1,198.000006042481,0|8,0:0|0:0,0:0:0:0:
276,260,52807,1,8,0:0:0:0:
416,188,53141,1,2,0:0:0:0:
460,168,53307,1,2,0:0:0:0:
504,148,53474,6,0,L|508:40,1,99.0000030212403,4|0,0:3|0:0,0:0:0:0:
352,16,54141,2,0,L|364:116,1,99.0000030212403,8|0,0:0|0:0,0:0:0:0:
228,196,54807,2,0,L|232:88,1,99.0000030212403,0|4,0:0|0:3,0:0:0:0:
328,208,55474,1,8,0:0:0:0:
168,280,55807,1,2,0:0:0:0:
168,280,55974,1,2,0:0:0:0:
168,280,56141,6,0,P|64:284|12:196,1,198.000006042481,4|8,0:3|0:0,0:0:0:0:
112,196,57141,1,0,0:0:0:0:
256,320,57474,2,0,L|356:312,1,99.0000030212403,0|8,0:0|0:0,0:0:0:0:
404,236,58141,1,8,0:0:0:0:
256,192,58807,12,0,61474,0:0:0:0:
108,256,64141,6,0,P|192:256|236:164,1,180,4|8,0:3|0:0,0:0:0:0:
196,100,65141,2,0,L|152:96,2,45,0|0|0,0:0|0:0|0:0,0:0:0:0:
280,72,65807,1,4,0:3:0:0:
336,140,66141,2,0,P|380:152|428:144,1,90,8|2,0:0|0:0,0:0:0:0:
464,124,66641,1,2,0:0:0:0:
500,96,66807,6,0,L|492:284,1,180,4|8,0:3|0:0,0:0:0:0:
432,344,67807,1,0,0:0:0:0:
432,344,67974,1,0,0:0:0:0:
432,344,68141,2,0,P|384:348|340:336,1,90,0|8,0:0|0:0,0:0:0:0:
296,184,68807,1,8,0:0:0:0:
256,304,69141,1,2,0:0:0:0:
256,304,69307,1,2,0:0:0:0:
256,304,69474,6,0,P|168:320|104:256,1,180,4|8,0:3|0:0,0:0:0:0:
92,172,70474,1,0,0:0:0:0:
240,116,70807,2,0,L|252:20,1,90,0|4,0:0|0:3,0:0:0:0:
368,96,71474,2,0,L|380:192,1,90,8|2,0:0|0:0,0:0:0:0:
348,220,71974,1,2,0:0:0:0:
304,236,72141,6,0,P|212:216|172:136,1,180,4|8,0:3|0:0,0:0:0:0:
212,64,73141,2,0,L|268:56,2,45,0|0|0,0:0|0:0|0:0,0:0:0:0:
72,56,73807,1,8,0:0:0:0:
104,196,74141,1,8,0:0:0:0:
242,156,74474,1,2,0:0:0:0:
256,144,74641,1,2,0:0:0:0:
276,136,74807,6,0,P|320:128|372:144,1,90,4|0,0:3|0:0,0:0:0:0:
496,244,75474,2,0,P|448:256|396:232,1,90,8|0,0:0|0:0,0:0:0:0:
460,80,76141,1,0,0:0:0:0:
456,172,76474,1,4,0:3:0:0:
344,56,76807,1,8,0:0:0:0:
320,212,77141,1,2,0:0:0:0:
320,212,77307,1,2,0:0:0:0:
320,212,77474,6,0,P|232:228|172:160,1,180,4|8,0:3|0:0,0:0:0:0:
120,240,78474,2,0,P|144:280|144:324,1,90,0|0,0:0|0:0,0:0:0:0:
232,336,79141,1,4,0:3:0:0:
260,144,79474,1,8,0:0:0:0:
320,212,79807,1,2,0:0:0:0:
320,212,79974,1,2,0:0:0:0:
320,212,80141,6,0,P|368:220|420:208,1,90,4|0,0:3|0:0,0:0:0:0:
260,144,80807,2,0,P|212:136|160:148,1,90,8|0,0:0|0:0,0:0:0:0:
364,132,81474,1,0,0:0:0:0:
320,212,81807,1,4,0:3:0:0:
236,64,82141,1,8,0:0:0:0:
212,220,82474,1,2,0:0:0:0:
176,244,82641,1,2,0:0:0:0:
132,252,82807,6,0,P|56:220|48:124,1,180,4|8,0:3|0:0,0:0:0:0:
112,72,83807,2,0,L|160:68,2,45,0|0|0,0:0|0:0|0:0,0:0:0:0:
128,160,84474,2,0,P|176:164|220:200,1,90,8|8,0:0|0:0,0:0:0:0:
268,256,85141,1,2,0:0:0:0:
268,256,85307,1,2,0:0:0:0:
268,256,85474,6,0,L|360:252,1,90,4|0,0:3|0:0,0:0:0:0:
436,300,86141,1,8,0:0:0:0:
500,236,86474,2,0,P|512:144|480:48,1,180,0|4,0:0|0:3,0:0:0:0:
400,48,87474,2,0,L|300:56,1,90,8|2,0:0|0:0,0:0:0:0:
272,80,87974,1,2,0:0:0:0:
232,104,88141,6,0,P|140:112|92:40,1,180,4|8,0:3|0:0,0:0:0:0:
180,32,89141,1,0,0:0:0:0:
288,176,89474,1,0,0:0:0:0:
216,232,89807,2,0,L|208:324,1,90,4|8,0:3|0:0,0:0:0:0:
128,364,90474,1,2,0:0:0:0:
128,364,90641,1,2,0:0:0:0:
128,364,90807,6,0,P|76:364|32:336,1,90,4|0,0:3|0:0,0:0:0:0:
4,268,91474,1,8,0:0:0:0:
64,200,91807,2,0,P|92:112|32:48,1,180,0|4,0:0|0:3,0:0:0:0:
172,48,92807,2,0,L|264:52,1,90,8|2,0:0|0:0,0:0:0:0:
296,84,93307,1,2,0:0:0:0:
332,108,93474,6,0,P|376:112|432:92,1,90,4|0,0:3|0:0,0:0:0:0:
452,184,94141,2,0,P|411:202|373:247,2,90,8|0|0,0:0|0:0|0:0,0:0:0:0:
368,32,95141,1,8,0:0:0:0:
304,188,95474,1,8,0:0:0:0:
228,128,95807,1,2,0:0:0:0:
228,128,95974,1,2,0:0:0:0:
228,128,96141,6,0,L|132:124,1,90,4|0,0:3|0:0,0:0:0:0:
316,100,96807,1,8,0:0:0:0:
228,224,97141,2,0,P|260:264|308:272,1,90
228,128,97807,1,4,0:3:0:0:
312,180,98141,1,8,0:0:0:0:
152,172,98474,1,2,0:0:0:0:
152,172,98641,1,2,0:0:0:0:
152,172,98807,6,0,L|144:268,1,90,4|0,0:3|0:0,0:0:0:0:
200,336,99474,1,8,0:0:0:0:
288,360,99807,2,0,P|328:364|392:332,1,90,0|0,0:0|0:0,0:0:0:0:
320,272,100474,1,8,0:0:0:0:
200,336,100807,1,8,0:0:0:0:
124,244,101141,1,2,0:0:0:0:
124,244,101307,1,2,0:0:0:0:
124,244,101474,6,0,L|116:144,1,90,4|0,0:3|0:0,0:0:0:0:
180,88,102141,1,8,0:0:0:0:
260,128,102474,2,0,P|352:140|404:64,1,180,0|4,0:0|0:3,0:0:0:0:
316,60,103474,1,8,0:0:0:0:
228,40,103807,1,2,0:0:0:0:
184,48,103974,1,2,0:0:0:0:
140,56,104141,6,0,L|132:152,1,90,4|0,0:3|0:0,0:0:0:0:
76,216,104807,1,8,0:0:0:0:
116,296,105141,2,0,P|108:324|92:352,2,45,0|0|0,0:0|0:0|0:0,0:0:0:0:
200,268,105807,1,8,0:0:0:0:
76,216,106141,1,8,0:0:0:0:
184,156,106474,1,2,0:0:0:0:
184,156,106641,1,2,0:0:0:0:
184,156,106807,6,0,P|236:148|284:172,1,99.0000030212403,4|0,3:1|0:0,0:0:0:0:
220,248,107474,1,8,0:0:0:0:
320,256,107807,2,0,P|380:172|344:88,1,198.000006042481,0|4,0:0|0:3,0:0:0:0:
258,48,108807,1,8,0:0:0:0:
164,80,109141,1,2,0:0:0:0:
164,80,109307,1,2,0:0:0:0:
164,80,109474,6,0,L|152:288,1,198.000006042481,4|8,3:1|0:0,0:0:0:0:
242,319,110474,2,0,L|249:382,2,49.5000015106202
301,239,111141,2,0,P|353:227|405:235,1,99.0000030212403,8|8,0:0|0:0,0:0:0:0:
492,288,111807,1,2,0:0:0:0:
492,288,111974,1,2,0:0:0:0:
492,288,112141,6,0,L|496:176,1,99.0000030212403,4|0,3:1|0:0,0:0:0:0:
416,132,112807,1,8,0:0:0:0:
324,168,113141,2,0,P|216:172|168:104,1,198.000006042481,0|4,0:0|0:3,0:0:0:0:
264,88,114141,1,8,0:0:0:0:
324,168,114474,1,2,0:0:0:0:
324,168,114641,1,2,0:0:0:0:
324,168,114807,6,0,L|332:268,1,99.0000030212403,4|0,3:1|0:0,0:0:0:0:
256,332,115474,1,8,0:0:0:0:
156,344,115807,2,0,P|80:304|72:200,1,198.000006042481,0|8,0:0|0:0,0:0:0:0:
140,132,116807,1,8,0:0:0:0:
272,184,117141,1,2,0:0:0:0:
316,208,117307,1,2,0:0:0:0:
360,232,117474,6,0,L|460:216,1,99.0000030212403,4|0,3:1|0:0,0:0:0:0:
488,88,118141,2,0,L|388:72,1,99.0000030212403,8|0,0:0|0:0,0:0:0:0:
360,232,118807,1,0,0:0:0:0:
272,184,119141,1,4,0:3:0:0:
392,72,119474,1,8,0:0:0:0:
460,216,119807,1,2,0:0:0:0:
460,216,119974,1,2,0:0:0:0:
460,216,120141,6,0,P|432:308|332:324,1,198.000006042481,4|8,3:1|0:0,0:0:0:0:
244,308,121141,2,0,L|192:312,2,49.5000015106202,0|0|0,0:0|0:0|0:0,0:0:0:0:
276,212,121807,1,8,0:0:0:0:
128,264,122141,1,8,0:0:0:0:
196,152,122474,1,2,0:0:0:0:
196,152,122641,1,2,0:0:0:0:
196,152,122807,6,0,L|204:52,1,99.0000030212403,4|0,3:1|0:0,0:0:0:0:
296,92,123474,1,8,0:0:0:0:
276,212,123807,2,0,P|176:252|104:188,1,198.000006042481,0|4,0:0|0:3,0:0:0:0:
195,151,124807,1,8,0:0:0:0:
296,92,125141,1,2,0:0:0:0:
296,92,125307,1,2,0:0:0:0:
296,92,125474,6,0,L|410:103,1,99.0000030212403,4|0,3:1|0:0,0:0:0:0:
424,244,126141,1,8,0:0:0:0:
340,300,126474,2,0,P|292:289|251:246,1,99.0000030212403,0|0,0:0|0:0,0:0:0:0:
339,198,127141,1,8,0:0:0:0:
426,324,127474,1,8,0:0:0:0:
246,363,127807,1,0,0:0:0:0:
256,192,128141,12,0,130807,0:0:0:0:
