osu file format v14

[General]
AudioFilename: raja_ffm_-_the_light.mp3
AudioLeadIn: 0
PreviewTime: 105641
Countdown: 0
SampleSet: Soft
StackLeniency: 0.7
Mode: 0
LetterboxInBreaks: 0
WidescreenStoryboard: 0

[Editor]
Bookmarks: 21474,42807,58807,64141,85474,106807,117474,128141
DistanceSpacing: 1
BeatDivisor: 4
GridSize: 4
TimelineZoom: 1

[Metadata]
Title:the light
TitleUnicode:the light
Artist:raja
ArtistUnicode:raja
Creator:Shadren
Version:Easy
Source:
Tags:snowflake emily richards ralf jacobsen remix winter mbc8 Monthly Mapping Contest 8
BeatmapID:676507
BeatmapSetID:301731

[Difficulty]
HPDrainRate:3
CircleSize:2
OverallDifficulty:2
ApproachRate:3
SliderMultiplier:1.2
SliderTickRate:2

[Events]
//Background and Video events
0,0,"BG.jpg",0,0
//Break Periods
//Storyboard Layer 0 (Background)
//Storyboard Layer 1 (Fail)
//Storyboard Layer 2 (Pass)
//Storyboard Layer 3 (Foreground)
//Storyboard Sound Samples

[TimingPoints]
10807,666.666666666667,4,2,0,50,1,0
42807,-100,4,2,0,50,0,1
58140,-100,4,2,0,50,0,0
61474,-100,4,2,0,30,0,0
64141,-100,4,2,0,50,0,0
106807,-100,4,2,0,50,0,1
128140,-100,4,2,0,50,0,0
128807,-100,4,2,0,45,0,0
129474,-100,4,2,0,35,0,0
130141,-100,4,2,0,25,0,0
130807,-100,4,2,0,15,0,0

[Colours]
Combo1 : 210,166,255
Combo2 : 66,160,255
Combo3 : 160,205,250
Combo4 : 7,206,235

[HitObjects]
264,208,21474,6,0,P|167:303|59:271,1,240,4|0,0:3|0:0,0:0:0:0:
144,183,23474,1,8,0:0:0:0:
224,92,24141,2,0,P|296:88|352:124,2,120,4|8|0,0:3|0:0|0:0,0:0:0:0:
264,208,26141,1,8,0:0:0:0:
344,300,26807,6,0,P|456:292|496:180,1,240,4|0,0:3|0:0,0:0:0:0:
412,100,28807,1,8,0:0:0:0:
300,60,29474,2,0,B|260:40|184:60|184:60|108:84|52:60,1,240,4|0,0:3|0:0,0:0:0:0:
20,108,31141,2,0,L|16:184,1,60,8|8,0:0|0:0,0:0:0:0:
88,264,32141,6,0,P|208:288|280:192,1,240,4|0,0:3|0:0,0:0:0:0:
300,88,34141,1,8,0:0:0:0:
388,168,34807,2,0,L|507:171,2,120,4|8|0,0:3|0:0|0:0,0:0:0:0:
300,88,36807,1,8,0:0:0:0:
200,156,37474,6,0,P|140:160|80:132,2,120,4|8|0,0:3|0:0|0:0,0:0:0:0:
300,88,39474,1,8,0:0:0:0:
404,148,40141,2,0,B|448:204|408:272|408:272|336:272|312:324,1,240,4|0,0:3|0:0,0:0:0:0:
272,356,41807,2,0,L|200:352,1,60,8|8,0:0|0:0,0:0:0:0:
100,304,42807,6,0,P|80:236|104:172,2,120,4|8|0,0:3|0:0|0:0,0:0:0:0:
200,240,44807,1,8,0:0:0:0:
292,164,45474,2,0,L|300:32,2,120,4|8|0,0:3|0:0|0:0,0:0:0:0:
328,212,47141,2,0,P|360:220|396:216,1,60,8|8,0:0|0:0,0:0:0:0:
476,140,48141,6,0,P|496:264|400:336,1,240,4|0,0:3|0:0,0:0:0:0:
296,328,50141,1,8,0:0:0:0:
180,296,50807,2,0,L|56:304,2,120,4|8|0,0:3|0:0|0:0,0:0:0:0:
220,252,52474,2,0,P|224:212|216:180,1,60,8|8,0:0|0:0,0:0:0:0:
280,88,53474,6,0,P|340:80|412:100,2,120,4|8|0,0:3|0:0|0:0,0:0:0:0:
164,116,55474,1,8,0:0:0:0:
80,200,56141,2,0,L|76:324,2,120,4|8|0,0:3|0:0|0:0,0:0:0:0:
44,152,57807,2,0,L|40:84,1,60,8|8,0:0|0:0,0:0:0:0:
256,192,58807,12,0,61474,0:0:0:0:
464,236,64141,6,0,P|404:328|284:288,1,240,4|0,0:3|0:0,0:0:0:0:
240,192,66141,1,8,0:0:0:0:
140,128,66807,2,0,L|20:132,2,120,4|8|0,0:3|0:0|0:0,0:0:0:0:
188,88,68474,2,0,L|264:92,1,60,8|8,0:0|0:0,0:0:0:0:
348,156,69474,6,0,P|416:168|468:152,2,120,4|8|0,0:3|0:0|0:0,0:0:0:0:
248,92,71474,1,8,0:0:0:0:
152,168,72141,2,0,B|176:224|128:280|128:280|168:348|248:320,1,240,4|0,0:3|0:0,0:0:0:0:
288,312,73807,2,0,P|324:308|356:312,1,60,8|8,0:0|0:0,0:0:0:0:
416,212,74807,6,0,P|428:140|420:92,2,120,4|8|0,0:3|0:0|0:0,0:0:0:0:
348,312,76807,1,8,0:0:0:0:
228,332,77474,2,0,P|120:288|108:176,1,240,4|0,0:3|0:0,0:0:0:0:
188,88,79474,1,8,0:0:0:0:
304,120,80141,6,0,P|372:116|416:92,2,120,4|8|0,0:3|0:0|0:0,0:0:0:0:
188,88,82141,1,8,0:0:0:0:
82,144,82807,2,0,B|114:200|178:208|178:208|157:275|212:328,1,240,4|0,0:3|0:0,0:0:0:0:
260,340,84474,2,0,L|328:332,1,60,8|8,0:0|0:0,0:0:0:0:
400,244,85474,6,0,P|416:188|472:136,2,120,4|8|0,0:3|0:0|0:0,0:0:0:0:
272,248,87474,1,8,0:0:0:0:
156,192,88141,2,0,B|148:132|92:96|92:96|116:24|204:28,1,240,4|0,0:3|0:0,0:0:0:0:
300,52,90141,1,8,0:0:0:0:
404,116,90807,6,0,P|405:178|432:236,2,120,4|8|0,0:3|0:0|0:0,0:0:0:0:
296,168,92807,1,8,0:0:0:0:
196,228,93474,2,0,P|184:308|44:288,1,240,4|0,0:3|0:0,0:0:0:0:
28,248,95141,2,0,P|28:212|20:184,1,60,8|8,0:0|0:0,0:0:0:0:
88,88,96141,6,0,P|152:76|208:100,2,120,4|8|0,0:3|0:0|0:0,0:0:0:0:
138,196,98141,1,8,0:0:0:0:
236,264,98807,2,0,B|300:284|340:224|340:224|304:156|372:108,1,240,4|0,0:3|0:0,0:0:0:0:
412,88,100474,2,0,L|472:92,1,60,8|8,0:0|0:0,0:0:0:0:
504,207,101474,6,0,P|512:271|500:339,2,120,4|8|0,0:3|0:0|0:0,0:0:0:0:
384,198,103474,1,8,0:0:0:0:
312,292,104141,2,0,P|192:320|132:216,1,240,4|0,0:3|0:0,0:0:0:0:
112,180,105807,2,0,P|80:172|44:172,1,60,8|8,0:0|0:0,0:0:0:0:
36,52,106807,5,4,3:1:0:0:
152,88,107474,2,0,P|212:96|272:76,1,120,8|0,0:0|0:0,0:0:0:0:
376,24,108807,1,8,0:0:0:0:
460,112,109474,2,0,B|492:172|464:228|464:228|396:240|388:320,1,240,4|0,3:1|0:0,0:0:0:0:
344,348,111141,2,0,L|280:344,1,60,8|8,0:0|0:0,0:0:0:0:
176,292,112141,6,0,P|116:292|52:332,2,120,4|8|0,3:1|0:0|0:0,0:0:0:0:
268,212,114141,1,8,0:0:0:0:
348,124,114807,2,0,B|416:124|456:84|456:84|452:156|484:212,1,240,4|0,3:1|0:0,0:0:0:0:
504,256,116474,2,0,L|500:324,1,60,8|8,0:0|0:0,0:0:0:0:
384,344,117474,6,0,P|316:356|260:336,1,120,4|8,3:1|0:0,0:0:0:0:
164,284,118807,2,0,P|106:268|48:281,1,120,0|8,0:0|0:0,0:0:0:0:
36,160,120141,2,0,P|164:152|232:56,1,240,4|0,3:1|0:0,0:0:0:0:
272,28,121807,2,0,P|308:28|336:36,1,60,8|8,0:0|0:0,0:0:0:0:
416,120,122807,5,4,3:1:0:0:
364,228,123474,2,0,P|308:248|240:232,1,120,8|0,0:0|0:0,0:0:0:0:
148,172,124807,1,8,0:0:0:0:
64,84,125474,2,0,P|32:208|112:288,1,240,4|0,3:1|0:0,0:0:0:0:
156,308,127141,2,0,L|220:296,1,60,8|8,0:0|0:0,0:0:0:0:
256,192,128141,12,0,130807,0:0:0:0:
