osu file format v14

[General]
AudioFilename: raja_ffm_-_the_light.mp3
AudioLeadIn: 0
PreviewTime: 105807
Countdown: 0
SampleSet: Soft
StackLeniency: 0.7
Mode: 0
LetterboxInBreaks: 0
WidescreenStoryboard: 0

[Editor]
Bookmarks: 21474,42807,58807,64141,85474,106807,128141
DistanceSpacing: 1
BeatDivisor: 4
GridSize: 8
TimelineZoom: 1.1

[Metadata]
Title:the light
TitleUnicode:the light
Artist:raja
ArtistUnicode:raja
Creator:Damnae
Version:Normal
Source:
Tags:mbc8 snowflake emily richards ralf jacobsen winter remix ayu
BeatmapID:671413
BeatmapSetID:299224

[Difficulty]
HPDrainRate:3
CircleSize:3
OverallDifficulty:3
ApproachRate:4
SliderMultiplier:2
SliderTickRate:1

[Events]
//Background and Video events
0,0,"Snowflake3_1280x720.jpg",0,0
//Break Periods
2,58807,62821
//Storyboard Layer 0 (Background)
//Storyboard Layer 1 (Fail)
//Storyboard Layer 2 (Pass)
//Storyboard Layer 3 (Foreground)
//Storyboard Sound Samples

[TimingPoints]
141,666.666666666667,4,2,0,50,1,0
42641,-100,4,2,0,30,0,0
42807,-100,4,2,0,50,0,0
47974,-100,4,2,0,30,0,0
48141,-100,4,2,0,50,0,0
55974,-100,4,2,0,30,0,0
56141,-100,4,2,0,50,0,0
64141,-100,4,2,0,40,0,0
64307,-100,4,2,0,50,0,0
106807,-100,4,2,0,65,0,1
111974,-100,4,2,0,50,0,1
112141,-100,4,2,0,65,0,1
119974,-100,4,2,0,50,0,1
120141,-100,4,2,0,65,0,1
122641,-100,4,2,0,50,0,1
123141,-100,4,2,0,65,0,1
125474,-100,4,2,0,50,0,1
125807,-100,4,2,0,65,0,1
127807,-100,4,2,0,40,0,0

[Colours]
Combo1 : 255,94,55
Combo2 : 173,255,95
Combo3 : 17,254,176
Combo4 : 255,88,100

[HitObjects]
49,136,21474,6,0,P|102:135|157:128,1,100,0|0,1:0|0:0,0:0:0:0:
248,119,22141,2,0,P|254:170|256:227,1,100,8|0,2:0|0:0,0:0:0:0:
258,318,22807,1,2,0:0:0:0:
158,324,23141,1,0,1:0:0:0:
147,224,23474,1,8,0:0:0:0:
346,231,24141,5,0,1:0:0:0:
250,55,24807,2,0,P|242:106|242:163,1,100,8|0,2:0|0:0,0:0:0:0:
249,254,25474,1,2,0:0:0:0:
449,261,26141,2,0,P|456:186|452:152,1,100,8|0,2:0|2:0,0:0:0:0:
411,71,26807,6,0,P|362:81|312:84,1,100,0|0,1:0|0:0,0:0:0:0:
228,138,27474,2,0,P|221:213|247:343,1,200,8|2,2:0|2:0,0:0:0:0:
144,345,28474,1,0,1:0:0:0:
63,287,28807,1,8,0:0:0:0:
63,287,29474,6,0,P|63:192|39:78,1,200,0|8,1:0|2:0,0:0:0:0:
122,29,30474,1,0,0:0:0:0:
160,121,30807,2,0,P|207:109|257:101,1,100,2|8,2:0|2:0,0:0:0:0:
340,158,31474,1,8,0:0:0:0:
278,351,32141,6,0,P|367:329|398:205,2,200,0|8|2,1:0|0:0|0:0,0:0:0:0:
182,321,33807,1,0,1:0:0:0:
86,291,34141,2,0,P|85:237|79:187,1,100,8|0,0:0|0:0,0:0:0:0:
148,118,34807,6,0,P|176:160|176:213,1,100,0|0,1:0|0:0,0:0:0:0:
278,209,35474,2,0,P|312:119|405:93,1,200,8|2,2:0|2:0,0:0:0:0:
498,56,36474,1,0,1:0:0:0:
504,155,36807,2,0,P|503:212|498:269,1,100,8|0,0:0|0:0,0:0:0:0:
420,316,37474,6,0,P|351:311|206:313,1,200,0|8,1:0|0:0,0:0:0:0:
236,213,38474,2,0,P|167:218|22:216,1,200,2|0,2:0|1:0,0:0:0:0:
47,117,39474,2,0,P|104:118|161:123,1,100,8|0,0:0|0:0,0:0:0:0:
244,101,40141,6,0,P|239:170|241:315,1,200,0|8,1:0|0:0,0:0:0:0:
335,330,41141,1,2,0:0:0:0:
434,338,41474,2,0,P|435:281|440:224,1,100,2|8,0:0|2:0,0:0:0:0:
338,232,42141,1,8,0:0:0:0:
345,131,42474,6,0,L|336:70,2,50,2|0|4,0:0|1:0|1:0,0:0:0:0:
246,147,43141,1,0,0:0:0:0:
146,147,43474,2,0,P|89:146|32:141,2,100,8|2|0,0:0|0:0|0:0,0:0:0:0:
162,245,44474,1,0,1:0:0:0:
261,245,44807,2,0,P|318:246|375:251,1,100,8|2,0:0|0:0,0:0:0:0:
431,320,45474,5,0,1:0:0:0:
354,135,46141,1,8,0:0:0:0:
232,293,46807,1,2,0:0:0:0:
132,279,47141,1,8,0:0:0:0:
33,265,47474,1,8,0:0:0:0:
50,166,47807,6,0,L|41:105,2,50,2|0|4,0:0|1:0|1:0,0:0:0:0:
145,136,48474,1,0,0:0:0:0:
237,98,48807,2,0,P|246:161|244:225,1,100,8|0,0:0|0:0,0:0:0:0:
261,296,49474,1,2,0:0:0:0:
357,321,49807,1,0,1:0:0:0:
455,340,50141,2,0,P|456:290|464:240,1,100,8|0,0:0|0:0,0:0:0:0:
437,144,50807,5,0,1:0:0:0:
254,225,51474,1,8,0:0:0:0:
276,26,52141,1,2,0:0:0:0:
176,35,52474,1,8,0:0:0:0:
76,43,52807,2,0,P|74:92|66:142,1,100,8|0,0:0|0:0,0:0:0:0:
160,176,53474,6,0,P|208:247|163:390,2,200,0|8|2,1:0|0:0|2:0,0:0:0:0:
61,155,55141,1,0,1:0:0:0:
96,61,55474,1,8,0:0:0:0:
193,81,55807,6,0,L|254:72,2,50,2|0|0,0:0|1:0|1:0,0:0:0:0:
185,180,56474,1,2,0:0:0:0:
178,279,56807,1,8,0:0:0:0:
330,149,57474,1,2,0:0:0:0:
338,248,57807,1,8,0:0:0:0:
345,347,58140,1,8,0:0:0:0:
97,72,64141,6,0,L|107:186,1,100,0|0,1:0|0:0,0:0:0:0:
90,270,64807,1,8,0:0:0:0:
285,314,65474,1,2,0:0:0:0:
315,218,65807,1,0,1:0:0:0:
398,273,66141,1,8,0:0:0:0:
198,257,66807,5,0,1:0:0:0:
398,273,67474,1,8,0:0:0:0:
400,72,68141,2,0,P|325:60|285:61,1,100,2|8,2:0|0:0,0:0:0:0:
210,102,68807,2,0,P|207:151|197:200,1,100,8|0,2:0|0:0,0:0:0:0:
112,252,69474,6,0,L|-2:242,2,100,0|0|8,1:0|0:0|0:0,0:0:0:0:
297,325,70807,2,0,L|396:316,2,100,2|0|8,2:0|1:0|2:0,0:0:0:0:
203,147,72141,6,0,P|261:107|376:149,1,200,0|8,1:0|0:0,0:0:0:0:
471,174,73141,1,0,0:0:0:0:
398,243,73474,2,0,P|386:318|387:358,1,100,2|8,2:0|0:0,0:0:0:0:
293,303,74140,2,0,P|245:293|195:290,1,100,8|0,2:0|0:0,0:0:0:0:
203,190,74807,5,0,1:0:0:0:
11,248,75474,1,8,0:0:0:0:
203,190,76141,1,2,0:0:0:0:
127,255,76474,1,0,1:0:0:0:
74,169,76807,2,0,P|74:93|66:53,1,100,8|0,2:0|0:0,0:0:0:0:
169,86,77474,5,0,1:0:0:0:
369,81,78141,2,0,P|409:139|367:254,1,200,8|2,2:0|2:0,0:0:0:0:
331,345,79141,1,0,1:0:0:0:
262,272,79474,2,0,P|187:260|147:261,1,100,8|0,2:0|0:0,0:0:0:0:
66,287,80141,6,0,P|26:229|68:114,1,200,0|8,1:0|2:0,0:0:0:0:
263,146,81474,1,2,0:0:0:0:
293,242,81807,1,0,1:0:0:0:
376,187,82141,1,8,0:0:0:0:
178,203,82807,5,0,1:0:0:0:
376,187,83474,1,8,0:0:0:0:
178,203,84141,1,2,2:0:0:0:
95,258,84475,1,8,2:0:0:0:
65,162,84808,1,8,2:0:0:0:
148,107,85141,1,4,0:0:0:0:
178,203,85474,6,0,P|271:219|381:223,1,200,0|8,1:0|0:0,0:0:0:0:
433,140,86474,2,0,P|476:210|422:310,1,200,2|0,2:0|1:0,0:0:0:0:
327,319,87474,1,8,0:0:0:0:
327,319,88141,5,0,1:0:0:0:
224,147,88807,1,8,0:0:0:0:
51,247,89474,2,0,P|100:248|150:257,2,100,2|0|8,2:0|1:0|2:0,0:0:0:0:
201,115,90807,6,0,P|294:98|404:95,1,200,0|8,1:0|0:0,0:0:0:0:
398,194,91807,2,0,P|316:243|230:199,1,200,2|0,2:0|1:0,0:0:0:0:
138,239,92807,1,8,0:0:0:0:
138,239,93474,5,0,1:0:0:0:
330,294,94140,1,8,0:0:0:0:
462,143,94807,2,0,P|453:93|450:43,2,100,2|8|8,2:0|2:0|2:0,0:0:0:0:
261,135,96141,6,0,P|212:217|256:303,1,200,0|8,1:0|2:0,0:0:0:0:
340,332,97141,2,0,P|357:239|360:129,1,200,2|0,2:0|1:0,0:0:0:0:
308,47,98141,1,8,0:0:0:0:
205,218,98807,6,0,P|123:267|37:223,1,200,0|8,1:0|2:0,0:0:0:0:
8,139,99807,2,0,P|101:122|211:119,1,200,2|8,2:0|2:0,0:0:0:0:
292,171,100807,1,8,0:0:0:0:
431,27,101474,5,0,1:0:0:0:
386,221,102141,2,0,L|409:329,1,100,8|2,2:0|2:0,0:0:0:0:
239,208,103141,2,0,L|216:100,2,100,0|8|0,1:0|2:0|0:0,0:0:0:0:
206,302,104141,5,0,1:0:0:0:
12,257,104807,1,8,0:0:0:0:
167,130,105474,2,0,L|144:22,2,100,2|8|8,2:0|2:0|2:0,0:0:0:0:
241,197,106474,6,0,L|232:258,2,50,2|0|4,0:0|1:0|1:2,0:0:0:0:
306,121,107141,1,0,0:0:0:0:
380,53,107474,2,0,P|429:56|479:57,2,100,8|0|0,0:0|0:0|0:0,0:0:0:0:
284,22,108474,1,0,1:0:0:0:
211,90,108807,2,0,P|154:89|97:84,1,100,8|2,0:0|0:0,0:0:0:0:
31,146,109474,5,4,1:0:0:0:
97,334,110141,2,0,P|154:335|211:340,1,100,8|0,0:0|0:0,0:0:0:0:
258,259,110807,2,0,P|307:262|357:263,2,100,2|8|8,0:0|0:0|0:0,0:0:0:0:
165,221,111807,6,0,L|104:230,2,50,2|0|4,0:0|1:0|1:0,0:0:0:0:
149,122,112474,1,0,0:0:0:0:
247,104,112807,1,8,0:0:0:0:
268,201,113141,2,0,P|339:249|482:204,1,200,2|0,2:0|1:0,0:0:0:0:
492,144,114141,2,0,P|490:94|482:44,1,100,8|2,0:0|0:0,0:0:0:0:
383,57,114807,5,4,1:0:0:0:
195,128,115474,1,8,0:0:0:0:
260,317,116141,1,2,0:0:0:0:
160,307,116474,1,8,0:0:0:0:
60,296,116807,2,0,P|62:247|70:197,1,100,8|2,0:0|0:0,0:0:0:0:
169,205,117474,6,0,P|186:108|136:25,2,200,4|8|2,1:0|0:0|2:0,0:0:0:0:
266,230,119141,1,0,1:0:0:0:
359,194,119474,1,8,0:0:0:0:
443,247,119807,6,0,L|452:308,2,50,2|0|4,0:0|1:0|1:0,0:0:0:0:
483,155,120474,1,0,0:0:0:0:
398,102,120807,1,8,0:0:0:0:
200,131,121474,1,2,0:0:0:0:
144,213,121807,1,8,0:0:0:0:
221,276,122140,1,8,0:0:0:0:
278,193,122474,6,0,L|339:184,2,50,2|0|4,0:0|1:0|1:0,0:0:0:0:
200,131,123141,2,0,P|149:121|91:122,2,100,0|8|0,0:0|0:0|0:0,0:0:0:0:
386,57,124474,2,0,P|436:47|495:48,2,100,0|8|0,1:0|0:0|0:0,0:0:0:0:
291,22,125474,5,4,1:0:0:0:
214,86,125807,2,0,P|163:95|105:95,2,100,0|8|0,2:0|0:0|0:0,0:0:0:0:
269,169,126807,1,2,0:0:0:0:
217,255,127141,1,8,0:0:0:0:
282,330,127474,2,0,P|333:321|391:321,1,100,8|2,2:0|0:0,0:0:0:0:
