osu file format v14

[General]
AudioFilename: raja_ffm_-_the_light.mp3
AudioLeadIn: 0
PreviewTime: 105807
Countdown: 0
SampleSet: Soft
StackLeniency: 0.7
Mode: 0
LetterboxInBreaks: 0
WidescreenStoryboard: 0

[Editor]
Bookmarks: 21474,42807,58807,64141,85474,106807,128141
DistanceSpacing: 1.2
BeatDivisor: 8
GridSize: 8
TimelineZoom: 1.5

[Metadata]
Title:the light
TitleUnicode:the light
Artist:raja
ArtistUnicode:raja
Creator:Damnae
Version:Insane
Source:
Tags:mbc8 snowflake emily richards ralf jacobsen winter remix ayu
BeatmapID:671412
BeatmapSetID:299224

[Difficulty]
HPDrainRate:6
CircleSize:4
OverallDifficulty:7
ApproachRate:8
SliderMultiplier:2.8
SliderTickRate:1

[Events]
//Background and Video events
0,0,"Snowflake3_1280x720.jpg",0,0
//Break Periods
2,61341,62391
//Storyboard Layer 0 (Background)
//Storyboard Layer 1 (Fail)
//Storyboard Layer 2 (Pass)
//Storyboard Layer 3 (Foreground)
//Storyboard Sound Samples

[TimingPoints]
141,666.666666666667,4,2,0,30,1,0
21474,-100,4,2,0,50,0,0
23974,-100,4,2,0,30,0,0
24141,-100,4,2,0,50,0,0
26641,-100,4,2,0,30,0,0
26807,-100,4,2,0,50,0,0
29307,-100,4,2,0,30,0,0
29474,-100,4,2,0,50,0,0
31974,-100,4,2,0,30,0,0
32141,-100,4,2,0,50,0,0
34641,-100,4,2,0,30,0,0
34807,-100,4,2,0,50,0,0
37307,-100,4,2,0,30,0,0
37474,-100,4,2,0,50,0,0
39974,-100,4,2,0,30,0,0
40141,-100,4,2,0,50,0,0
42641,-100,4,2,0,30,0,0
42807,-100,4,2,0,50,0,0
45307,-100,4,2,0,30,0,0
45474,-100,4,2,0,50,0,0
47974,-100,4,2,0,30,0,0
48141,-100,4,2,0,50,0,0
50641,-100,4,2,0,30,0,0
50807,-100,4,2,0,50,0,0
53307,-100,4,2,0,30,0,0
53474,-100,4,2,0,50,0,0
55974,-100,4,2,0,30,0,0
56141,-100,4,2,0,50,0,0
58474,-133.333333333333,4,2,0,5,0,0
59141,-133.333333333333,4,2,0,20,0,0
64141,-100,4,2,0,40,0,0
64307,-100,4,2,0,50,0,0
65641,-100,4,2,0,30,0,0
65807,-100,4,2,0,50,0,0
66641,-100,4,2,0,30,0,0
66807,-100,4,2,0,50,0,0
69307,-100,4,2,0,30,0,0
69474,-100,4,2,0,50,0,0
70974,-100,4,2,0,30,0,0
71141,-100,4,2,0,50,0,0
71974,-100,4,2,0,30,0,0
72141,-100,4,2,0,50,0,0
73641,-100,4,2,0,30,0,0
73807,-100,4,2,0,50,0,0
74641,-100,4,2,0,30,0,0
74807,-100,4,2,0,50,0,0
77307,-100,4,2,0,30,0,0
77474,-100,4,2,0,50,0,0
78974,-100,4,2,0,30,0,0
79141,-100,4,2,0,50,0,0
79974,-100,4,2,0,30,0,0
80141,-100,4,2,0,50,0,0
82641,-100,4,2,0,30,0,0
82807,-100,4,2,0,50,0,0
83974,-100,4,2,0,30,0,0
84141,-100,4,2,0,50,0,0
84307,-100,4,2,0,30,0,0
84474,-100,4,2,0,50,0,0
85307,-100,4,2,0,30,0,0
85474,-100,4,2,0,50,0,0
87974,-100,4,2,0,30,0,0
88141,-100,4,2,0,50,0,0
90641,-100,4,2,0,30,0,0
90807,-100,4,2,0,50,0,0
93307,-100,4,2,0,30,0,0
93474,-100,4,2,0,50,0,0
95974,-100,4,2,0,30,0,0
96141,-100,4,2,0,50,0,0
98474,-100,4,2,0,30,0,0
98807,-100,4,2,0,50,0,0
101307,-100,4,2,0,30,0,0
101474,-100,4,2,0,50,0,0
103974,-100,4,2,0,30,0,0
104141,-100,4,2,0,50,0,0
104474,-100,4,2,0,30,0,0
104807,-100,4,2,0,50,0,0
105307,-100,4,2,0,30,0,0
105474,-100,4,2,0,50,0,0
106807,-87.719298245614,4,2,0,65,0,1
109307,-87.719298245614,4,2,0,50,0,1
109474,-87.719298245614,4,2,0,65,0,1
111974,-87.719298245614,4,2,0,50,0,1
112141,-87.719298245614,4,2,0,65,0,1
114641,-87.719298245614,4,2,0,50,0,1
114807,-87.719298245614,4,2,0,65,0,1
117307,-87.719298245614,4,2,0,50,0,1
117474,-87.719298245614,4,2,0,65,0,1
119974,-87.719298245614,4,2,0,50,0,1
120141,-87.719298245614,4,2,0,65,0,1
122641,-87.719298245614,4,2,0,50,0,1
122807,-87.719298245614,4,2,0,65,0,1
125307,-87.719298245614,4,2,0,50,0,1
125474,-87.719298245614,4,2,0,65,0,1
127807,-87.719298245614,4,2,0,40,0,0

[Colours]
Combo1 : 255,94,55
Combo2 : 173,255,95
Combo3 : 17,254,176
Combo4 : 255,88,100

[HitObjects]
206,95,20807,6,0,B|210:138|264:176|266:220,1,140,2|0,0:0|0:0,0:0:0:0:
382,120,21474,6,0,L|366:192,1,70,0|0,1:0|0:0,0:0:0:0:
302,96,21807,2,0,L|317:27,1,70
484,62,22141,2,0,P|494:132|444:186,1,140,8|0,0:0|2:0,0:0:0:0:
364,207,22641,1,0,3:0:0:0:
364,207,22807,2,0,L|348:279,1,70,2|0,2:0|0:0,0:0:0:0:
167,254,23140,2,0,L|151:185,1,70,0|0,1:0|0:0,0:0:0:0:
267,170,23474,2,0,P|277:240|227:294,1,140,8|0,0:0|0:0,0:0:0:0:
70,268,23974,1,0,1:0:0:0:
28,350,24141,6,0,P|97:343|167:341,1,140,0|0,1:0|0:0,0:0:0:0:
183,161,24807,2,0,P|113:167|43:169,1,140,8|0,0:0|0:0,0:0:0:0:
88,89,25307,1,0,3:0:0:0:
108,251,25474,2,0,L|180:267,1,70,2|0,0:0|0:0,0:0:0:0:
248,215,25807,2,0,L|317:200,1,70,0|0,1:0|0:0,0:0:0:0:
170,41,26141,2,0,P|176:110|178:180,1,140,8|0,0:0|0:0,0:0:0:0:
178,180,26641,1,0,1:0:0:0:
75,104,26807,6,0,P|65:174|115:228,1,140,0|0,1:0|0:0,0:0:0:0:
285,164,27474,2,0,P|295:94|245:40,1,140,8|0,0:0|0:0,0:0:0:0:
169,79,27974,1,0,3:0:0:0:
169,79,28141,2,0,P|158:120|138:146,1,70,2|0,0:0|0:0,0:0:0:0:
22,186,28474,2,0,P|55:193|85:213,1,70,0|0,1:0|0:0,0:0:0:0:
83,319,28807,2,0,P|136:277|204:288,1,140,8|0,0:0|0:0,0:0:0:0:
361,297,29307,1,0,1:0:0:0:
280,337,29474,6,0,P|281:267|288:197,1,140,0|0,1:0|0:0,0:0:0:0:
123,118,30141,2,0,P|129:187|131:257,1,140,8|0,0:0|0:0,0:0:0:0:
195,322,30641,1,0,3:0:0:0:
195,322,30807,2,0,P|224:302|257:295,1,70,2|0,0:0|0:0,0:0:0:0:
61,307,31140,2,0,P|41:277|34:244,1,70,8|0,0:0|0:0,0:0:0:0:
209,153,31474,2,0,P|228:182|235:215,2,70,8|0|0,0:0|2:0|2:0,0:0:0:0:
123,122,31974,1,0,1:0:0:0:
147,302,32141,6,0,P|216:295|286:294,1,140,0|0,1:0|0:0,0:0:0:0:
432,174,32807,2,0,P|365:163|312:206,1,140,8|0,0:0|0:0,0:0:0:0:
224,181,33307,1,0,3:0:0:0:
277,106,33474,2,0,L|258:38,1,70,2|0,0:0|0:0,0:0:0:0:
386,246,33807,2,0,L|404:313,1,70,0|0,1:0|0:0,0:0:0:0:
491,282,34141,2,0,P|489:212|483:142,1,140,8|0,0:0|0:0,0:0:0:0:
385,156,34641,1,0,1:0:0:0:
287,163,34807,6,0,P|217:161|147:155,1,140,0|0,1:0|0:0,0:0:0:0:
40,319,35474,2,0,P|110:321|180:327,1,140,8|0,0:0|0:0,0:0:0:0:
256,266,35974,1,0,3:0:0:0:
226,172,36141,2,0,P|197:192|164:199,1,70,2|0,0:0|0:0,0:0:0:0:
347,245,36474,2,0,P|367:275|374:308,1,70,0|0,1:0|0:0,0:0:0:0:
163,199,36807,2,0,P|165:129|171:59,1,140,8|0,0:0|0:0,0:0:0:0:
72,65,37307,1,0,1:0:0:0:
72,65,37474,6,0,P|70:134|64:204,1,140,0|0,1:0|0:0,0:0:0:0:
253,151,38141,1,8,0:0:0:0:
122,282,38474,2,0,P|123:316|126:351,1,70,0|0,0:0|3:0,0:0:0:0:
198,204,38807,2,0,P|196:169|193:134,1,70,2|0,0:0|0:0,0:0:0:0:
261,61,39141,1,0,1:0:0:0:
271,240,39474,2,0,P|218:282|151:271,1,140,8|0,0:0|0:0,0:0:0:0:
59,111,39974,1,0,1:0:0:0:
139,54,40141,6,0,P|136:123|130:193,1,140,0|0,1:0|0:0,0:0:0:0:
312,266,40807,2,0,P|305:196|303:126,1,140,8|0,0:0|0:0,0:0:0:0:
377,61,41307,1,0,3:0:0:0:
377,61,41474,2,0,P|415:54|451:57,1,70,2|0,0:0|0:0,0:0:0:0:
218,136,41807,2,0,P|183:142|148:140,1,70,8|0,0:0|0:0,0:0:0:0:
252,62,42141,2,0,P|296:121|280:187,1,140,8|0,0:0|0:0,0:0:0:0:
47,153,42641,1,0,1:0:0:0:
47,153,42807,6,0,P|54:222|56:292,1,140,4|0,1:2|0:0,0:0:0:0:
143,317,43307,1,2,0:0:0:0:
170,230,43474,2,0,P|168:160|161:90,1,140,8|0,0:0|0:0,0:0:0:0:
132,322,43974,1,2,0:0:0:0:
237,341,44141,2,0,P|278:287|260:222,1,140,0|0,0:0|1:0,0:0:0:0:
28,161,44807,2,0,P|9:205|59:283,1,140,8|0,0:0|0:0,0:0:0:0:
115,150,45308,1,0,1:0:0:0:
203,138,45474,6,0,P|196:207|194:277,1,140,0|0,1:0|0:0,0:0:0:0:
127,339,45974,1,2,0:0:0:0:
300,311,46141,2,0,P|319:267|269:189,1,140,8|0,0:0|0:0,0:0:0:0:
126,147,46641,1,2,0:0:0:0:
126,147,46807,2,0,L|204:143,1,70,0|2,0:0|0:0,0:0:0:0:
302,52,47141,2,0,P|313:92|334:121,1,70,8|0,0:0|0:0,0:0:0:0:
399,306,47474,2,0,P|397:271|407:237,1,70,8|0,0:0|0:0,0:0:0:0:
493,208,47807,1,2,0:0:0:0:
424,137,47974,1,0,1:0:0:0:
301,252,48141,6,0,P|232:259|162:261,1,140,4|0,1:2|0:0,0:0:0:0:
161,260,48641,1,2,0:0:0:0:
76,145,48807,2,0,P|141:127|195:169,1,140,8|0,0:0|0:0,0:0:0:0:
215,342,49307,1,2,0:0:0:0:
275,264,49474,2,0,L|344:260,1,70,0|2,0:0|0:0,0:0:0:0:
184,328,49807,2,0,L|106:324,1,70,0|0,1:0|0:0,0:0:0:0:
16,204,50141,2,0,P|81:186|135:228,1,140,8|0,0:0|0:0,0:0:0:0:
115,361,50641,1,0,1:0:0:0:
244,299,50807,6,0,P|237:264|234:230,1,70,0|0,1:0|0:0,0:0:0:0:
24,217,51141,2,0,P|28:182|34:148,1,70,2|0,0:0|0:0,0:0:0:0:
166,98,51474,2,0,P|124:151|142:216,1,140,8|0,0:0|0:0,0:0:0:0:
235,246,51974,1,2,0:0:0:0:
313,186,52141,2,0,P|307:168|301:117,1,70,0|2,0:0|0:0,0:0:0:0:
495,234,52474,2,0,P|492:268|482:302,1,70,8|0,0:0|0:0,0:0:0:0:
396,255,52807,2,0,P|397:185|404:115,1,140,8|0,0:0|0:0,0:0:0:0:
221,79,53307,1,0,1:0:0:0:
294,25,53474,6,0,P|301:94|302:164,1,140,0|0,1:0|0:0,0:0:0:0:
302,164,53974,1,2,0:0:0:0:
221,79,54141,2,0,P|179:132|197:197,1,140,8|0,0:0|0:0,0:0:0:0:
269,254,54641,1,2,0:0:0:0:
141,296,54807,2,0,P|106:299|71:300,1,70
83,72,55141,1,0,1:0:0:0:
83,72,55474,2,0,P|90:141|91:211,1,140,8|0,0:0|0:0,0:0:0:0:
55,295,55974,1,0,1:0:0:0:
176,177,56141,6,0,P|229:218|294:200,1,140,0|0,1:0|0:0,0:0:0:0:
280,116,56641,1,2,0:0:0:0:
429,72,56807,2,0,P|422:141|421:211,1,140,8|0,0:0|0:0,0:0:0:0:
457,295,57307,1,2,0:0:0:0:
276,110,57474,2,0,P|242:137|233:168,1,70,0|2,0:0|0:0,0:0:0:0:
198,302,57807,2,0,P|227:282|241:251,1,70,8|0,0:0|0:0,0:0:0:0:
184,45,58141,1,8,0:0:0:0:
184,45,58474,6,0,P|193:116|325:139,1,210.000008010865,4|0,0:0|0:0,0:0:0:0:
365,57,59474,1,2,0:0:0:0:
442,127,59807,1,0,0:0:0:0:
192,240,60474,5,0,0:0:0:0:
265,165,60808,1,2,0:0:0:0:
294,266,61141,1,0,0:0:0:0:
61,94,63141,5,2,0:0:0:0:
165,74,63475,1,2,0:0:0:0:
132,172,63808,1,0,0:0:0:0:
40,118,64141,6,0,L|33:48,1,70,0|0,1:0|0:0,0:0:0:0:
190,50,64474,2,0,L|183:119,1,70
163,282,64807,2,0,P|107:245|105:178,1,140,8|0,0:0|0:0,0:0:0:0:
104,178,65307,1,0,3:0:0:0:
247,231,65474,2,0,L|316:224,1,70,0|2,0:0|0:0,0:0:0:0:
455,148,65807,2,0,L|386:155,1,70,0|0,1:0|0:0,0:0:0:0:
257,189,66141,2,0,P|259:122|316:85,1,140,8|0,0:0|0:0,0:0:0:0:
385,15,66641,1,0,1:0:0:0:
400,189,66807,6,0,L|406:258,1,70,0|0,1:0|0:0,0:0:0:0:
252,302,67141,2,0,L|258:232,1,70
119,112,67474,2,0,P|121:179|177:216,1,140,8|0,0:0|0:0,0:0:0:0:
236,157,67974,1,0,3:0:0:0:
226,73,68141,2,0,L|219:3,1,70,0|0,2:0|3:0,0:0:0:0:
33,67,68475,2,0,L|26:136,1,70,8|0,0:0|0:0,0:0:0:0:
94,356,68807,2,0,L|101:286,1,70,8|0,0:0|0:0,0:0:0:0:
293,152,69141,2,0,L|287:222,1,70,0|0,0:0|1:0,0:0:0:0:
227,281,69474,6,0,P|170:243|168:176,1,140,0|0,1:0|0:0,0:0:0:0:
307,32,70141,2,0,P|363:69|365:136,1,140,8|0,0:0|0:0,0:0:0:0:
333,214,70641,1,0,3:0:0:0:
250,226,70807,2,0,L|180:232,1,70,0|2,0:0|0:0,0:0:0:0:
50,285,71141,2,0,L|120:292,1,70,0|0,1:0|0:0,0:0:0:0:
98,89,71474,2,0,P|41:126|39:193,1,140,8|0,0:0|0:0,0:0:0:0:
151,319,71974,1,0,1:0:0:0:
151,319,72141,6,0,P|168:234|175:178,1,140,0|0,1:0|0:0,0:0:0:0:
284,54,72807,2,0,P|266:138|259:194,1,140,8|0,0:0|0:0,0:0:0:0:
302,264,73307,1,0,3:0:0:0:
302,264,73474,2,0,P|313:297|318:331,1,70,0|2,0:0|0:0,0:0:0:0:
94,209,73807,1,8,0:0:0:0:
94,209,74141,1,8,0:0:0:0:
94,209,74474,1,0,0:0:0:0:
177,201,74641,1,0,1:0:0:0:
260,194,74807,6,0,L|329:200,1,70,0|0,1:0|0:0,0:0:0:0:
460,253,75141,2,0,L|390:260,1,70
166,250,75474,2,0,P|175:181|191:113,1,140,8|0,0:0|0:0,0:0:0:0:
84,149,75974,1,0,3:0:0:0:
84,149,76141,2,0,P|69:203|58:231,1,70,0|0,0:0|2:0,0:0:0:0:
249,62,76474,1,0,1:0:0:0:
249,62,76807,1,8,0:0:0:0:
249,62,77141,2,0,P|260:95|265:129,1,70,0|0,0:0|1:0,0:0:0:0:
208,296,77474,6,0,P|276:281|346:272,1,140,0|0,1:0|0:0,0:0:0:0:
424,301,77974,1,0,2:0:0:0:
399,149,78141,1,8,0:0:0:0:
399,149,78474,2,0,P|388:182|383:216,1,70,0|0,0:0|3:0,0:0:0:0:
190,220,78807,2,0,P|201:187|206:153,1,70,0|2,0:0|0:0,0:0:0:0:
130,24,79141,1,0,1:0:0:0:
130,24,79474,1,8,0:0:0:0:
130,24,79807,1,0,0:0:0:0:
77,89,79974,1,0,1:0:0:0:
129,154,80141,6,0,P|144:222|152:291,1,140,0|0,1:0|0:0,0:0:0:0:
372,153,80807,1,8,0:0:0:0:
372,153,81141,2,0,P|387:208|383:230,1,70,0|0,0:0|3:0,0:0:0:0:
140,231,81474,2,0,P|125:176|129:154,1,70,0|0,0:0|3:0,0:0:0:0:
234,42,81807,1,0,1:0:0:0:
234,42,82141,2,0,P|225:111|210:179,1,140,8|0,0:0|0:0,0:0:0:0:
235,312,82641,1,0,1:0:0:0:
277,231,82807,6,0,P|302:219|350:212,1,70,0|0,1:0|0:0,0:0:0:0:
485,150,83141,2,0,P|416:142|348:127,1,140,0|8,0:0|0:0,0:0:0:0:
348,127,83807,1,0,0:0:0:0:
318,220,83974,1,2,0:0:0:0:
221,235,84141,1,0,0:0:0:0:
163,155,84308,1,2,0:0:0:0:
204,66,84474,1,8,0:0:0:0:
204,66,84807,1,8,0:0:0:0:
204,66,85141,2,0,L|133:52,1,70,0|0,0:0|1:0,0:0:0:0:
273,30,85474,6,0,P|276:97|226:142,1,140,0|0,1:0|0:0,0:0:0:0:
57,242,86141,2,0,P|126:250|194:265,1,140,8|0,0:0|0:0,0:0:0:0:
256,192,86641,1,0,3:0:0:0:
343,235,86807,2,0,L|357:306,1,70
299,25,87141,1,0,1:0:0:0:
299,25,87474,2,0,P|295:92|345:137,1,140,8|0,0:0|0:0,0:0:0:0:
443,123,87974,1,0,1:0:0:0:
447,221,88141,6,0,P|378:229|310:244,1,140,0|0,1:0|0:0,0:0:0:0:
59,141,88807,2,0,P|119:109|182:134,1,140,8|0,0:0|0:0,0:0:0:0:
305,139,89307,1,0,3:0:0:0:
246,198,89474,2,0,L|252:267,1,70,0|2,0:0|0:0,0:0:0:0:
316,332,89807,1,0,1:0:0:0:
132,286,90141,1,8,0:0:0:0:
371,258,90474,2,0,L|366:188,1,70,0|0,0:0|1:0,0:0:0:0:
291,32,90807,6,0,P|283:101|268:170,1,140,0|0,1:0|0:0,0:0:0:0:
88,139,91474,2,0,P|57:200|81:263,1,140,8|0,0:0|0:0,0:0:0:0:
81,263,91974,1,0,3:0:0:0:
220,221,92141,2,0,P|251:160|227:97,1,140,0|0,0:0|1:0,0:0:0:0:
70,45,92807,2,0,P|54:113|46:182,1,140,8|0,0:0|0:0,0:0:0:0:
221,201,93307,1,0,1:0:0:0:
89,271,93474,6,0,L|19:265,1,70,0|0,1:0|2:0,0:0:0:0:
195,221,93807,2,0,L|264:226,1,70,0|0,0:0|2:0,0:0:0:0:
423,271,94141,1,8,0:0:0:0:
423,271,94474,1,0,0:0:0:0:
296,308,94641,1,0,0:0:0:0:
197,221,94807,1,2,0:0:0:0:
197,221,95141,2,0,L|127:215,1,70,8|0,0:0|0:0,0:0:0:0:
257,162,95474,2,0,P|281:225|249:285,1,140,8|0,0:0|0:0,0:0:0:0:
249,285,95974,1,0,1:0:0:0:
123,153,96141,6,0,P|107:84|99:15,2,140,0|0|8,1:0|0:0|0:0,0:0:0:0:
274,106,96974,1,0,0:0:0:0:
238,193,97141,2,0,L|244:263,1,70,2|0,0:0|2:0,0:0:0:0:
389,153,97474,2,0,P|404:84|412:15,2,140,2|0|8,0:0|1:0|0:0,0:0:0:0:
105,186,98474,2,0,B|112:255,1,70,4|0,0:0|1:0,0:0:0:0:
46,129,98807,6,0,P|109:105|169:137,1,140,0|0,1:0|0:0,0:0:0:0:
407,186,99474,2,0,B|400:255,1,70,8|0,0:0|0:0,0:0:0:0:
304,279,99807,2,0,P|238:284|224:293,1,70,0|2,0:0|0:0,0:0:0:0:
165,216,100141,2,0,P|194:156|193:139,1,70,0|2,0:0|0:0,0:0:0:0:
159,49,100474,1,8,0:0:0:0:
159,49,100807,1,8,0:0:0:0:
159,49,101141,2,0,B|166:118,1,70,0|0,0:0|1:0,0:0:0:0:
192,342,101474,5,0,1:0:0:0:
406,256,101807,1,2,0:0:0:0:
320,42,102141,1,8,0:0:0:0:
320,42,102474,2,0,B|313:111,1,70,0|0,0:0|3:0,0:0:0:0:
287,283,102807,2,0,P|227:315|163:292,1,140,2|0,0:0|1:0,0:0:0:0:
159,295,103474,1,8,0:0:0:0:
155,299,103807,2,0,B|148:230,1,70,0|0,0:0|1:0,0:0:0:0:
192,42,104141,5,0,1:0:0:0:
66,152,104474,1,2,0:0:0:0:
299,252,104807,1,8,0:0:0:0:
299,252,105141,1,2,0:0:0:0:
238,132,105307,1,2,0:0:0:0:
329,129,105474,1,0,0:0:0:0:
208,254,105641,1,2,0:0:0:0:
117,257,105807,1,8,0:0:0:0:
117,257,106141,1,8,0:0:0:0:
117,257,106474,2,0,B|124:188,1,70,0|0,0:0|1:0,0:0:0:0:
56,118,106807,6,0,P|3:175|13:251,1,159.599998051758,4|2,1:2|0:0,0:0:0:0:
191,119,107307,1,2,0:0:0:0:
282,122,107474,2,0,P|291:198|239:255,1,159.599998051758,8|0,0:0|0:0,0:0:0:0:
371,230,107974,1,0,0:0:0:0:
441,87,108141,2,0,B|433:167,1,79.7999990258789,2|0,0:0|0:0,0:0:0:0:
438,297,108474,2,0,B|446:378,1,79.7999990258789,0|0,1:0|0:0,0:0:0:0:
371,230,108807,2,0,P|361:153|413:96,1,159.599998051758,8|0,0:0|0:0,0:0:0:0:
413,96,109307,1,0,1:0:0:0:
270,212,109474,6,0,P|144:222|109:222,1,159.599998051758,4|0,1:0|0:0,0:0:0:0:
48,159,109974,1,2,0:0:0:0:
164,51,110141,1,8,0:0:0:0:
164,51,110474,2,0,B|172:132,1,79.7999990258789,2|2,0:0|0:0,0:0:0:0:
167,260,110807,2,0,B|158:344,1,79.7999990258789
84,228,111141,2,0,P|140:175|217:185,2,159.599998051758,8|8|0,0:0|0:0|0:0,0:0:0:0:
149,81,111974,1,0,1:0:0:0:
167,260,112141,6,0,B|175:347,1,79.7999990258789,4|0,1:0|0:0,0:0:0:0:
310,224,112474,2,0,B|320:120,1,79.7999990258789,0|2,0:0|0:0,0:0:0:0:
198,54,112807,2,0,P|278:63|358:66,1,159.599998051758,8|2,0:0|0:0,0:0:0:0:
450,63,113307,1,2,0:0:0:0:
313,153,113474,2,0,P|233:144|153:142,1,159.599998051758,0|0,0:0|1:0,0:0:0:0:
62,145,113974,1,0,0:0:0:0:
167,39,114141,1,8,0:0:0:0:
167,39,114474,2,0,B|158:121,1,79.7999990258789,0|0,0:0|1:0,0:0:0:0:
142,287,114807,6,0,P|86:340|9:330,1,159.599998051758,4|0,1:0|0:0,0:0:0:0:
9,330,115307,1,2,0:0:0:0:
24,194,115474,2,0,P|104:203|184:205,1,159.599998051758,8|0,0:0|0:0,0:0:0:0:
269,187,115974,1,2,0:0:0:0:
355,170,116141,1,0,0:0:0:0:
425,222,116307,1,2,0:0:0:0:
345,260,116474,2,0,B|354:344,1,79.7999990258789,8|0,0:0|0:0,0:0:0:0:
340,130,116807,2,0,B|348:51,1,79.7999990258789,8|0,0:0|0:0,0:0:0:0:
255,81,117141,1,2,0:0:0:0:
240,178,117308,1,0,1:0:0:0:
320,236,117474,6,0,P|399:233|479:224,1,159.599998051758,4|2,1:0|0:0,0:0:0:0:
479,224,117974,1,2,0:0:0:0:
362,153,118141,2,0,P|418:100|495:110,1,159.599998051758,8|0,0:0|0:0,0:0:0:0:
494,109,118641,1,2,0:0:0:0:
480,246,118807,2,0,P|400:237|320:235,1,159.599998051758,0|0,0:0|1:0,0:0:0:0:
306,59,119474,1,8,0:0:0:0:
306,59,119807,1,2,0:0:0:0:
290,145,119974,1,0,1:0:0:0:
274,231,120141,6,0,P|218:284|141:274,1,159.599998051758,4|0,1:0|0:0,0:0:0:0:
141,274,120641,1,2,0:0:0:0:
65,123,120807,2,0,P|62:203|54:283,1,159.599998051758,8|0,0:0|0:0,0:0:0:0:
159,245,121307,1,2,0:0:0:0:
167,157,121474,1,0,0:0:0:0:
239,206,121641,1,2,0:0:0:0:
301,146,121808,2,0,B|309:66,1,79.7999990258789,8|0,0:0|0:0,0:0:0:0:
306,273,122141,2,0,B|313:352,1,79.7999990258789,8|0,0:0|0:0,0:0:0:0:
439,294,122474,1,2,0:0:0:0:
385,155,122641,1,0,1:0:0:0:
220,225,122807,6,0,P|167:168|177:92,1,159.599998051758,4|2,1:0|0:0,0:0:0:0:
355,224,123307,1,2,0:0:0:0:
446,221,123474,2,0,P|455:145|403:88,1,159.599998051758,8|0,0:0|0:0,0:0:0:0:
314,77,123974,1,2,0:0:0:0:
287,159,124141,2,0,P|230:212|153:204,1,159.599998051758,0|0,0:0|1:0,0:0:0:0:
29,80,124807,2,0,P|26:159|17:239,1,159.599998051758,8|0,0:0|0:0,0:0:0:0:
17,239,125307,1,0,1:0:0:0:
106,135,125474,6,0,P|158:191|150:268,2,159.599998051758,4|0|8,1:2|0:0|0:0,0:0:0:0:
106,135,126474,1,0,0:0:0:0:
230,149,126641,1,0,0:0:0:0:
280,58,126807,1,2,0:0:0:0:
383,71,126974,1,2,0:0:0:0:
331,161,127141,2,0,P|347:198|394:239,1,79.7999990258789,8|0,0:0|0:0,0:0:0:0:
260,304,127474,2,0,P|298:294|338:298,1,79.7999990258789,8|0,0:0|0:0,0:0:0:0:
492,232,127807,1,4,0:0:0:0:
