osu file format v14

[General]
AudioFilename: raja_ffm_-_the_light.mp3
AudioLeadIn: 0
PreviewTime: 105807
Countdown: 0
SampleSet: Soft
StackLeniency: 0.7
Mode: 0
LetterboxInBreaks: 0
WidescreenStoryboard: 0

[Editor]
Bookmarks: 21474,42807,58807,64141,85474,106807,128141
DistanceSpacing: 1.2
BeatDivisor: 8
GridSize: 4
TimelineZoom: 1.5

[Metadata]
Title:the light
TitleUnicode:the light
Artist:raja
ArtistUnicode:raja
Creator:Damnae
Version:Hard
Source:
Tags:mbc8 snowflake emily richards ralf jacobsen winter remix ayu
BeatmapID:671411
BeatmapSetID:299224

[Difficulty]
HPDrainRate:5
CircleSize:4
OverallDifficulty:6
ApproachRate:7.5
SliderMultiplier:2.4
SliderTickRate:1

[Events]
//Background and Video events
0,0,"Snowflake3_1280x720.jpg",0,0
//Break Periods
//Storyboard Layer 0 (Background)
//Storyboard Layer 1 (Fail)
//Storyboard Layer 2 (Pass)
//Storyboard Layer 3 (Foreground)
//Storyboard Sound Samples

[TimingPoints]
141,666.666666666667,4,2,0,30,1,0
21474,-100,4,2,0,50,0,0
23974,-100,4,2,0,30,0,0
24141,-100,4,2,0,50,0,0
26641,-100,4,2,0,30,0,0
26807,-100,4,2,0,50,0,0
29307,-100,4,2,0,30,0,0
29474,-100,4,2,0,50,0,0
31974,-100,4,2,0,30,0,0
32141,-100,4,2,0,50,0,0
34641,-100,4,2,0,30,0,0
34807,-100,4,2,0,50,0,0
37307,-100,4,2,0,30,0,0
37474,-100,4,2,0,50,0,0
39974,-100,4,2,0,30,0,0
40141,-100,4,2,0,50,0,0
42641,-100,4,2,0,30,0,0
42807,-100,4,2,0,50,0,0
45307,-100,4,2,0,30,0,0
45474,-100,4,2,0,50,0,0
47974,-100,4,2,0,30,0,0
48141,-100,4,2,0,50,0,0
50641,-100,4,2,0,30,0,0
50807,-100,4,2,0,50,0,0
53307,-100,4,2,0,30,0,0
53474,-100,4,2,0,50,0,0
55974,-100,4,2,0,30,0,0
56141,-100,4,2,0,50,0,0
58474,-133.333333333333,4,2,0,15,0,0
59141,-133.333333333333,4,2,0,20,0,0
64141,-100,4,2,0,40,0,0
64307,-100,4,2,0,50,0,0
65641,-100,4,2,0,30,0,0
65807,-100,4,2,0,50,0,0
66641,-100,4,2,0,30,0,0
66807,-100,4,2,0,50,0,0
69307,-100,4,2,0,30,0,0
69474,-100,4,2,0,50,0,0
70974,-100,4,2,0,30,0,0
71141,-100,4,2,0,50,0,0
71974,-100,4,2,0,30,0,0
72141,-100,4,2,0,50,0,0
73641,-100,4,2,0,30,0,0
73807,-100,4,2,0,50,0,0
74641,-100,4,2,0,30,0,0
74807,-100,4,2,0,50,0,0
77307,-100,4,2,0,30,0,0
77474,-100,4,2,0,50,0,0
78974,-100,4,2,0,30,0,0
79141,-100,4,2,0,50,0,0
79974,-100,4,2,0,30,0,0
80141,-100,4,2,0,50,0,0
82641,-100,4,2,0,30,0,0
82807,-100,4,2,0,50,0,0
83974,-100,4,2,0,30,0,0
84141,-100,4,2,0,50,0,0
84307,-100,4,2,0,30,0,0
84474,-100,4,2,0,50,0,0
85307,-100,4,2,0,30,0,0
85474,-100,4,2,0,50,0,0
87974,-100,4,2,0,30,0,0
88141,-100,4,2,0,50,0,0
90641,-100,4,2,0,30,0,0
90807,-100,4,2,0,50,0,0
93307,-100,4,2,0,30,0,0
93474,-100,4,2,0,50,0,0
95974,-100,4,2,0,30,0,0
96141,-100,4,2,0,50,0,0
98641,-100,4,2,0,30,0,0
98807,-100,4,2,0,35,0,0
99141,-100,4,2,0,50,0,0
101307,-100,4,2,0,30,0,0
101474,-100,4,2,0,50,0,0
103974,-100,4,2,0,30,0,0
104141,-100,4,2,0,50,0,0
104474,-100,4,2,0,30,0,0
104807,-100,4,2,0,50,0,0
105307,-100,4,2,0,30,0,0
105474,-100,4,2,0,50,0,0
106807,-87.719298245614,4,2,0,65,0,1
109307,-87.719298245614,4,2,0,50,0,1
109474,-87.719298245614,4,2,0,65,0,1
111974,-87.719298245614,4,2,0,50,0,1
112141,-87.719298245614,4,2,0,65,0,1
114641,-87.719298245614,4,2,0,50,0,1
114807,-87.719298245614,4,2,0,65,0,1
117307,-87.719298245614,4,2,0,50,0,1
117474,-87.719298245614,4,2,0,65,0,1
119974,-87.719298245614,4,2,0,50,0,1
120141,-87.719298245614,4,2,0,65,0,1
122641,-87.719298245614,4,2,0,50,0,1
122807,-87.719298245614,4,2,0,65,0,1
125307,-87.719298245614,4,2,0,50,0,1
125474,-87.719298245614,4,2,0,65,0,1
127807,-87.719298245614,4,2,0,40,0,0

[Colours]
Combo1 : 187,210,166
Combo2 : 152,190,199
Combo3 : 180,164,193

[HitObjects]
396,120,21474,6,0,L|392:180,1,60,0|0,1:0|0:0,0:0:0:0:
316,196,21807,2,0,L|312:136,1,60
244,96,22141,2,0,P|188:120|132:104,1,120,8|0,0:0|0:0,0:0:0:0:
84,44,22641,1,0,3:0:0:0:
28,100,22807,2,0,P|40:124|48:156,1,60,0|0,0:0|3:0,0:0:0:0:
116,200,23141,2,0,P|114:226|105:258,1,60,0|0,1:0|0:0,0:0:0:0:
52,316,23474,2,0,P|112:296|168:312,1,120,8|0,0:0|0:0,0:0:0:0:
224,364,23974,1,0,1:0:0:0:
324,260,24141,6,0,P|356:264|384:276,1,60,0|0,1:0|0:0,0:0:0:0:
412,200,24474,2,0,P|437:219|455:243,1,60
508,184,24807,2,0,L|496:64,1,120,8|0,0:0|0:0,0:0:0:0:
428,28,25307,1,0,3:0:0:0:
364,72,25474,2,0,P|360:104|368:132,1,60,0|0,0:0|3:0,0:0:0:0:
436,164,25807,2,0,P|443:135|439:105,1,60,0|0,1:0|0:0,0:0:0:0:
364,72,26141,2,0,P|304:60|252:84,1,120,8|0,0:0|0:0,0:0:0:0:
208,148,26641,1,0,1:0:0:0:
328,264,26807,6,0,L|392:260,1,60,0|0,1:0|0:0,0:0:0:0:
364,184,27141,2,0,L|300:180,1,60
228,176,27474,2,0,P|212:236|224:292,1,120,8|0,0:0|0:0,0:0:0:0:
164,344,27974,1,0,3:0:0:0:
108,288,28141,2,0,L|112:228,1,60,0|0,0:0|3:0,0:0:0:0:
36,208,28474,2,0,L|32:268,1,60,0|0,1:0|0:0,0:0:0:0:
108,288,28807,2,0,P|168:276|220:300,1,120,8|0,0:0|0:0,0:0:0:0:
272,360,29307,1,0,1:0:0:0:
356,256,29474,6,0,P|368:224|368:192,1,60,0|0,1:0|0:0,0:0:0:0:
292,208,29807,2,0,P|286:174|270:146,1,60
212,200,30141,2,0,P|152:192|100:220,1,120,8|0,0:0|0:0,0:0:0:0:
60,284,30641,1,0,3:0:0:0:
16,220,30807,2,0,L|12:156,1,60,0|0,0:0|3:0,0:0:0:0:
104,64,31141,6,0,L|100:123,1,60,8|0,0:0|0:0,0:0:0:0:
176,148,31474,2,0,L|179:88,1,60,8|0,0:0|0:0,0:0:0:0:
248,48,31807,1,0,3:0:0:0:
248,48,31974,1,0,1:0:0:0:
312,176,32141,6,0,L|304:295,2,120,0|0|8,1:0|0:0|0:0,0:0:0:0:
376,132,32974,1,0,0:0:0:0:
308,96,33141,2,0,P|268:104|244:100,1,60,0|0,0:0|3:0,0:0:0:0:
176,68,33474,2,0,P|146:65|117:73,1,60,0|0,0:0|3:0,0:0:0:0:
84,144,33807,2,0,P|57:157|35:178,1,60,0|0,1:0|0:0,0:0:0:0:
88,236,34141,2,0,P|116:284|100:352,1,120,8|0,0:0|0:0,0:0:0:0:
40,300,34641,1,0,1:0:0:0:
184,192,34807,6,0,B|244:172|244:212|304:192,2,120,0|0|8,1:0|0:0|0:0,0:0:0:0:
112,160,35641,1,0,0:0:0:0:
176,116,35807,2,0,L|240:112,1,60,0|0,0:0|3:0,0:0:0:0:
208,40,36141,2,0,L|144:36,1,60,0|0,0:0|3:0,0:0:0:0:
92,104,36474,1,0,1:0:0:0:
92,104,36641,1,0,0:0:0:0:
176,116,36807,2,0,L|304:108,1,120,8|0,0:0|0:0,0:0:0:0:
372,100,37307,1,0,1:0:0:0:
248,208,37474,6,0,P|220:232|200:264,1,60,0|0,1:0|0:0,0:0:0:0:
136,284,37807,2,0,P|117:260|94:241,1,60
64,168,38141,2,0,L|192:160,1,120,8|0,0:0|0:0,0:0:0:0:
240,108,38641,1,0,3:0:0:0:
312,136,38807,2,0,P|304:168|308:196,1,60,0|0,0:0|3:0,0:0:0:0:
376,236,39141,2,0,P|344:264|260:260,2,120,0|8|0,1:0|0:0|0:0,0:0:0:0:
307,194,39974,1,0,1:0:0:0:
168,152,40141,6,0,L|104:160,1,60,0|0,1:0|0:0,0:0:0:0:
100,236,40474,2,0,L|159:228,1,60
232,257,40807,2,0,P|250:316|226:365,1,120,8|0,0:0|0:0,0:0:0:0:
173,308,41307,1,0,3:0:0:0:
232,257,41474,2,0,L|291:249,1,60,0|0,0:0|3:0,0:0:0:0:
360,152,41807,6,0,P|332:140|300:136,1,60,8|0,0:0|0:0,0:0:0:0:
232,100,42141,2,0,P|201:103|172:116,1,60,8|0,0:0|0:0,0:0:0:0:
112,164,42474,1,0,0:0:0:0:
112,164,42641,1,0,1:0:0:0:
232,228,42807,6,0,L|350:212,1,120,0|0,1:0|0:0,0:0:0:0:
423,175,43307,1,0,0:0:0:0:
423,175,43474,2,0,P|431:139|427:115,1,60,8|0,0:0|0:0,0:0:0:0:
359,75,43807,2,0,P|323:86|305:101,1,60,0|0,0:0|3:0,0:0:0:0:
303,179,44141,2,0,P|330:203|352:212,1,60,0|0,0:0|3:0,0:0:0:0:
416,264,44474,1,0,1:0:0:0:
416,264,44641,1,0,0:0:0:0:
344,296,44807,2,0,P|284:288|232:312,1,120,8|0,0:0|0:0,0:0:0:0:
184,376,45307,1,0,1:0:0:0:
84,284,45474,6,0,L|88:224,1,60,0|0,1:0|0:0,0:0:0:0:
152,176,45807,2,0,L|156:116,1,60
104,56,46141,2,0,P|159:36|218:67,1,120,8|0,0:0|0:0,0:0:0:0:
155,116,46641,1,0,3:0:0:0:
80,132,46807,2,0,P|48:112|32:88,1,60,0|0,0:0|3:0,0:0:0:0:
220,68,47141,6,0,P|238:44|264:30,1,60,8|0,0:0|0:0,0:0:0:0:
328,76,47474,2,0,P|351:94|365:120,1,60,8|0,0:0|0:0,0:0:0:0:
328,188,47807,1,0,0:0:0:0:
328,188,47974,1,0,1:0:0:0:
448,312,48141,6,0,L|456:192,1,120,0|0,1:0|0:0,0:0:0:0:
396,144,48641,1,0,0:0:0:0:
328,188,48807,2,0,P|356:212|384:224,1,60,8|0,0:0|0:0,0:0:0:0:
372,300,49141,2,0,P|345:313|323:333,1,60,0|0,0:0|3:0,0:0:0:0:
272,276,49474,2,0,P|255:301|246:329,1,60,0|0,0:0|3:0,0:0:0:0:
172,352,49807,2,0,L|164:232,2,120,0|8|0,1:0|0:0|0:0,0:0:0:0:
172,352,50641,1,0,1:0:0:0:
84,232,50807,6,0,P|92:196|108:176,1,60,0|0,1:0|0:0,0:0:0:0:
164,232,51141,2,0,P|188:204|212:195,1,60
232,272,51474,2,0,B|292:292|292:252|352:272,1,120,8|0,0:0|0:0,0:0:0:0:
416,312,51974,1,0,3:0:0:0:
472,256,52141,2,0,L|464:192,1,60,0|0,0:0|3:0,0:0:0:0:
364,144,52474,6,0,L|371:203,1,60,8|0,0:0|0:0,0:0:0:0:
464,176,52807,2,0,L|471:116,1,60,8|0,0:0|0:0,0:0:0:0:
412,64,53141,1,0,0:0:0:0:
412,64,53307,1,0,1:0:0:0:
276,152,53474,6,0,P|256:212|272:264,2,120,0|0|8,1:0|0:0|0:0,0:0:0:0:
324,92,54307,1,0,0:0:0:0:
248,80,54474,2,0,L|184:84,1,60
168,160,54807,2,0,L|227:156,1,60,0|0,0:0|3:0,0:0:0:0:
304,176,55141,2,0,P|316:236|292:288,2,120,0|8|0,1:0|0:0|0:0,0:0:0:0:
324,92,55974,1,0,1:0:0:0:
432,168,56141,6,0,P|420:196|416:228,1,60,0|0,1:0|0:0,0:0:0:0:
344,260,56474,2,0,P|347:290|360:319,1,60
424,360,56807,2,0,P|364:352|312:376,1,120,8|0,0:0|0:0,0:0:0:0:
244,340,57307,1,0,3:0:0:0:
244,340,57474,2,0,L|240:280,1,60,0|0,0:0|3:0,0:0:0:0:
132,220,57807,6,0,L|128:280,1,60,8|0,0:0|0:0,0:0:0:0:
52,292,58141,2,0,L|56:232,1,60,8|0,0:0|0:0,0:0:0:0:
96,108,58474,5,0,0:0:0:0:
96,108,58807,2,0,P|144:112|184:100,1,90.0000034332277
276,44,59474,2,0,L|268:140,1,90.0000034332277
344,208,60141,2,0,P|388:204|432:220,1,90.0000034332277
372,312,60807,2,0,P|327:315|285:300,1,90.0000034332277
344,208,61474,1,0,0:0:0:0:
276,280,63141,6,0,P|232:284|184:268,1,90.0000034332277
240,196,63807,1,0,0:0:0:0:
424,148,64141,6,0,P|436:180|436:208,2,60,0|0|0,1:0|0:0|0:0,0:0:0:0:
420,144,64807,1,8,0:0:0:0:
348,112,64974,1,0,0:0:0:0:
292,168,65141,2,0,L|232:164,1,60,0|0,0:0|3:0,0:0:0:0:
216,88,65474,2,0,L|276:92,1,60,0|0,0:0|3:0,0:0:0:0:
348,112,65807,1,0,1:0:0:0:
352,116,66141,1,8,0:0:0:0:
356,120,66474,1,0,0:0:0:0:
432,96,66641,1,0,1:0:0:0:
376,216,66807,6,0,L|296:212,1,60,0|0,1:0|0:0,0:0:0:0:
244,240,67141,1,0,0:0:0:0:
240,236,67474,1,8,0:0:0:0:
164,212,67641,1,0,0:0:0:0:
104,260,67807,2,0,P|92:288|88:320,1,60,0|0,0:0|3:0,0:0:0:0:
16,280,68141,2,0,P|11:250|0:222,1,60,0|0,0:0|3:0,0:0:0:0:
80,100,68474,6,0,L|140:96,1,60,8|0,0:0|0:0,0:0:0:0:
212,124,68807,2,0,L|272:128,1,60,8|0,0:0|0:0,0:0:0:0:
340,88,69141,1,0,0:0:0:0:
340,88,69307,1,0,1:0:0:0:
412,184,69474,6,0,P|400:212|424:296,2,120,0|0|8,1:0|0:0|0:0,0:0:0:0:
416,180,70474,1,0,0:0:0:0:
348,140,70641,1,0,3:0:0:0:
280,180,70807,2,0,P|284:212|276:240,1,60,0|0,0:0|3:0,0:0:0:0:
216,288,71141,1,0,1:0:0:0:
212,296,71474,1,8,0:0:0:0:
208,304,71807,1,0,0:0:0:0:
136,272,71974,1,0,1:0:0:0:
192,144,72141,6,0,L|252:136,1,60,0|0,1:0|0:0,0:0:0:0:
216,64,72474,2,0,L|156:72,1,60
80,84,72807,1,8,0:0:0:0:
76,92,73141,2,0,P|72:124|80:152,1,60,0|0,0:0|3:0,0:0:0:0:
152,116,73474,1,0,0:0:0:0:
148,36,73641,1,0,3:0:0:0:
252,72,73807,6,0,L|256:136,1,60,8|0,0:0|0:0,0:0:0:0:
332,156,74141,2,0,L|335:96,1,60,8|0,0:0|0:0,0:0:0:0:
400,52,74474,1,0,0:0:0:0:
400,52,74641,1,0,1:0:0:0:
488,152,74807,6,0,P|500:212|480:268,2,120,0|0|8,1:0|0:0|0:0,0:0:0:0:
440,88,75641,1,0,0:0:0:0:
376,136,75807,2,0,P|344:144|316:140,1,60,0|0,0:0|3:0,0:0:0:0:
304,216,76141,2,0,P|272:206|250:189,1,60,0|0,0:0|3:0,0:0:0:0:
184,232,76474,2,0,L|176:352,2,120,0|8|0,1:0|0:0|0:0,0:0:0:0:
180,152,77307,1,0,1:0:0:0:
72,44,77474,6,0,P|48:68|48:156,2,120,0|0|8,1:0|0:0|0:0,0:0:0:0:
112,112,78307,1,0,0:0:0:0:
180,72,78474,2,0,L|244:68,1,60,0|0,0:0|3:0,0:0:0:0:
300,116,78807,2,0,L|364:112,1,60,0|0,0:0|3:0,0:0:0:0:
424,64,79141,1,0,1:0:0:0:
432,60,79474,1,8,0:0:0:0:
440,56,79807,1,0,0:0:0:0:
504,104,79974,1,0,1:0:0:0:
416,224,80141,6,0,P|359:245|306:225,2,120,0|0|8,1:0|0:0|0:0,0:0:0:0:
360,168,80974,1,0,0:0:0:0:
304,112,81141,2,0,P|292:84|292:52,1,60,0|0,0:0|3:0,0:0:0:0:
216,72,81474,2,0,P|215:101|203:129,1,60,0|0,0:0|3:0,0:0:0:0:
136,172,81807,2,0,L|16:164,2,120,0|8|0,1:0|0:0|0:0,0:0:0:0:
204,208,82641,1,0,1:0:0:0:
296,112,82807,5,0,1:0:0:0:
288,108,83141,1,0,0:0:0:0:
280,104,83474,1,8,0:0:0:0:
268,100,83807,2,0,L|272:160,1,60,0|0,0:0|3:0,0:0:0:0:
184,200,84141,2,0,L|188:140,1,60,0|0,0:0|3:0,0:0:0:0:
12,60,84474,6,0,L|8:120,1,60,8|0,0:0|0:0,0:0:0:0:
96,164,84807,2,0,L|92:104,1,60,8|0,0:0|0:0,0:0:0:0:
148,48,85141,1,0,0:0:0:0:
148,48,85307,1,0,1:0:0:0:
248,140,85474,6,0,P|264:200|240:252,1,120,0|0,1:0|0:0,0:0:0:0:
380,324,86141,1,8,0:0:0:0:
492,212,86474,2,0,L|488:152,1,60,0|0,0:0|3:0,0:0:0:0:
412,140,86807,2,0,L|408:200,1,60,0|0,0:0|3:0,0:0:0:0:
332,212,87141,2,0,P|272:200|216:220,2,120,0|8|0,1:0|0:0|0:0,0:0:0:0:
380,272,87974,1,0,1:0:0:0:
472,156,88141,6,0,L|464:36,1,120,0|0,1:0|0:0,0:0:0:0:
316,88,88807,1,8,0:0:0:0:
172,32,89141,2,0,P|140:36|116:48,1,60,0|0,0:0|3:0,0:0:0:0:
164,112,89474,2,0,P|138:131|123:153,1,60,0|0,0:0|3:0,0:0:0:0:
44,160,89807,2,0,L|32:280,2,120,0|8|0,1:0|0:0|0:0,0:0:0:0:
52,80,90641,1,0,1:0:0:0:
148,168,90807,6,0,P|208:176|260:152,1,120,0|0,1:0|0:0,0:0:0:0:
168,24,91474,1,8,0:0:0:0:
72,148,91807,2,0,P|72:192|80:212,1,60,0|0,0:0|3:0,0:0:0:0:
148,168,92141,2,0,P|155:139|153:109,1,60,0|0,0:0|3:0,0:0:0:0:
88,68,92474,2,0,L|220:56,2,120,0|8|0,1:0|0:0|0:0,0:0:0:0:
16,96,93307,1,0,1:0:0:0:
88,196,93474,6,0,P|148:184|196:212,1,120,0|0,1:0|0:0,0:0:0:0:
276,348,94141,1,8,0:0:0:0:
380,232,94474,2,0,L|320:224,1,60,0|0,0:0|3:0,0:0:0:0:
288,152,94807,2,0,L|348:144,1,60,0|0,0:0|3:0,0:0:0:0:
456,204,95141,6,0,P|460:244|452:268,1,60,8|0,0:0|0:0,0:0:0:0:
380,232,95474,2,0,P|363:268|344:285,1,60,8|0,0:0|0:0,0:0:0:0:
272,272,95807,1,0,0:0:0:0:
272,272,95974,1,0,1:0:0:0:
284,136,96141,6,0,P|344:124|392:152,1,120,0|0,1:0|0:0,0:0:0:0:
456,296,96807,1,8,0:0:0:0:
512,160,97141,2,0,L|504:100,1,60,0|0,0:0|3:0,0:0:0:0:
428,88,97474,2,0,L|420:148,1,60,0|0,0:0|3:0,0:0:0:0:
352,184,97807,2,0,P|397:221|455:216,2,120,0|8|0,1:0|0:0|0:0,0:0:0:0:
420,147,98641,1,0,1:0:0:0:
296,64,98807,6,0,L|176:72,1,120,0|0,1:0|0:0,0:0:0:0:
40,148,99474,1,8,0:0:0:0:
164,244,99807,2,0,P|196:248|224:240,1,60,0|0,0:0|3:0,0:0:0:0:
256,172,100141,2,0,P|227:164|197:168,1,60,0|0,0:0|3:0,0:0:0:0:
300,312,100474,6,0,L|364:308,1,60,8|0,0:0|0:0,0:0:0:0:
368,232,100807,2,0,L|308:235,1,60,8|0,0:0|0:0,0:0:0:0:
256,172,101141,1,0,0:0:0:0:
256,172,101307,1,0,1:0:0:0:
424,172,101474,6,0,P|448:228|424:292,1,120,0|0,1:0|0:0,0:0:0:0:
292,356,102141,1,8,0:0:0:0:
172,260,102474,2,0,L|168:200,1,60,0|0,0:0|3:0,0:0:0:0:
92,224,102807,2,0,L|96:284,1,60,0|0,0:0|3:0,0:0:0:0:
24,320,103141,2,0,L|16:200,2,120,0|8|0,1:0|0:0|0:0,0:0:0:0:
24,320,103974,1,0,1:0:0:0:
180,240,104141,6,0,P|240:228|288:256,1,120,0|0,1:0|0:0,0:0:0:0:
392,372,104807,1,8,0:0:0:0:
460,232,105141,2,0,P|424:224|400:208,1,60,0|0,0:0|3:0,0:0:0:0:
456,152,105474,2,0,P|428:127|416:101,1,60,0|0,0:0|3:0,0:0:0:0:
284,44,105807,6,0,P|283:73|273:101,1,60,8|0,0:0|0:0,0:0:0:0:
204,60,106141,2,0,P|188:85|166:105,1,60,8|0,0:0|0:0,0:0:0:0:
88,116,106474,1,0,0:0:0:0:
88,116,106641,1,0,1:0:0:0:
184,208,106807,6,0,L|320:200,2,136.799998330078,4|0|8,1:2|0:0|0:0,0:0:0:0:
116,252,107641,1,0,0:0:0:0:
44,212,107807,2,0,P|36:176|44:140,1,68.3999991650391,0|0,0:0|3:0,0:0:0:0:
116,108,108141,2,0,P|121:141|113:174,1,68.3999991650391,0|0,0:0|3:0,0:0:0:0:
116,252,108474,2,0,P|180:240|244:272,2,136.799998330078,0|8|0,1:0|0:0|0:0,0:0:0:0:
48,300,109307,1,0,1:0:0:0:
208,344,109474,6,0,B|276:372|276:316|344:344,2,136.799998330078,4|0|8,1:0|0:0|0:0,0:0:0:0:
160,276,110307,1,0,0:0:0:0:
228,232,110474,2,0,L|300:228,1,68.3999991650391,0|0,0:0|3:0,0:0:0:0:
260,152,110807,2,0,L|188:148,1,68.3999991650391,0|0,0:0|3:0,0:0:0:0:
76,180,111141,6,0,P|68:216|76:248,1,68.3999991650391,8|0,0:0|0:0,0:0:0:0:
152,212,111474,2,0,P|163:247|185:270,1,68.3999991650391,8|0,0:0|0:0,0:0:0:0:
260,300,111807,1,0,0:0:0:0:
260,300,111974,1,0,1:0:0:0:
368,216,112141,6,0,P|384:144|340:88,2,136.799998330078,4|0|8,1:0|0:0|0:0,0:0:0:0:
304,164,112974,1,0,0:0:0:0:
244,220,113141,2,0,L|248:288,1,68.3999991650391,0|0,0:0|3:0,0:0:0:0:
328,312,113474,2,0,L|332:244,1,68.3999991650391,0|0,0:0|3:0,0:0:0:0:
408,212,113807,2,0,L|416:348,2,136.799998330078,0|8|0,1:0|0:0|0:0,0:0:0:0:
400,128,114641,1,0,1:0:0:0:
288,44,114807,6,0,P|252:40|220:52,1,68.3999991650391,4|0,1:0|0:0,0:0:0:0:
180,120,115141,2,0,P|212:130|245:126,1,68.3999991650391
272,204,115474,2,0,P|204:212|140:190,1,136.799998330078,8|0,0:0|0:0,0:0:0:0:
84,132,115974,1,0,3:0:0:0:
52,208,116141,2,0,L|56:276,1,68.3999991650391,0|0,0:0|3:0,0:0:0:0:
160,324,116474,6,0,L|164:256,1,68.3999991650391,8|0,0:0|0:0,0:0:0:0:
244,240,116807,2,0,L|240:308,1,68.3999991650391,8|0,0:0|0:0,0:0:0:0:
320,352,117141,1,0,0:0:0:0:
320,352,117307,1,0,1:0:0:0:
308,192,117474,6,0,P|252:160|180:192,2,136.799998330078,4|0|8,1:0|0:0|0:0,0:0:0:0:
244,240,118307,1,0,0:0:0:0:
195,307,118474,2,0,P|226:323|260:323,1,68.3999991650391,0|0,0:0|3:0,0:0:0:0:
324,272,118807,2,0,P|339:302|339:336,1,68.3999991650391,0|0,0:0|3:0,0:0:0:0:
420,356,119141,2,0,L|428:220,2,136.799998330078,0|8|0,1:0|0:0|0:0,0:0:0:0:
420,356,119974,1,0,1:0:0:0:
324,272,120141,6,0,P|296:224|320:148,2,136.799998330078,4|0|8,1:0|0:0|0:0,0:0:0:0:
376,208,120974,1,0,0:0:0:0:
428,144,121141,2,0,L|424:76,1,68.3999991650391,0|0,0:0|3:0,0:0:0:0:
344,52,121474,2,0,L|340:120,1,68.3999991650391,0|0,0:0|3:0,0:0:0:0:
248,204,121807,6,0,P|212:216|180:216,1,68.3999991650391,8|0,0:0|0:0,0:0:0:0:
200,136,122141,2,0,P|162:128|135:112,1,68.3999991650391,8|0,0:0|0:0,0:0:0:0:
200,52,122474,1,0,0:0:0:0:
200,52,122641,1,0,1:0:0:0:
304,144,122807,6,0,L|296:280,1,136.799998330078,4|0,1:0|0:0,0:0:0:0:
148,348,123474,1,8,0:0:0:0:
24,240,123807,2,0,P|16:204|24:172,1,68.3999991650391,0|0,0:0|3:0,0:0:0:0:
100,208,124141,2,0,P|107:241|99:274,1,68.3999991650391,0|0,0:0|3:0,0:0:0:0:
36,324,124474,2,0,L|172:308,2,136.799998330078,0|8|0,1:0|0:0|0:0,0:0:0:0:
36,324,125307,1,0,1:0:0:0:
100,208,125474,6,0,L|236:224,1,136.799998330078,4|0,1:0|0:0,0:0:0:0:
372,136,126141,1,8,0:0:0:0:
240,40,126474,2,0,P|244:76|260:108,1,68.3999991650391,0|0,0:0|3:0,0:0:0:0:
184,140,126807,2,0,P|180:176|164:208,1,68.3999991650391,0|0,0:0|3:0,0:0:0:0:
56,288,127141,6,0,L|124:284,1,68.3999991650391,8|0,0:0|0:0,0:0:0:0:
88,208,127474,2,0,L|20:204,1,68.3999991650391,8|0,0:0|0:0,0:0:0:0:
60,128,127807,1,0,0:0:0:0:
176,212,128141,5,2,0:0:0:0:
