osu file format v14

[General]
AudioFilename: rERO zONE.mp3
AudioLeadIn: 0
PreviewTime: -1
Countdown: 1
SampleSet: None
StackLeniency: 0.7
Mode: 0
LetterboxInBreaks: 1
WidescreenStoryboard: 0

[Editor]
Bookmarks: 5806
DistanceSpacing: 1.1
BeatDivisor: 4
GridSize: 4
TimelineZoom: 1

[Metadata]
Title:RERO ZONE
TitleUnicode:RERO ZONE
Artist:
ArtistUnicode:
Creator:ToifAmri
Version:RERO
Source:
Tags:RED ZONE
BeatmapID:669112
BeatmapSetID:298144

[Difficulty]
HPDrainRate:4
CircleSize:5
OverallDifficulty:7
ApproachRate:5
SliderMultiplier:1.5
SliderTickRate:3

[Events]
//Background and Video events
Video,0,"RERO ZONE.flv"
0,0,"1.png",0,0
//Break Periods
//Storyboard Layer 0 (Background)
//Storyboard Layer 1 (Fail)
//Storyboard Layer 2 (Pass)
//Storyboard Layer 3 (Foreground)
//Storyboard Sound Samples

[TimingPoints]
55071,363.636363636364,4,3,0,100,1,0
55071,-100,4,3,0,100,0,0

[HitObjects]
256,192,1525,12,8,2252,0:0:0:0:
256,192,2980,12,8,3707,0:0:0:0:
256,192,4252,12,0,4980,0:0:0:0:
64,76,5798,5,4,0:0:0:0:
152,76,6343,1,4,0:0:0:0:
364,184,6889,1,0,0:0:0:0:
300,184,7070,1,0,0:0:0:0:
96,140,7343,1,4,0:0:0:0:
152,108,7525,1,4,0:0:0:0:
216,108,7707,2,0,B|312:108|248:88|308:132|280:152|224:184,1,150
168,224,8343,1,0,0:0:0:0:
160,232,8434,1,0,0:0:0:0:
156,236,8525,1,0,0:0:0:0:
60,320,8798,1,4,0:0:0:0:
120,320,8980,1,4,0:0:0:0:
440,320,9161,1,0,0:0:0:0:
376,324,9343,1,0,0:0:0:0:
64,196,9525,1,4,0:0:0:0:
64,132,9707,1,4,0:0:0:0:
376,128,9889,1,0,0:0:0:0:
196,272,10252,1,4,0:0:0:0:
260,272,10616,1,4,0:0:0:0:
324,272,10980,1,4,0:0:0:0:
388,272,11343,1,4,0:0:0:0:
416,120,11707,1,4,0:0:0:0:
412,120,11798,1,4,0:0:0:0:
408,120,11889,1,4,0:0:0:0:
408,120,11980,1,4,0:0:0:0:
404,120,12070,1,4,0:0:0:0:
404,120,12161,1,4,0:0:0:0:
400,120,12252,1,4,0:0:0:0:
400,120,12343,1,4,0:0:0:0:
256,192,12434,12,4,12797,0:0:0:0:
84,72,13161,6,0,B|192:72|212:120|296:32,1,225
360,76,14070,1,0,0:0:0:0:
424,80,14434,1,0,0:0:0:0:
428,280,14798,1,4,0:0:0:0:
424,280,14889,1,4,0:0:0:0:
424,280,14980,1,4,0:0:0:0:
320,280,15161,1,4,0:0:0:0:
228,280,15343,1,4,0:0:0:0:
56,284,15707,1,4,0:0:0:0:
56,284,15798,1,4,0:0:0:0:
60,284,15889,1,4,0:0:0:0:
168,88,16070,1,4,0:0:0:0:
232,88,16434,1,4,0:0:0:0:
296,92,16798,1,4,0:0:0:0:
360,92,17161,1,4,0:0:0:0:
364,240,17343,1,4,0:0:0:0:
296,240,17525,1,4,0:0:0:0:
232,240,17707,1,4,0:0:0:0:
88,192,17889,1,4,0:0:0:0:
52,96,18070,1,0,0:0:0:0:
100,36,18252,1,0,0:0:0:0:
276,32,18434,1,0,0:0:0:0:
168,88,18616,1,4,0:0:0:0:
168,88,18707,1,4,0:0:0:0:
168,88,18798,1,4,0:0:0:0:
168,88,18889,1,4,0:0:0:0:
168,88,18980,1,4,0:0:0:0:
436,164,19343,1,4,0:0:0:0:
436,228,19707,1,4,0:0:0:0:
436,292,20070,1,4,0:0:0:0:
396,340,20434,1,4,0:0:0:0:
336,344,20798,1,4,0:0:0:0:
272,348,21161,1,0,0:0:0:0:
104,184,21525,1,0,0:0:0:0:
104,184,21616,1,0,0:0:0:0:
104,184,21707,1,0,0:0:0:0:
104,184,21798,1,0,0:0:0:0:
336,100,21889,1,4,0:0:0:0:
400,100,22070,1,4,0:0:0:0:
464,104,22252,1,4,0:0:0:0:
464,168,22434,1,4,0:0:0:0:
464,232,22616,1,0,0:0:0:0:
400,232,22798,1,0,0:0:0:0:
336,232,22980,1,4,0:0:0:0:
276,232,23161,1,4,0:0:0:0:
216,232,23343,1,4,0:0:0:0:
156,232,23525,1,4,0:0:0:0:
144,176,23707,1,0,0:0:0:0:
144,176,23798,1,0,0:0:0:0:
144,176,23889,1,0,0:0:0:0:
144,176,23980,1,0,0:0:0:0:
236,60,24070,1,4,0:0:0:0:
304,64,24252,1,4,0:0:0:0:
376,68,24434,1,4,0:0:0:0:
440,80,24616,1,4,0:0:0:0:
460,140,24798,1,4,0:0:0:0:
460,140,24889,1,4,0:0:0:0:
460,140,24980,1,4,0:0:0:0:
460,140,25070,1,4,0:0:0:0:
460,140,25161,1,4,0:0:0:0:
456,256,25343,1,4,0:0:0:0:
392,256,25525,1,4,0:0:0:0:
276,156,25889,1,4,0:0:0:0:
276,156,26252,1,4,0:0:0:0:
176,152,26616,1,4,0:0:0:0:
80,156,26980,1,4,0:0:0:0:
80,244,27343,1,4,0:0:0:0:
120,288,27525,1,4,0:0:0:0:
184,292,27707,2,0,B|280:296|232:244|296:252|292:308|336:284|300:232|244:208|276:200|332:232|332:272|372:284|388:260|380:228|364:184|440:16,1,450
384,36,29161,2,0,B|260:92|204:76|156:128|168:172|240:180|260:192|224:224|172:224|144:208|156:112|184:52|244:32|160:56,1,450
76,156,30616,1,4,0:0:0:0:
76,156,30798,1,4,0:0:0:0:
76,156,30980,1,4,0:0:0:0:
76,156,31161,1,4,0:0:0:0:
76,156,31343,1,4,0:0:0:0:
76,156,31525,1,4,0:0:0:0:
76,156,31707,1,4,0:0:0:0:
76,156,31889,1,8,0:0:0:0:
448,152,32070,1,4,0:0:0:0:
424,152,32252,1,4,0:0:0:0:
404,152,32434,1,4,0:0:0:0:
384,152,32616,1,4,0:0:0:0:
360,152,32798,1,4,0:0:0:0:
328,152,32980,1,4,0:0:0:0:
296,152,33161,1,4,0:0:0:0:
276,152,33343,1,0,0:0:0:0:
80,324,33525,1,0,0:0:0:0:
116,268,33707,1,0,0:0:0:0:
144,324,33889,1,0,0:0:0:0:
180,272,34070,1,0,0:0:0:0:
208,324,34252,1,0,0:0:0:0:
244,272,34434,1,0,0:0:0:0:
272,328,34616,1,0,0:0:0:0:
308,280,34798,1,0,0:0:0:0:
452,140,34980,1,4,0:0:0:0:
452,140,35070,1,4,0:0:0:0:
452,140,35161,1,4,0:0:0:0:
452,140,35252,1,4,0:0:0:0:
60,148,35525,1,4,0:0:0:0:
60,148,35616,1,4,0:0:0:0:
60,148,35707,1,0,0:0:0:0:
60,148,35798,1,0,0:0:0:0:
60,148,35889,1,0,0:0:0:0:
184,156,36070,1,4,0:0:0:0:
284,156,36252,1,0,0:0:0:0:
284,156,36343,1,0,0:0:0:0:
284,156,36434,1,0,0:0:0:0:
380,156,36616,1,4,0:0:0:0:
416,208,36798,1,4,0:0:0:0:
428,264,36980,1,4,0:0:0:0:
384,316,37161,1,8,0:0:0:0:
316,320,37343,1,8,0:0:0:0:
252,320,37525,1,8,0:0:0:0:
184,316,37707,1,8,0:0:0:0:
128,276,37889,1,4,0:0:0:0:
124,268,37980,1,4,0:0:0:0:
124,268,38070,1,4,0:0:0:0:
124,272,38161,1,4,0:0:0:0:
124,272,38252,1,4,0:0:0:0:
124,272,38343,1,4,0:0:0:0:
124,272,38434,1,4,0:0:0:0:
124,272,38525,1,4,0:0:0:0:
124,272,38616,1,4,0:0:0:0:
124,272,38707,1,4,0:0:0:0:
124,272,38798,1,4,0:0:0:0:
124,272,38889,1,4,0:0:0:0:
124,272,38980,1,4,0:0:0:0:
172,156,39161,1,4,0:0:0:0:
172,156,39252,1,4,0:0:0:0:
172,156,39343,1,4,0:0:0:0:
352,128,39525,1,4,0:0:0:0:
264,152,39707,1,4,0:0:0:0:
384,176,39889,1,4,0:0:0:0:
384,216,40070,1,4,0:0:0:0:
372,248,40252,1,4,0:0:0:0:
344,272,40434,1,4,0:0:0:0:
316,280,40616,1,4,0:0:0:0:
296,280,40798,1,0,0:0:0:0:
228,284,40980,1,0,0:0:0:0:
160,268,41161,1,0,0:0:0:0:
120,236,41343,1,0,0:0:0:0:
100,184,41525,1,0,0:0:0:0:
136,132,41707,1,0,0:0:0:0:
232,128,41889,1,4,0:0:0:0:
232,128,41980,1,4,0:0:0:0:
232,128,42070,1,4,0:0:0:0:
232,128,42161,1,4,0:0:0:0:
232,128,42252,1,4,0:0:0:0:
368,136,42616,1,4,0:0:0:0:
420,196,42980,1,4,0:0:0:0:
412,224,43343,1,4,0:0:0:0:
256,192,43525,12,0,44070,0:0:0:0:
256,192,44252,12,0,44798,0:0:0:0:
164,124,45161,5,4,0:0:0:0:
248,92,45525,1,4,0:0:0:0:
324,124,45889,1,4,0:0:0:0:
384,168,46252,1,4,0:0:0:0:
48,64,46616,2,4,B|448:64|376:64|392:216,1,450
72,148,48070,1,4,0:0:0:0:
72,148,48434,1,4,0:0:0:0:
264,144,48798,1,4,0:0:0:0:
264,144,49161,1,4,0:0:0:0:
44,336,49525,2,4,B|280:192|352:304|336:208|240:152|232:144|160:100|256:96,1,450
148,164,51161,1,4,0:0:0:0:
148,164,51343,1,4,0:0:0:0:
160,160,51525,1,4,0:0:0:0:
160,160,51707,1,4,0:0:0:0:
160,160,51889,1,4,0:0:0:0:
160,160,52070,1,4,0:0:0:0:
160,164,52252,1,4,0:0:0:0:
344,172,52434,1,4,0:0:0:0:
344,172,52525,1,4,0:0:0:0:
344,172,52616,1,4,0:0:0:0:
344,172,52707,1,4,0:0:0:0:
344,172,52798,1,4,0:0:0:0:
344,172,52889,1,4,0:0:0:0:
344,172,52980,1,4,0:0:0:0:
344,172,53070,1,4,0:0:0:0:
344,172,53161,1,4,0:0:0:0:
344,172,53252,1,4,0:0:0:0:
344,172,53343,1,4,0:0:0:0:
344,172,53434,1,4,0:0:0:0:
344,172,53525,1,4,0:0:0:0:
344,172,53616,1,4,0:0:0:0:
344,172,53707,1,4,0:0:0:0:
284,240,55070,1,4,0:0:0:0:
284,240,55161,1,4,0:0:0:0:
280,236,55252,1,4,0:0:0:0:
280,236,55343,1,4,0:0:0:0:
284,240,55434,1,4,0:0:0:0:
284,240,55525,1,4,0:0:0:0:
284,240,55616,1,4,0:0:0:0:
284,240,55707,1,4,0:0:0:0:
268,244,55798,1,8,0:0:0:0:
288,236,55889,1,8,0:0:0:0:
272,240,55980,1,8,0:0:0:0:
288,240,56070,1,8,0:0:0:0:
152,236,56161,1,4,0:0:0:0:
152,236,56252,1,4,0:0:0:0:
152,236,56343,1,4,0:0:0:0:
152,236,56434,1,4,0:0:0:0:
228,312,56525,1,12,0:0:0:0:
228,312,56616,1,12,0:0:0:0:
228,312,56707,1,12,0:0:0:0:
228,312,56798,1,12,0:0:0:0:
336,316,56889,1,12,0:0:0:0:
336,316,56980,1,12,0:0:0:0:
336,316,57070,1,12,0:0:0:0:
336,316,57161,1,12,0:0:0:0:
336,316,57252,1,12,0:0:0:0:
336,316,57343,1,12,0:0:0:0:
336,316,57434,1,12,0:0:0:0:
416,224,57525,1,12,0:0:0:0:
416,224,57616,1,0,0:0:0:0:
416,224,57707,1,0,0:0:0:0:
416,224,57798,1,0,0:0:0:0:
416,224,57889,1,0,0:0:0:0:
416,224,57980,1,0,0:0:0:0:
416,224,58070,1,0,0:0:0:0:
416,224,58161,1,0,0:0:0:0:
416,224,58252,1,0,0:0:0:0:
416,224,58343,1,0,0:0:0:0:
416,224,58434,1,0,0:0:0:0:
416,224,58525,1,0,0:0:0:0:
416,224,58616,1,0,0:0:0:0:
416,224,58707,1,0,0:0:0:0:
416,224,58798,1,0,0:0:0:0:
416,224,58889,1,0,0:0:0:0:
416,224,58980,1,0,0:0:0:0:
416,224,59070,1,0,0:0:0:0:
416,224,59161,1,0,0:0:0:0:
416,224,59252,1,0,0:0:0:0:
416,224,59343,1,0,0:0:0:0:
416,224,59434,1,0,0:0:0:0:
416,224,59525,1,0,0:0:0:0:
416,224,59616,1,0,0:0:0:0:
416,224,59707,1,0,0:0:0:0:
416,224,59798,1,0,0:0:0:0:
416,224,59889,1,0,0:0:0:0:
416,224,59980,1,0,0:0:0:0:
416,224,60070,1,0,0:0:0:0:
416,224,60161,1,0,0:0:0:0:
416,224,60252,1,0,0:0:0:0:
416,224,60343,1,0,0:0:0:0:
416,224,60434,1,0,0:0:0:0:
416,224,60525,1,0,0:0:0:0:
416,224,60616,1,0,0:0:0:0:
416,224,60707,1,0,0:0:0:0:
416,224,60798,1,0,0:0:0:0:
416,224,60889,1,0,0:0:0:0:
416,224,60980,1,0,0:0:0:0:
416,224,61070,1,0,0:0:0:0:
416,224,61161,1,0,0:0:0:0:
416,224,61252,1,0,0:0:0:0:
416,224,61343,1,0,0:0:0:0:
416,224,61434,1,0,0:0:0:0:
416,224,61525,1,0,0:0:0:0:
416,224,61616,1,0,0:0:0:0:
416,224,61707,1,0,0:0:0:0:
416,224,61798,1,0,0:0:0:0:
416,224,61889,1,0,0:0:0:0:
416,224,61980,1,0,0:0:0:0:
416,224,62070,1,0,0:0:0:0:
416,224,62161,1,0,0:0:0:0:
416,224,62252,1,0,0:0:0:0:
416,224,62343,1,0,0:0:0:0:
416,224,62434,1,4,0:0:0:0:
416,224,62525,1,4,0:0:0:0:
416,224,62616,1,4,0:0:0:0:
416,224,62707,1,4,0:0:0:0:
416,224,62798,1,4,0:0:0:0:
416,224,62889,1,4,0:0:0:0:
416,224,62980,1,4,0:0:0:0:
416,224,63070,1,8,0:0:0:0:
416,224,63161,1,8,0:0:0:0:
416,224,63252,1,8,0:0:0:0:
416,224,63343,1,4,0:0:0:0:
416,224,63434,1,4,0:0:0:0:
344,224,63525,2,4,L|304:224,1,37.5
244,224,63707,1,4,0:0:0:0:
244,224,63798,1,4,0:0:0:0:
244,224,63889,1,4,0:0:0:0:
244,224,63980,1,4,0:0:0:0:
244,224,64070,1,4,0:0:0:0:
244,224,64161,1,4,0:0:0:0:
244,224,64252,1,4,0:0:0:0:
244,224,64343,1,4,0:0:0:0:
244,224,64434,1,4,0:0:0:0:
252,224,64525,1,4,0:0:0:0:
256,224,64616,1,4,0:0:0:0:
264,224,64707,1,4,0:0:0:0:
268,224,64798,1,4,0:0:0:0:
272,224,64889,1,4,0:0:0:0:
276,224,64980,1,4,0:0:0:0:
280,224,65070,1,4,0:0:0:0:
284,224,65161,1,4,0:0:0:0:
284,224,65252,1,4,0:0:0:0:
288,224,65343,1,4,0:0:0:0:
292,224,65434,1,4,0:0:0:0:
296,224,65525,1,4,0:0:0:0:
300,224,65616,1,4,0:0:0:0:
304,224,65707,1,4,0:0:0:0:
308,224,65798,1,4,0:0:0:0:
312,224,65889,1,4,0:0:0:0:
312,224,65980,1,4,0:0:0:0:
316,224,66070,1,4,0:0:0:0:
320,224,66161,1,4,0:0:0:0:
324,224,66252,1,4,0:0:0:0:
328,228,66343,1,4,0:0:0:0:
332,232,66434,1,4,0:0:0:0:
336,240,66525,1,4,0:0:0:0:
336,248,66616,1,4,0:0:0:0:
336,256,66707,1,4,0:0:0:0:
256,192,69707,12,4,70070,0:0:0:0:
