osu file format v12

[General]
AudioFilename: R300k - K.M.T.mp3
AudioLeadIn: 0
PreviewTime: 41592
Countdown: 0
SampleSet: Normal
StackLeniency: 0.7
Mode: 0
LetterboxInBreaks: 0
WidescreenStoryboard: 0

[Editor]
Bookmarks: 5999,19898
DistanceSpacing: 1.2
BeatDivisor: 4
GridSize: 4

[Metadata]
Title:K.M.T
TitleUnicode:K.M.T
Artist:r300k
ArtistUnicode:r300k
Creator:Maddy
Version:Hyper
Source:O2Jam U
Tags:
BeatmapID:298685
BeatmapSetID:115591

[Difficulty]
HPDrainRate:5
CircleSize:4
OverallDifficulty:6
ApproachRate:8
SliderMultiplier:1.4
SliderTickRate:1

[Events]
//Background and Video events
0,0,"when_planets_attack_by_grahamsym-d6lcgds.jpg",0,0
//Break Periods
//Storyboard Layer 0 (Background)
//Storyboard Layer 1 (Fail)
//Storyboard Layer 2 (Pass)
//Storyboard Layer 3 (Foreground)
//Storyboard Sound Samples
//Background Colour Transformations
3,100,163,162,255

[TimingPoints]
3288,338.983050847458,4,2,0,55,1,0
5999,-90.9090909090909,4,1,0,55,0,0
19898,338.983050847458,4,1,0,55,1,0
19898,-133.333333333333,4,1,0,55,0,0
20575,-100,4,1,0,55,0,0
23965,-133.333333333333,4,1,0,55,0,0
24982,-100,4,1,0,55,0,0
25321,-133.333333333333,4,1,0,55,0,0
25999,-100,4,1,0,55,0,0
29389,-133.333333333333,4,1,0,55,0,0
31423,-100,4,1,0,55,0,0
34813,-133.333333333333,4,1,0,55,0,0
35660,-100,4,1,0,55,0,0
36169,-133.333333333333,4,1,0,55,0,0
36847,-100,4,1,0,55,0,0
41592,-90.9090909090909,4,1,0,55,0,0

[Colours]
Combo1 : 17,254,176
Combo2 : 198,255,64
Combo3 : 53,219,62
Combo4 : 104,201,253

[HitObjects]
20,264,3288,2,0,P|52:280|96:276,1,70
148,220,3626,2,0,P|182:219|213:235,1,70
256,308,3965,2,0,L|340:320,1,70
380,252,4304,2,0,L|296:240,1,70
260,176,4643,6,0,P|232:120|276:44,1,140
320,116,5152,2,0,L|412:116,1,70
432,188,5491,1,0,0:0:0:0:
448,220,5576,1,0,0:0:0:0:
464,248,5660,2,0,P|476:284|464:328,1,70
336,352,5999,6,0,P|288:364|240:344,1,77.0000023498536
200,288,6338,1,0,0:0:0:0:
292,292,6508,1,0,0:0:0:0:
356,228,6677,2,0,P|384:184|384:152,1,77.0000023498536
332,84,7016,2,0,P|304:128|304:160,1,77.0000023498536
220,192,7355,5,0,0:0:0:0:
136,148,7525,1,0,0:0:0:0:
216,100,7694,1,0,0:0:0:0:
136,56,7864,1,0,0:0:0:0:
60,108,8033,2,0,P|52:152|76:204,1,77.0000023498536
136,236,8372,2,0,L|256:248,1,115.50000352478
284,228,8711,6,0,P|316:184|320:152,1,77.0000023498536
264,88,9050,1,0,0:0:0:0:
332,28,9220,1,0,0:0:0:0:
396,92,9389,2,0,P|444:96|480:84,1,77.0000023498536
471,88,9643,1,0,0:0:0:0:
471,88,9728,2,0,L|508:112,2,38.5000011749268
424,168,10067,5,0,0:0:0:0:
468,252,10237,1,0,0:0:0:0:
412,324,10406,2,0,P|368:336|328:320,1,77.0000023498536
288,252,10745,1,0,0:0:0:0:
284,160,10915,1,0,0:0:0:0:
288,124,10999,1,0,0:0:0:0:
292,84,11084,2,0,L|300:0,1,77.0000023498536
200,64,11423,6,0,P|160:76|108:60,1,77.0000023498536
52,16,11762,1,0,0:0:0:0:
20,104,11932,1,0,0:0:0:0:
92,164,12101,2,0,L|168:180,1,77.0000023498536
204,188,12355,1,0,0:0:0:0:
240,196,12440,2,0,L|288:208,2,38.5000011749268
296,288,12779,6,0,P|340:300|388:284,1,77.0000023498536
428,220,13118,2,0,P|384:208|336:224,1,77.0000023498536
296,288,13457,1,0,0:0:0:0:
264,312,13542,1,0,0:0:0:0:
232,332,13626,2,0,P|188:348|112:284,1,154.000004699707
188,268,14135,6,0,L|256:220,1,77.0000023498536
236,132,14474,2,0,L|168:180,1,77.0000023498536
80,168,14813,1,0,0:0:0:0:
32,248,14982,1,0,0:0:0:0:
40,284,15067,1,0,0:0:0:0:
72,304,15152,2,0,P|120:312|156:296,1,77.0000023498536
204,232,15491,6,0,P|248:228|284:244,1,77.0000023498536
340,308,15830,2,0,P|404:316|448:216,1,154.000004699707
368,220,16338,1,0,0:0:0:0:
332,228,16423,1,0,0:0:0:0:
296,240,16508,1,0,0:0:0:0:
184,192,16677,1,0,0:0:0:0:
220,184,16762,1,0,0:0:0:0:
256,172,16847,6,0,B|312:152|312:152|380:64|380:64|456:32,2,231.000007049561
156,328,18203,2,0,P|107:324|73:149,2,231.000007049561
156,328,19898,6,0,P|208:340|284:264,1,157.500006008148
264,196,20575,2,0,P|284:164|316:148,1,70
392,172,20914,2,0,P|422:154|439:125,1,70
364,92,21253,6,0,L|306:52,2,70
436,48,21762,1,0,0:0:0:0:
436,48,21931,1,0,0:0:0:0:
484,124,22440,1,0,0:0:0:0:
484,124,22609,6,0,L|464:200,1,70
400,244,22948,2,0,L|380:320,1,70,0|0,0:0|0:0,0:0:0:0:
300,336,23287,1,0,0:0:0:0:
220,364,23457,2,0,P|140:336|128:276,1,140
212,280,23965,6,0,L|268:172,2,105.000004005432
132,304,24813,1,0,0:0:0:0:
68,356,24982,2,0,P|52:324|56:276,1,70
51,290,25321,6,0,P|108:288|160:200,1,157.500006008148
76,204,25999,2,0,P|52:176|44:132,1,70
92,76,26338,1,0,0:0:0:0:
172,52,26508,1,0,0:0:0:0:
240,100,26677,6,0,L|316:116,2,70
168,144,27186,1,0,0:0:0:0:
168,144,27355,1,0,0:0:0:0:
244,188,27864,1,0,0:0:0:0:
244,188,28033,6,0,P|284:200|328:188,1,70
368,132,28372,1,0,0:0:0:0:
440,88,28542,1,0,0:0:0:0:
488,156,28711,2,0,P|500:204|488:236,1,70
428,272,29050,2,0,P|416:224|428:192,1,70
368,132,29389,6,0,L|248:112,2,105.000004005432
440,88,30236,1,0,0:0:0:0:
440,88,30321,1,0,0:0:0:0:
440,88,30406,1,0,0:0:0:0:
440,88,30745,6,0,P|472:160|424:236,1,157.500006008148
364,268,31423,2,0,P|321:250|294:211,1,70
292,152,31762,1,0,0:0:0:0:
368,188,31931,1,0,0:0:0:0:
364,268,32101,6,0,L|352:352,2,70
436,228,32609,1,0,0:0:0:0:
484,160,32779,2,0,P|472:80|400:48,1,140
408,132,33287,1,0,0:0:0:0:
348,72,33457,6,0,L|304:52,3,35
280,80,33796,2,0,L|232:92,3,35
212,64,34135,2,0,L|128:48,1,70
92,120,34474,2,0,L|176:136,1,70
200,212,34813,6,0,P|216:264|192:332,2,105.000004005432
244,140,35660,1,0,0:0:0:0:
192,72,35830,2,0,P|224:56|264:60,1,70
257,57,36169,6,0,P|352:84|404:32,1,157.500006008148
444,120,36847,2,0,P|456:160|448:200,1,70
396,248,37186,1,0,0:0:0:0:
340,312,37355,1,0,0:0:0:0:
272,260,37525,6,0,L|200:248,2,70
324,196,38033,1,0,0:0:0:0:
304,116,38203,2,0,P|272:80|168:100,1,140
136,152,38711,1,0,0:0:0:0:
116,180,38796,1,0,0:0:0:0:
96,208,38881,6,0,L|68:248,3,35
84,276,39220,2,0,L|63:304,3,35
104,324,39559,2,0,L|180:332,1,70
248,292,39898,2,0,L|324:300,1,70
384,252,40236,5,0,0:0:0:0:
436,168,40406,1,0,0:0:0:0:
484,252,40575,1,0,0:0:0:0:
360,180,40745,1,0,0:0:0:0:
512,184,40914,2,0,P|520:132|432:84,1,140
458,80,41592,6,0,P|416:96|360:80,1,77.0000023498536
316,32,41931,1,0,0:0:0:0:
244,92,42101,1,0,0:0:0:0:
256,184,42270,2,0,L|272:264,1,77.0000023498536
277,290,42525,1,0,0:0:0:0:
282,320,42609,2,0,P|232:336|188:324,1,77.0000023498536
140,272,42948,6,0,P|72:256|20:320,1,154.000004699707
108,348,43457,1,0,0:0:0:0:
152,360,43542,1,0,0:0:0:0:
196,344,43626,2,0,P|224:304|224:256,1,77.0000023498536
172,204,43965,2,0,P|144:244|144:292,1,77.0000023498536
196,344,44304,6,0,P|248:360|288:340,1,77.0000023498536
316,276,44643,1,0,0:0:0:0:
392,224,44813,2,0,P|429:225|461:246,1,77.0000023498536
400,316,45152,1,0,0:0:0:0:
316,276,45321,2,0,P|304:208|324:180,1,77.0000023498536
368,136,45660,5,0,0:0:0:0:
392,132,45745,1,0,0:0:0:0:
416,128,45830,1,0,0:0:0:0:
440,124,45914,1,0,0:0:0:0:
464,120,45999,2,0,P|480:76|468:40,1,77.0000023498536
380,36,46338,2,0,L|300:50,1,77.0000023498536
275,54,46592,1,0,0:0:0:0:
245,61,46677,2,0,L|165:75,1,77.0000023498536
169,74,47016,6,0,P|160:120|184:164,1,77.0000023498536
240,208,47355,1,0,0:0:0:0:
324,172,47525,1,0,0:0:0:0:
392,236,47694,2,0,L|472:252,1,77.0000023498536
492,340,48033,2,0,L|412:324,1,77.0000023498536
328,352,48372,6,0,P|280:360|224:272,1,154.000004699707
252,196,48881,1,0,0:0:0:0:
272,156,48965,1,0,0:0:0:0:
292,116,49050,2,0,P|308:68|292:24,1,77.0000023498536
212,36,49389,2,0,P|196:84|212:128,1,77.0000023498536
152,188,49728,6,0,L|64:208,1,77.0000023498536
32,284,50067,1,0,0:0:0:0:
120,308,50236,2,0,L|208:288,1,77.0000023498536
244,212,50575,1,0,0:0:0:0:
204,128,50745,2,0,P|152:108|108:124,1,77.0000023498536
52,156,51084,6,0,P|36:196|44:248,1,77.0000023498536
100,296,51423,2,0,P|152:316|196:300,1,77.0000023498536
248,260,51762,2,0,P|264:220|256:168,1,77.0000023498536
204,116,52101,1,0,0:0:0:0:
204,116,52270,1,0,0:0:0:0:
132,60,52440,6,0,P|192:24|272:56,1,154.000004699707
288,140,52948,1,0,0:0:0:0:
356,204,53118,2,0,P|412:208|440:180,1,77.0000023498536
456,108,53457,2,0,P|400:104|372:132,1,77.0000023498536
356,204,53796,6,0,P|320:228|212:196,1,154.000004699707
168,128,54304,1,0,0:0:0:0:
100,188,54474,2,0,L|60:264,1,77.0000023498536
120,328,54813,2,0,L|160:252,1,77.0000023498536
100,188,55152,6,0,P|72:120|128:44,1,154.000004699707
200,48,55660,1,0,0:0:0:0:
260,120,55830,1,0,0:0:0:0:
276,136,55914,1,0,0:0:0:0:
292,152,55999,1,0,0:0:0:0:
308,168,56084,1,0,0:0:0:0:
324,184,56169,2,0,P|372:192|412:176,1,77.0000023498536
440,100,56508,6,0,P|448:52|432:16,1,77.0000023498536
356,64,56847,2,0,L|232:80,2,115.50000352478
440,100,57525,1,0,0:0:0:0:
488,176,57694,1,0,0:0:0:0:
496,212,57779,1,0,0:0:0:0:
492,252,57864,6,0,P|456:284|360:232,1,154.000004699707
340,160,58372,1,0,0:0:0:0:
276,96,58542,2,0,P|237:94|202:109,1,77.0000023498536
176,200,58881,2,0,P|214:201|249:186,1,77.0000023498536
328,236,59220,6,0,P|344:292|272:364,1,154.000004699707
204,320,59728,1,0,0:0:0:0:
124,272,59898,2,0,L|40:256,1,77.0000023498536
32,168,60236,2,0,L|116:184,1,77.0000023498536
200,204,60575,6,0,P|276:160|256:88,1,154.000004699707
200,40,61084,1,0,0:0:0:0:
292,24,61253,1,0,0:0:0:0:
312,32,61338,1,0,0:0:0:0:
332,40,61423,1,0,0:0:0:0:
352,48,61508,1,0,0:0:0:0:
372,56,61592,2,0,P|416:56|452:32,1,77.0000023498536
468,128,61931,6,0,B|464:204|464:204|424:272|424:272|416:368,2,231.000007049561
468,128,63287,5,0,0:0:0:0:
308,220,63626,2,0,L|212:208,1,77.0000023498536
196,124,63965,2,0,L|292:136,1,77.0000023498536
44,128,64474,1,0,0:0:0:0:
44,128,64643,5,0,0:0:0:0:
180,256,64982,2,0,P|236:260|268:240,1,77.0000023498536
288,164,65321,2,0,P|232:160|200:180,1,77.0000023498536
