osu file format v13

[General]
AudioFilename: AMV Hell 3_ The Motion Picture Evangelion Generation.mp3
AudioLeadIn: 0
PreviewTime: 456
Countdown: 0
SampleSet: Normal
StackLeniency: 0.7
Mode: 0
LetterboxInBreaks: 0
WidescreenStoryboard: 1

[Editor]
Bookmarks: 15,49,83,117,151,185,219,253,287,321,355,389,423,457,491,525,559,593,627,661,695,729,763,797,831,865,899,933,967,1001,1035,1069,1087,1103,1137,1171,1205,1239,1273,1307,1341,1375,1385,1409,1443,1477,1511,1545,1579,1613,1647,1681,1715,1749,1783,1817,1851,1885,1919,1953,1987,2021,2055,2089,2123,2157,2191,2225,2259,2293,2327,2361,2395,2429,2463,2497,2531,2565,2599,2633,2667,2701,2735,2769,2803,2837,2871,2905,2939,2973,3007,3041,3075,3109,3143,3177,3211,3245,3279,3313,3347,3381,3415,3449,3483,3517,3551,3585,3619,3653,3687,3721,3755,3789,3823,3857,3891,3925,3959,3993,4027,4061,4095,4129,4163,4197,4231,4265,4299,4333,4367,4401,4435,4469,4503,4537,4571,4605,4639,4673,4707,4741,4775,4809,4843,4877,4911,4945,4979,5013,5047,5081,5115,5149,5183,5217,5251,5285,5319,5353,5387,5421,5455,5489,5523,5557,5591,5625,5659,5693,5727,5761,5795,5829,5863,5897,5931,5965,5999,6033,6067,6101,6135,6169,6203,6237,6271,6305,6339,6373,6407,6441,6475,6509,6543,6577,6611,6645,6679,6713,6747,6781,6815,6849,6883,6917,6951,6985,7019,7053,7087,7121,7155,7189,7223,7257,7291,7325,7359,7393,7427,7461,7495,7529,7563,7597,7631,7665,7699,7733,7767,7801,7835,7869,7903,7937,7971,8005,8039,8073,8107,8141,8175,8209,8243,8277,8311,8345,8379,8413,8447,8481,8515,8549,8583,8617,8651,8685,8719,8753,8787,8821,8855,8889,8923,8957,8991,9025,9059,9093,9127,9161,9195,9229,9263,9297,9331,9365,9399,9433,9467,9501,9535,9569,9603,9637,9671,9705,9739,9773,9807,9841,9875,9909,9943,9977,10011,10045,10079,10113,10147,10181,10215,10249,10283,10317,10351,10419,10453,10487,10521,10555,10589,10623,10657,10691,10725,10759,10793,10861,10895,10929,10963,10997,11031,11065,11099,11133,11167,11201,11235,11269,11303,11337,11371,11405,11439,11473,11507,11541,11575,11609,11643,11677,11711,11745,11779,11813,11847,11881,11915,11949,11983,12017,12051,12085,12119,12153,12187,12221,12255,12289,12323,12357,12391,12425,12459,12493,12527,12561,12595,12629,12663,12697,12731,12765,12799,12833,12867,12901,12935,12969,13003,13037,13071,13105,13139,13173,13207,13241,13275,13309,13343,13377,13411,13445,13479,13513,13547,13581,13615,13649,13683,13717,13751,13785,13819,13853,13887,13921,13955,13989,14023,14057,14091,14125,14159,14193,14227,14261,14295,14329,14363,14397,14431,14465,14499,14533,14567,14601,14635,14669,14703,14737,14771,14805,14839,14873,14907,14941,14975,15009,15043,15077,15111,15145,15179,15213,15247,15281,15315,15349,15383,15417,15451,15485,15519,15553,15587,15621,15655,15689,15723,15757,15791,15825,15859,15893,15927,15961,15995,16029,16063,16097,16131,16165,16199,16233,16267,16301,16335,16369,16403,16437,16471,16505,16539,16573,16607,16641,16675,16709,16743,16777,16811,16845,16879,16913,16947,16981,17015,17049,17083,17117,17151,17185,17219,17253,17287,17321,17355,17389,17423,17457,17491,17525,17559,17593,17627,17661,17695,17729,17763,17797,17831,17865,17899,17933,17967,18001,18035,18069,18103,18137,18171,18205,18239,18273,18307,18341,18375,18409,18443,18477,18511,18545,18579,18613,18647,18681,18715,18749,18783,18817,18851,18885,18919,18953,18987,19021,19055,19089,19123,19157,19191,19225,19259,19293,19327,19361,19395,19429,19463,19497,19531,19565,19599,19633,19667,19701,19735,19769,19803,19837,19871,19905,19939,19973,20007,20041,20075,20109,20143,20177,20211,20245,20279,20313,20347,20381,20415,20449,20483,20517,20551,20585,20619,20653,20687,20721,20755,20789,20823,20857,20891,20925,20959,20993,21027,21061,21095,21129,21163,21197,21231,21265,21299,21333,21367,21401,21435,21469,21503,21537,21571,21605,21639,21673,21707,21741,21775,21809,21843,21877,21911,21945,21979,22013,22047,22081,22115,22149,22183,22217,22251,22285,22319,22353,22387,22421,22455,22489,22523,22557,22591,22625,22659,22693,22727,22761,22795,22829,22863,22897,22931,22965,22999,23033,23067,23101,23135,23169,23203,23237,23271,23305,23339,23373,23407,23441,23475,23509,23543,23577,23611,23645,23679,23713,23747,23781,23815,23849,23883,23917,23951,23985,24019,24053,24087,24121,24155,24189,24223,24257,24291,24325,24359,24393,24427,24461,24495,24529,24563,24597,24631,24665,24699,24733,24767,24801,24835,24869,24903,24937,24971,25005,25039,25073,25107,25141,25175,25209,25243,28136
DistanceSpacing: 1.1
BeatDivisor: 4
GridSize: 4
TimelineZoom: 2.1

[Metadata]
Title:qioncsxvu9hf8df
TitleUnicode:qioncsxvu9hf8df
Artist:qoijfdsocvip
ArtistUnicode:qoijfdsocvip
Creator:340
Version:[0xiv90ew0fsd
Source:
Tags:hi ryuu
BeatmapID:529451
BeatmapSetID:227224

[Difficulty]
HPDrainRate:0
CircleSize:5
OverallDifficulty:7
ApproachRate:9
SliderMultiplier:2.1
SliderTickRate:1

[Events]
//Background and Video events
0,0,"dg58dsg76sg.png",0,0
//Break Periods
//Storyboard Layer 0 (Background)
//Storyboard Layer 1 (Fail)
//Storyboard Layer 2 (Pass)
//Storyboard Layer 3 (Foreground)
//Storyboard Sound Samples
//Background Colour Transformations
3,100,163,162,255

[TimingPoints]
8058,271.493212669683,4,1,0,70,1,0
9551,-100,4,1,0,50,0,0
9619,-100,4,1,0,70,0,0
10094,-100,4,1,0,50,0,0
10162,-100,4,1,0,70,0,0
17820,271.493212669683,4,1,0,70,1,0
33023,269.058295964126,4,1,0,70,1,0
33023,-125,4,1,0,70,0,0

[Colours]
Combo1 : 189,206,200
Combo2 : 71,146,207
Combo3 : 93,155,152

[HitObjects]
126,178,8057,5,8,3:0:0:0:
201,102,8193,1,8,3:0:0:0:
192,168,8329,1,8,3:0:0:0:
142,73,8465,1,8,3:0:0:0:
96,120,8600,1,8,3:0:0:0:
386,331,8872,5,0,0:0:0:0:
387,321,8905,1,0,0:0:0:0:
389,310,8939,1,0,0:0:0:0:
391,300,8973,1,0,0:0:0:0:
393,290,9007,1,0,0:0:0:0:
395,279,9041,1,0,0:0:0:0:
397,269,9075,1,0,0:0:0:0:
399,259,9109,1,0,0:0:0:0:
400,248,9143,2,0,P|344:276|276:196,1,157.5,2|0,0:3|2:0,0:0:0:0:
364,104,9415,2,0,L|344:212,1,105
208,296,9686,2,0,P|180:244|212:148,1,157.5,0|0,0:0|2:0,0:0:0:0:
368,108,9958,2,0,L|348:216,1,105
324,344,10229,6,0,B|273:344|273:344|223:369|223:369|173:369,1,157.5,4|0,0:2|2:0,0:0:0:0:
76,292,10501,2,0,B|125:308|125:308|76:324,1,105
20,244,10705,1,0,0:0:0:0:
24,236,10772,2,0,P|8:184|20:136,1,105
88,84,10976,1,0,0:0:0:0:
96,80,11043,2,0,P|112:132|100:180,1,105
224,172,11315,6,0,P|276:148|232:188,1,157.5,4|0,0:2|0:0,0:0:0:0:
256,72,11587,2,0,P|304:56|404:108,1,157.5
440,160,11858,2,0,B|452:44|452:44|468:92,1,157.5
512,204,12130,2,0,P|464:240|416:240,1,105
272,216,12401,1,0,0:0:0:0:
392,304,12537,1,0,0:0:0:0:
348,184,12673,1,0,0:0:0:0:
224,292,12809,2,0,P|276:308|324:292,1,105
184,224,13080,5,0,0:0:0:0:
174,228,13113,1,0,0:0:0:0:
164,232,13147,1,0,0:0:0:0:
155,237,13181,1,0,0:0:0:0:
145,241,13215,1,0,0:0:0:0:
144,320,13352,1,0,0:0:0:0:
134,324,13385,1,0,0:0:0:0:
124,328,13419,1,0,0:0:0:0:
115,333,13453,1,0,0:0:0:0:
104,336,13487,2,0,P|44:336|4:248,1,157.5
48,148,13759,2,0,B|97:144|97:144|146:175|146:175|195:172,1,157.5
184,48,14030,2,0,B|164:20|164:20|172:96,1,105
256,244,14302,2,0,B|276:272|276:272|268:196,1,105
204,328,14573,5,0,0:0:0:0:
368,280,14709,1,0,0:0:0:0:
272,192,14845,1,0,0:0:0:0:
368,360,14981,1,0,0:0:0:0:
464,292,15116,2,0,P|504:248|472:152,1,157.5
332,200,15388,2,0,L|460:224,1,105
320,196,15659,2,0,B|240:184|249:234|169:222,1,157.5
144,148,15931,2,0,P|168:220|100:292,1,157.5
0,212,16202,2,0,P|56:196|100:212,1,105
172,356,16474,2,0,P|116:372|72:356,1,105
236,268,17820,6,0,B|268:248|312:260|312:260|308:216|340:184,1,157.5
428,164,18091,2,0,P|364:168|312:92,1,157.5
468,96,18362,2,0,P|500:136|496:200,1,105
391,94,18634,2,0,P|416:40|464:20,1,105
296,92,18905,2,0,B|216:80|224:130|145:118,1,157.5
76,62,19177,2,0,P|120:34|171:35,1,105
272,192,19448,1,0,0:0:0:0:
72,252,19584,2,0,P|84:200|60:140,1,105
36,336,19856,1,0,0:0:0:0:
120,316,19991,6,0,P|200:300|288:364,1,157.5
396,368,20263,2,0,P|340:348|336:256,1,157.5
292,188,20534,2,0,P|352:180|392:200,1,105
504,308,20806,2,0,B|388:300|388:300|440:276,1,157.5
508,244,21077,1,0,0:0:0:0:
460,83,21213,2,0,L|464:211,1,105
384,48,21485,2,0,P|416:12|476:0,1,105
304,128,21756,5,0,0:0:0:0:
291,124,21789,1,0,0:0:0:0:
278,120,21823,1,0,0:0:0:0:
266,116,21857,1,0,0:0:0:0:
253,112,21891,1,0,0:0:0:0:
355,243,22028,1,0,0:0:0:0:
342,239,22061,1,0,0:0:0:0:
330,236,22095,1,0,0:0:0:0:
317,232,22129,1,0,0:0:0:0:
304,228,22163,2,0,P|232:240|200:344,1,157.5
304,336,22435,2,0,B|364:324|364:324|260:300,1,157.5
116,292,22706,2,0,P|132:356|168:380,1,105
304,336,22978,1,0,0:0:0:0:
304,228,23114,1,0,0:0:0:0:
188,160,23249,2,0,B|136:160|136:160|84:200,1,105
304,228,23521,2,0,B|356:228|356:228|408:188,1,105
416,80,23792,2,0,P|416:152|484:204,1,157.5
496,116,24064,2,0,P|504:64|476:16,1,105
224,76,24335,2,0,B|328:96|328:96|288:60,1,157.5
120,40,24607,2,0,L|152:200,1,157.5
208,252,24878,2,0,P|232:204|224:156,1,105
56,152,25150,1,0,0:0:0:0:
104,268,25286,1,0,0:0:0:0:
208,332,26507,6,0,P|272:352|340:288,1,157.5
412,352,26779,2,0,P|392:296|404:192,1,157.5
380,120,27050,2,0,P|424:120|476:168,1,105
272,192,27322,2,0,P|228:192|176:144,1,105
140,40,27593,2,0,B|88:56|24:68|24:68|88:84,1,157.5
256,120,27865,2,0,B|308:104|372:92|372:92|308:76,1,157.5
220,32,28136,1,0,0:0:0:0:
228,36,28204,1,0,0:0:0:0:
100,184,28340,1,0,0:0:0:0:
108,180,28408,1,0,0:0:0:0:
60,280,28543,1,0,0:0:0:0:
176,288,28679,6,0,B|252:313|252:262|329:288,1,157.5
436,336,28951,2,0,P|380:276|404:188,1,157.5
392,116,29222,2,0,P|336:92|240:132,1,157.5
192,176,29494,2,0,L|80:168,1,105
40,64,29765,1,0,0:0:0:0:
116,100,29901,1,0,0:0:0:0:
116,280,30037,1,0,0:0:0:0:
32,244,30172,1,0,0:0:0:0:
192,176,30308,1,0,0:0:0:0:
256,288,30444,5,0,0:0:0:0:
253,300,30477,1,0,0:0:0:0:
251,313,30511,1,0,0:0:0:0:
248,326,30545,1,0,0:0:0:0:
246,339,30579,1,0,0:0:0:0:
374,229,30715,1,0,0:0:0:0:
371,241,30748,1,0,0:0:0:0:
369,254,30782,1,0,0:0:0:0:
366,267,30816,1,0,0:0:0:0:
364,280,30851,2,0,P|432:296|488:224,1,157.5
432,160,31123,2,0,L|448:-4,1,157.5
368,76,31394,2,0,B|340:96|296:96|296:96|256:64|208:72,1,157.5
132,112,31666,2,0,P|108:68|116:8,1,105
228,152,31937,5,0,0:0:0:0:
164,308,32073,1,0,0:0:0:0:
156,212,32209,1,0,0:0:0:0:
232,240,32344,1,0,0:0:0:0:
236,344,32480,2,0,L|68:364,1,157.5
288,304,32752,2,0,L|392:320,1,105
488,168,33023,2,0,P|428:156|344:244,1,168
116,128,33561,2,0,P|176:140|260:52,1,168
164,44,33964,1,0,0:0:0:0:
100,216,34099,6,0,L|88:336,1,84
228,228,34368,2,0,L|236:144,1,84
280,312,34637,2,0,B|360:340|360:340|348:252,1,168
184,104,35175,6,0,P|120:108|60:160,1,126
60,136,35444,2,0,L|76:248,1,84
184,252,35713,2,0,P|184:296|144:368,2,126,0|0|0,0:0|0:0|0:0,0:0:0:0:
248,188,36251,2,0,P|296:176|344:192,2,84,0|0|0,0:0|0:0|0:0,0:0:0:0:
160,168,36655,1,0,0:0:0:0:
304,300,36789,1,0,0:0:0:0:
296,292,36857,1,0,0:0:0:0:
400,268,36991,1,0,0:0:0:0:
256,64,37327,6,0,P|200:80|96:72,1,126
240,152,37596,2,0,L|179:212,1,84
320,128,37866,2,0,P|319:190|336:251,1,126
176,288,38269,1,0,0:0:0:0:
240,248,38404,2,0,P|288:256|316:280,2,84,0|0|0,0:0|0:0|0:0,0:0:0:0:
128,324,38807,1,0,0:0:0:0:
128,324,38875,2,0,P|80:316|52:292,1,84,0|0,0:0|0:0,0:0:0:0:
132,92,39211,5,0,0:0:0:0:
131,100,39244,5,0,0:0:0:0:
130,108,39278,5,0,0:0:0:0:
129,117,39311,5,0,0:0:0:0:
128,125,39345,5,0,0:0:0:0:
127,133,39379,5,0,0:0:0:0:
127,142,39412,5,0,0:0:0:0:
126,150,39446,5,0,0:0:0:0:
125,158,39480,5,0,0:0:0:0:
