osu file format v9

[General]
AudioFilename: daiche -wen - ji ou yang shao gong.mp3
AudioLeadIn: 0
PreviewTime: 20498
Countdown: 0
SampleSet: Soft
StackLeniency: 0.7
Mode: 0
LetterboxInBreaks: 1

[Editor]
Bookmarks: 121684,121811,122066,122193,122956,123210,123972,124227,126261,127023,127278,127532,128040,128294,128549,128676,129057,129566,130074,130201,130328,131091,131345,132108,132362,134396,135159,135413,136176,136430,137701,138464,139481,140244,140498,140752,142532,143549,143803,144311
DistanceSpacing: 0.8
BeatDivisor: 4
GridSize: 8

[Metadata]
Title:Wen - Ji Ou Yang Shao Gong
Artist:qinche
Creator:goodbye
Version:Hard
Source:
Tags:gujianqitan xiangxiang sanyue eveless daidai TW-KUMA01 gujian

[Difficulty]
HPDrainRate:4
CircleSize:4
OverallDifficulty:4
ApproachRate:6
SliderMultiplier:1.4
SliderTickRate:0.5

[Events]
//Background and Video events
0,0,"bg.jpg"
//Break Periods
2,79681,86567
//Storyboard Layer 0 (Background)
//Storyboard Layer 1 (Fail)
//Storyboard Layer 2 (Pass)
//Storyboard Layer 3 (Foreground)
//Storyboard Sound Samples
//Background Colour Transformations
3,100,163,162,255

[TimingPoints]
8295,508.474576271186,4,2,1,25,1,0
16557,-100,4,2,1,5,0,0
21006,-200,4,2,1,10,0,0
35752,-133.333333333333,4,2,1,10,0,0
36769,-200,4,2,1,20,0,0
46430,-133.333333333333,4,2,1,20,0,0
53040,-200,4,2,1,20,0,0
54057,-133.333333333333,4,2,1,20,0,0
55074,-100,4,2,1,5,0,0
58125,-100,4,2,1,25,0,0
59142,-100,4,2,1,35,0,1
73379,-200,4,2,1,15,0,1
77193,-200,4,2,1,5,0,1
79481,-200,4,2,1,5,0,0
87617,-200,4,2,1,10,0,0
94735,-133.333333333333,4,2,1,20,0,0
95244,-100,4,2,1,30,0,0
95752,-100,4,2,1,35,0,0
113040,-100,4,2,1,40,0,0
113294,-100,4,2,1,45,0,0
113549,-100,4,2,1,50,0,0
114057,-100,4,2,1,60,0,1
114566,-100,4,1,1,20,0,1
115328,-100,4,2,1,60,0,1
115837,-100,4,1,1,20,0,1
117108,-100,4,2,1,60,0,1
118125,-100,4,1,1,25,0,1
118379,-100,4,2,1,60,0,1
119142,-100,4,1,1,20,0,1
119396,-100,4,2,1,60,0,1
120159,-100,4,1,1,25,0,1
120667,-100,4,2,1,55,0,1
120922,-100,4,1,1,15,0,1
121176,-100,4,2,1,50,0,1
121430,-100,4,1,1,15,0,1
121684,-100,4,1,1,15,0,1
121684,-100,4,2,1,55,0,1
121939,-100,4,2,1,40,0,1
122066,-100,4,1,1,18,0,1
122574,-100,4,2,1,50,0,1
122956,-100,4,1,1,15,0,1
123210,-100,4,1,1,20,0,1
123464,-100,4,2,1,50,0,1
123972,-100,4,1,1,18,0,1
124735,-100,4,2,1,55,0,1
126261,-100,4,1,1,18,0,1
126515,-100,4,2,1,50,0,1
127023,-100,4,1,1,18,0,1
127786,-100,4,2,1,50,0,1
128040,-100,4,1,1,15,0,1
128803,-100,4,2,1,50,0,1
129057,-100,4,1,1,15,0,1
129311,-100,4,2,1,45,0,1
129566,-100,4,1,1,15,0,1
129820,-100,4,2,1,55,0,1
130074,-100,4,1,1,15,0,1
130710,-100,4,2,1,55,0,1
131091,-100,4,1,1,20,0,1
131600,-100,4,2,1,60,0,1
132108,-100,4,1,1,15,0,1
132744,-100,4,2,1,55,0,1
134396,-100,4,1,1,15,0,1
134650,-100,4,2,1,55,0,1
135159,-100,4,1,1,18,0,1
135667,-100,4,2,1,50,0,1
136176,-100,4,1,1,15,0,1
136684,-100,4,2,1,50,0,1
137701,-100,4,1,1,15,0,1
137956,-100,4,2,1,50,0,1
138464,-100,4,1,1,18,0,1
138845,-100,4,2,1,45,0,1
139481,-100,4,1,1,15,0,1
139735,-100,4,2,1,50,0,1
140244,-100,4,1,1,18,0,1
141006,-100,4,2,1,52,0,1
142532,-100,4,1,1,20,0,1
142786,-100,4,2,1,45,0,1
143549,-100,4,1,1,20,0,1
143803,-100,4,1,1,15,0,1
144057,-100,4,2,1,40,0,1
144311,-100,4,1,1,15,0,1
146600,-100,4,2,1,5,0,1
149650,-200,4,2,1,35,0,0
153718,-200,4,2,1,5,0,0
154227,-200,4,2,1,25,0,0
156261,-200,4,2,1,5,0,0
157786,-200,4,2,1,15,0,0
161600,-200,4,2,1,10,0,0
161727,-200,4,2,1,5,0,0

[Colours]
Combo1 : 240,203,140
Combo2 : 13,216,232
Combo3 : 252,131,173
Combo4 : 223,206,221

[HitObjects]
104,192,8294,2,0,B|160:128|256:184,1,140,4|0
264,184,9057,2,0,B|344:216|400:136,1,140,2|0
400,120,9820,2,0,B|408:264,1,140,2|0
407,259,10837,1,0
344,320,11091,1,0
256,304,11345,2,0,B|224:352|150:340,1,105,2|0
128,344,11854,2,0,B|216:384,1,70
48,304,12362,6,0,B|8:272|8:192|96:184,1,140,2|0
152,256,13125,1,0
224,184,13379,2,0,B|282:150|277:75|208:56,1,140,2|0
152,120,14142,1,0
72,168,14396,5,0
160,32,14778,1,0
72,168,15159,2,0,B|80:240,1,70,0|2
94,322,15667,1,0
184,296,15922,2,0,B|248:272|304:304|248:336|232:288|256:264|288:272|288:299,1,140
256,192,16557,12,0,20498
72,192,21515,6,0,B|152:176,1,70
140,178,22532,1,2
440,320,23549,2,0,B|368:296,1,70
373,297,24566,1,2
248,48,25583,1,0
304,104,26091,1,0
384,96,26600,6,0,B|424:112|411:161,1,70,2|0
288,280,27617,2,0,B|248:264|261:215,1,70
456,272,28633,5,2
440,307,29142,1,0
390,350,29650,1,2
317,352,30159,1,0
248,304,30667,6,0,B|210:351|142:322,1,105,2|0
104,296,31684,2,0,B|144:360,2,70,2|0|2
64,232,33210,1,0
0,104,33718,5,2
88,128,34227,1,0
176,152,34735,2,0,B|222:169|237:116,1,70,2|0
112,216,35752,2,0,B|153:261|231:234,1,104.999996870756,2|0
16,253,36769,2,0,B|29:329|127:344,1,140,2|2
400,304,38294,5,4
400,304,38549,2,0,B|368:280|384:232,1,70
432,176,39311,1,2
488,240,39566,1,0
404,93,39820,6,0,B|380:45|420:21,1,70,2|0
346,154,40583,2,0,B|314:178|266:154,1,70,0|0
208,112,41345,1,2
192,32,41600,1,0
120,80,41854,6,0,B|136:112|104:152,1,70,2|0
64,14,42617,1,0
192,32,42871,1,2
272,56,43125,2,0,B|296:24|344:40,1,70
408,72,43888,1,2
440,152,44142,1,0
389,227,44396,1,2
280,232,44650,6,0,B|264:192|216:200,1,70
136,232,45413,1,2
152,312,45667,1,0
216,336,45922,1,2
272,328,46176,1,0
312,296,46430,6,0,B|328:272|376:288,1,52.4999984353781,2|0
440,336,46939,2,0,B|488:312|480:256,1,78.7499976530672,2|0
424,144,47701,1,0
352,112,47956,6,0,B|344:144|296:160,1,52.4999984353781,2|0
328,40,48464,1,0
424,144,48718,2,0,B|424:208|360:240,1,104.999996870756,0|0
297,251,49481,1,2
222,227,49735,1,0
178,152,49989,6,0,B|112:166|90:96,1,104.999996870756,2|0
169,75,50752,1,0
248,104,51006,5,2
328,88,51261,1,0
406,113,51515,1,0
441,186,51769,1,2
416,264,52023,6,0,B|408:336|334:328,1,104.999996870756,2|0
264,312,52786,1,0
192,352,53040,6,0,B|176:328|152:336,1,35,2|0
192,352,53549,1,0
89,327,53803,1,2
208,248,54057,6,0,B|170:244|162:196,1,52.4999984353781,2|0
208,248,54566,1,0
134,143,54820,1,2
244,139,55074,6,0,B|324:179|388:163|436:107|452:19|316:13|241:127|364:234|470:188,1,420,2|0
416,304,57108,2,0,B|272:216|128:312,1,280,0|2
72,352,58379,5,0
62,267,58633,1,0
104,192,58888,1,2
186,154,59142,2,0,B|256:166|268:88,1,105,4|0
280,80,59650,2,0,B|314:164,1,70,0|2
352,216,60159,5,8
296,296,60413,1,0
198,295,60667,1,0
120,352,60922,2,0,B|72:336|64:248|136:224,1,140,2|0
198,295,61684,1,0
248,376,61939,1,2
240,208,62193,6,0,B|216:168|248:120,1,70,8|2
296,72,62701,1,2
384,104,62956,1,0
440,176,63210,6,0,B|464:224|424:264,1,70
472,96,63718,2,0,B|448:48|488:8,2,70,2|0|8
440,176,64481,1,2
352,192,64735,1,0
272,152,64989,1,2
184,176,65244,6,0,B|144:176|136:112|152:72|192:72,1,140,0|2
272,152,66006,1,0
352,192,66261,1,8
344,280,66515,1,2
424,320,66769,2,0,B|464:304|456:248,1,70
455,247,67150,1,0
447,230,67278,6,0,B|440:192|464:160,1,70,2|0
448,24,67786,1,0
497,90,68040,1,2
377,69,68294,6,0,B|336:80|289:40,1,70,8|2
377,69,68803,1,0
264,136,69057,2,0,B|208:136|192:176,2,70,2|0|0
360,160,69820,1,0
400,248,70074,1,2
260,316,70328,6,0,B|288:280|340:300,2,70,8|2|0
176,344,71091,1,2
96,312,71345,2,0,B|56:285|88:224,1,70,2|0
96,312,71854,1,0
119,175,72108,1,2
208,72,72362,6,0,B|242:103|208:152,1,70,8|2
194,217,72871,1,0
208,72,73125,1,2
296,56,73379,6,0,B|353:85|400:24,1,105,4|0
390,35,74396,1,8
296,56,74650,1,2
464,144,75159,1,0
464,144,75286,1,0
464,144,75413,6,0,B|456:224,1,70
444,293,76176,1,2
256,352,76684,1,0
256,352,77193,2,0,B|312:288|304:216|272:128|192:120,1,280,0|2
112,128,79481,5,4
256,192,87617,5,4
224,248,88125,5,0
288,248,88379,1,2
176,300,88888,5,2
336,300,89142,1,0
176,300,89396,1,2
256,64,89905,1,0
256,64,90413,1,2
256,152,90667,6,0,B|216:144,1,35,0|2
256,152,91176,2,0,B|296:144,1,35,0|2
256,242,91684,2,0,B|295:255|285:300|254:309|239:306|220:290,1,105,0|2
384,192,92956,1,2
384,192,93464,1,0
432,120,93718,5,2
376,56,93972,1,0
287,65,94227,2,0,B|269:72|256:56,1,35,0|2
136,88,94735,6,0,B|168:88|184:120,1,52.4999984353781,0|2
40,136,95244,6,0,B|8:104|32:56,1,70,0|2
120,192,95752,5,4
80,278,96006,2,0,B|136:339|232:294,1,140,0|2
278,249,96769,1,8
368,216,97023,2,0,B|368:288,1,70
448,168,97532,2,0,B|404:163|384:58|448:32,1,140,0|0
502,100,98294,1,2
480,336,98803,5,10
400,304,99057,1,0
325,344,99311,1,0
240,344,99566,2,0,B|194:325|180:279|192:238|233:204,1,140,2|0
284,273,100328,1,0
325,344,100583,1,2
352,224,100837,6,0,B|408:157|356:78,1,140,10|0
303,33,101600,1,0
224,72,101854,2,0,B|160:96|96:64,1,105,2|0
0,10,102617,1,0
41,80,102871,1,10
14,155,103125,1,0
50,226,103379,1,0
128,256,103633,2,0,B|176:272|240:232|224:152,2,140,0|2|0
151,184,104905,6,0,B|160:112,1,70,10|0
169,39,105413,1,0
249,47,105667,2,0,B|305:92|386:55,1,140,2|0
451,20,106430,1,0
488,96,106684,1,2
464,176,106939,6,0,B|391:236|318:161,1,140,10|0
399,119,107701,1,0
256,208,107956,5,2
210,279,108210,1,0
128,301,108464,1,0
53,265,108718,1,2
64,184,108972,6,0,B|40:144|72:104,1,70,8|2
210,279,109481,2,0,B|226:319|186:359,1,70,0|2
392,192,109989,2,0,B|363:126|324:20|504:48|452:175|342:190|314:137,1,280,2|8
266,94,111261,1,0
200,152,111515,2,0,B|179:190|96:192|72:120,1,140,0|2
255,219,112532,5,0
312,280,113040,2,0,B|400:288,2,70
304,144,113803,1,0
360,72,114057,2,0,B|432:112|390:201,1,140,4|0
463,253,114820,1,0
463,253,115074,6,0,B|496:184,1,70,8|0
376,280,115583,2,0,B|343:349,1,70,0|0
272,296,116091,2,0,B|224:328|160:288,1,105
147,275,116600,1,0
101,204,116854,1,0
32,256,117108,6,0,B|48:304|16:328,1,70,2|0
101,204,117617,2,0,B|86:155|118:131,1,70,0|0
182,98,118125,1,0
258,124,118379,1,0
260,137,118506,1,0
263,149,118633,2,0,B|331:105,1,70
398,64,119142,5,8
464,184,119396,1,0
440,168,119523,1,0
416,152,119650,2,0,B|456:232,1,70
496,296,120159,6,0,B|424:280|384:344,1,105
376,344,120667,2,0,B|360:248,1,70
272,328,121176,1,2
256,312,121303,1,0
240,296,121430,1,0
88,293,121684,1,0
102,275,121811,1,0
118,259,121939,1,0
134,243,122066,1,0
149,226,122193,6,0,B|87:198|116:126,1,105
118,113,122701,2,0,B|41:167,1,70
136,24,123210,1,8
232,40,123464,1,0
256,48,123591,1,0
279,55,123718,2,0,B|318:81|353:35,1,70
432,8,124227,6,0,B|388:92|480:144,1,140
471,237,124989,1,0
382,298,125244,6,0,B|302:282,1,70,2|0
218,264,125752,1,0
144,320,126006,1,0
50,333,126261,5,8
80,248,126515,1,0
48,168,126769,1,0
80,88,127023,1,0
165,71,127278,6,0,B|205:63|237:87,1,70
197,155,127786,2,0,B|229:179|229:227,1,70
175,282,128294,5,0
258,323,128549,1,0
258,323,128676,1,0
258,323,128803,2,0,B|272:280|339:287,1,70
408,328,129311,1,2
416,312,129439,1,0
424,296,129566,1,0
424,192,129820,1,0
409,172,129947,1,0
392,154,130074,1,0
376,136,130201,1,0
357,120,130328,6,0,B|336:65|415:27,2,105,4|0|0
272,128,131345,2,0,B|232:104|200:136,1,70,8|0
240,208,131854,2,0,B|216:248|168:232,1,70
328,200,132362,1,0
442,294,132744,1,0
494,157,133125,1,0
442,294,133379,6,0,B|424:328|368:328,1,70,2|0
310,282,133888,2,0,B|279:311|222:282,1,70
179,229,134396,1,0
106,277,134650,1,0
63,352,134905,1,0
13,280,135159,1,0
24,192,135413,6,0,B|64:173|56:128,1,70,8|0
146,146,135922,2,0,B|176:118|225:137,1,70
296,160,136430,1,0
388,156,136684,1,0
388,155,136811,2,0,B|336:112|374:40,1,105
464,208,137447,1,2
462,228,137574,1,0
462,248,137701,1,0
352,256,137956,1,0
343,268,138083,1,0
334,281,138210,1,0
240,312,138464,6,0,B|200:264|120:288,2,105
304,368,139481,1,8
384,343,139735,1,0
423,269,139989,1,0
397,189,140244,1,0
320,160,140498,6,0,B|328:80,1,70
246,72,141006,1,0
184,15,141261,1,0
104,40,141515,6,0,B|136:80|104:120,1,70,2|0
24,216,142023,2,0,B|8:168|56:144,1,70
105,260,142532,1,0
60,335,142786,1,0
148,329,143040,1,0
226,368,143294,1,0
296,320,143549,6,0,B|336:312|352:256,1,70,8|0
424,320,144057,2,0,B|456:288|440:240,1,70
408,176,144566,1,4
165,63,145328,1,0
88,320,146091,1,0
256,192,146600,12,0,148633
80,192,149650,6,0,B|121:192|125:247,1,70
38,280,150667,2,0,B|86:344|167:321,1,140,2|0
266,266,152193,1,0
288,152,152701,2,0,B|241:79|301:25,1,140,2|0
400,184,154227,5,0
417,206,154481,1,0
435,230,154735,1,2
344,336,155244,2,0,B|256:352|224:288,1,140
256,48,157786,5,2
368,192,158294,1,0
256,336,158803,1,2
256,336,159311,2,0,B|208:320|208:232|232:200,1,140,0|2
416,320,161600,1,2
256,192,161727,12,0,168972
