osu file format v9

[General]
AudioFilename: daiche -wen - ji ou yang shao gong.mp3
AudioLeadIn: 0
PreviewTime: 21006
Countdown: 0
SampleSet: Soft
StackLeniency: 0.7
Mode: 0
LetterboxInBreaks: 1

[Editor]
DistanceSpacing: 0.9
BeatDivisor: 4
GridSize: 8

[Metadata]
Title:Wen - Ji Ou Yang Shao Gong
Artist:qinche
Creator:goodbye
Version:Easy
Source:
Tags:Gujianqitan xiangxiang sanyue eveless daidai TW-KUMA01 gujian

[Difficulty]
HPDrainRate:2
CircleSize:4
OverallDifficulty:2
ApproachRate:3
SliderMultiplier:0.8
SliderTickRate:0.5

[Events]
//Background and Video events
0,0,"bg.jpg"
//Break Periods
2,79681,93295
//Storyboard Layer 0 (Background)
//Storyboard Layer 1 (Fail)
//Storyboard Layer 2 (Pass)
//Storyboard Layer 3 (Foreground)
//Storyboard Sound Samples
//Background Colour Transformations
3,100,163,162,255

[TimingPoints]
8295,508.474576271186,4,2,1,25,1,0
59142,-100,4,2,1,25,0,1
77447,-100,4,2,1,5,0,1
79481,-100,4,2,1,5,0,0
94735,-100,4,2,1,35,0,0
109989,-100,4,2,1,5,0,0
113040,-100,4,2,1,20,0,0
113549,-100,4,2,1,30,0,0
114057,-100,4,2,1,40,0,1
144566,-100,4,2,1,5,0,1
148633,-100,4,2,1,5,0,0

[Colours]
Combo1 : 240,203,140
Combo2 : 13,216,232
Combo3 : 252,131,173
Combo4 : 223,206,221

[HitObjects]
55,186,8294,2,0,B|112:106|201:162,1,160,4|8
245,209,9820,1,0
304,256,10328,6,0,B|400:240|392:136,1,160,0|8
368,75,11854,1,0
304,40,12362,6,0,B|241:84|144:40,1,160,0|8
120,24,13633,1,0
78,123,14396,6,0,B|44:203|141:271,1,160,0|8
194,290,15922,1,0
264,280,16430,6,0,B|320:240|384:288|384:336,1,160,2|0
456,328,17956,1,0
456,256,18464,6,0,B|394:309|281:284|257:192,1,240
456,104,21515,6,0,B|368:128|309:49,1,160,0|2
200,144,23549,2,0,B|256:64|344:112,1,160,0|2
136,192,26091,6,0,B|97:221|48:192,1,80,0|2
128,72,27617,1,0
272,72,28633,1,2
368,176,29650,6,0,B|376:248|296:272|248:240,1,160,0|2
112,264,31684,2,0,B|104:192|184:168|232:200,1,160,0|2
232,344,33718,1,2
376,320,34735,6,0,B|408:288|456:296,1,80
448,224,35752,2,0,B|488:200|488:152,1,80
416,160,36769,6,0,B|405:112|308:84|271:135,1,160,0|2
230,175,38294,1,0
192,232,38803,6,0,B|141:234|112:184,2,80,4|0|0
264,240,40328,2,0,B|328:184|419:214,1,160
480,248,41854,1,2
464,320,42362,1,0
392,328,42871,6,0,B|312:312|280:376,1,120
256,384,43888,2,0,B|216:304,1,80
184,248,44905,5,0
112,256,45413,2,0,B|48:200|80:104,1,160
88,40,46939,2,0,B|136:40|152:96,1,80
171,152,47956,2,0,B|256:184|325:134,1,160
374,84,49481,1,0
424,32,49989,6,0,B|369:121|445:188,1,160,2|0
464,200,51261,2,0,B|416:264,1,80
392,288,52023,2,0,B|359:309|314:283,1,80,2|0
280,224,53040,6,0,B|313:203|358:229,1,80,2|0
408,176,54057,2,0,B|368:152|376:96,1,80,2|0
256,192,55074,12,0,57108
152,192,58125,6,0,B|104:192|84:133,1,80
156,121,59142,6,0,B|240:80|316:121,1,160,4|8
374,157,60667,1,0
384,232,61176,2,0,B|304:288|232:208,1,160,0|8
208,152,62701,1,0
136,152,63210,6,0,B|128:200|64:208,1,80
72,136,64227,2,0,B|64:56,1,80,8|0
128,32,65244,6,0,B|192:88|277:47,1,160,0|8
344,16,66769,1,0
408,56,67278,6,0,B|440:144|384:224,1,160,0|8
328,248,68803,1,0
256,264,69311,6,0,B|208:192|104:240,1,160,0|8
56,280,70837,1,0
40,208,71345,6,0,B|40:80,2,120,2|0|0
56,280,73379,2,0,B|112:344|216:320,1,160,0|8
236,311,74650,1,0
337,274,75413,2,0,B|297:186|193:210,1,160,0|2
256,192,77447,12,4,79481
72,192,94735,6,0,B|112:152|192:168,1,120
216,192,95752,2,0,B|296:136,1,80,4|0
344,104,96769,1,8
336,248,97786,6,0,B|264:304,1,80
216,344,98803,1,8
112,248,99820,6,0,B|112:200|80:176,1,80
41,237,100837,1,8
32,96,101854,6,0,B|59:57|104:72,1,80
88,142,102871,1,8
232,112,103888,6,0,B|272:128|312:104,2,80,0|0|8
181,61,105413,1,0
160,128,105922,2,0,B|144:168|176:208,1,80
223,254,106939,2,0,B|231:302|183:326,1,80,8|0
153,259,107956,6,0,B|80:232|25:283,1,120
7,289,108972,2,0,B|31:201,1,80,8|0
256,192,109989,12,0,112023
264,192,113040,5,0
200,224,113549,1,0
128,208,114057,2,0,B|84:149|132:84,1,120,4|0
149,70,115074,1,8
224,80,115583,1,0
288,40,116091,2,0,B|368:88|448:32,1,160,0|2
480,96,117617,1,0
440,152,118125,6,0,B|368:208|416:296,1,160,0|8
344,296,119650,1,0
296,352,120159,2,0,B|280:312|240:320,2,60
256,352,121176,6,0,B|168:352,1,80,2|0
150,284,122193,2,0,B|70:244|90:147,1,160,0|8
121,85,123718,1,0
192,88,124227,6,0,B|253:156|351:117,1,160,0|2
403,90,125752,1,0
448,144,126261,6,0,B|400:224|448:296,1,160,0|8
498,345,127786,1,0
424,344,128294,6,0,B|296:344,1,120
267,344,129311,1,2
194,344,129820,1,0
120,344,130328,6,0,B|88:256|152:184,1,160,4|8
216,168,131854,1,0
256,104,132362,6,0,B|338:152|424:104,1,160,0|2
468,70,133888,1,0
480,144,134396,6,0,B|456:272,2,120
468,71,136430,1,0
400,46,136939,1,0
335,77,137447,1,2
265,57,137956,1,0
192,72,138464,6,0,B|120:96|80:32,1,120,4|0
64,16,139481,2,0,B|80:104,1,80,8|0
96,168,140498,6,0,B|88:264|200:288,1,160,0|2
256,296,142023,1,0
304,352,142532,6,0,B|408:388|449:291,1,160,0|8
463,238,144057,1,0
256,192,144566,12,0,148633
120,192,149650,6,0,B|200:232|278:183,1,160,0|2
374,84,151684,2,0,B|302:140|358:236,1,160,0|2
477,300,153718,1,0
477,300,154227,1,0
477,300,154735,6,0,B|414:349|312:312,1,160,2|0
248,40,157786,1,0
272,112,158294,1,0
176,216,159311,1,0
256,192,159439,12,0,168972
