osu file format v9

[General]
AudioFilename: Qing Ming Shang He Xiao.mp3
AudioLeadIn: 0
PreviewTime: 18848
Countdown: 0
SampleSet: Soft
StackLeniency: 0.7
Mode: 0
LetterboxInBreaks: 1

[Editor]
Bookmarks: 134757
DistanceSpacing: 1.2
BeatDivisor: 4
GridSize: 4

[Metadata]
Title:Qing Ming Shang He Xiao
Artist:qinche
Creator:goodbye
Version:Normal
Source:
Tags:mo ming qi miao momingqimiao daidai dai spboxer3 eveless

[Difficulty]
HPDrainRate:2
CircleSize:3
OverallDifficulty:3
ApproachRate:4
SliderMultiplier:1.2
SliderTickRate:1

[Events]
//Background and Video events
0,0,"daidai.jpg"
//Break Periods
2,94048,109164
//Storyboard Layer 0 (Background)
//Storyboard Layer 1 (Fail)
//Storyboard Layer 2 (Pass)
//Storyboard Layer 3 (Foreground)
//Storyboard Sound Samples
//Background Colour Transformations
3,100,163,162,255

[TimingPoints]
2212,545.454545454546,4,2,1,15,1,0
10939,-100,4,2,1,50,0,0
17484,-100,4,2,1,20,0,0
17757,-100,4,2,1,50,0,0
58939,-100,4,2,1,50,0,1
93848,-100,4,2,1,20,0,0
93984,-100,4,2,1,50,0,0
150575,-100,4,2,1,50,0,1
185484,-100,4,2,1,50,0,0

[Colours]
Combo1 : 0,128,64
Combo2 : 128,0,255
Combo3 : 0,128,192
Combo4 : 255,0,128

[HitObjects]
304,224,2212,2,0,B|379:224|379:224|432:192,2,120,0|0|8
168,168,3848,2,0,B|48:168,1,120,0|2
152,64,4939,6,0,B|224:40|288:72,1,120,0|8
336,40,5757,1,0
408,40,6030,1,0
480,64,6302,1,0
424,112,6575,6,0,B|408:176|344:192,1,120,2|0
280,160,7393,1,0
216,192,7666,2,0,B|168:192|168:192|144:184|144:184|80:184,2,120,8|0|0
256,328,9302,6,0,B|312:352|376:328,2,120,0|8|0
112,352,10939,6,0,B|72:296|112:240,1,120,2|0
160,184,11757,2,0,B|208:128,1,60,0|8
336,184,12575,2,0,B|392:160|456:184,1,120
453,327,13666,2,0,B|397:351|333:327,1,120,2|8
208,261,14757,6,0,B|128:261,2,60
256,192,15575,12,4,17484
256,256,18848,6,0,B|320:256|320:256|352:256|368:216,1,120,0|2
256,128,19939,2,0,B|192:128|192:128|160:128|144:168,1,120,0|2
152,304,21030,2,0,B|80:304|40:232,1,120,0|2
50,105,22121,2,0,B|64:64|64:64|96:32|152:32,1,120,0|2
328,128,23484,6,0,B|376:128|376:128|408:144|408:144|464:144,1,120,0|2
496,192,24302,1,0
448,248,24575,2,0,B|411:248|411:248|379:264|379:264|331:264,1,120,0|2
208,192,25666,2,0,B|136:192,1,60,0|2
104,248,26212,6,0,B|152:296|152:296|232:280|240:328|336:296,1,240,0|8
384,264,27575,6,0,B|456:272,2,60,0|0|2
256,192,28666,2,0,B|184:184,2,60,2|0|2
392,136,29757,6,0,B|328:124,1,60
264,112,30302,2,0,B|208:104|208:104|128:104,1,120,2|0
80,144,31121,2,0,B|64:184|88:208,1,60
144,240,31666,5,2
120,312,31939,1,0
184,352,32212,1,0
256,328,32484,2,0,B|312:304|376:328,1,120
440,352,33302,1,2
336,248,33848,6,0,B|264:232,2,60,0|0|2
400,224,34666,2,0,B|432:168|392:88,1,120,0|0
344,64,35484,2,0,B|216:64,1,120,2|0
160,96,36302,6,0,B|88:96,2,60,0|0|0
192,160,37121,1,2
480,160,38212,6,0,B|440:152|408:176|352:160,1,120
328,224,39030,2,0,B|320:280|272:280|272:280|216:280,1,120,2|0
168,280,39848,1,0
56,192,40393,1,2
336,120,41212,6,0,B|264:112,2,60,0|0|0
400,160,42030,2,0,B|440:216|400:272,1,120,2|0
336,304,42848,1,0
264,304,43121,2,0,B|184:304,1,60,0|2
64,280,43939,2,0,B|136:280,1,60
328,216,45030,6,0,B|272:200|272:200|208:200,1,120,0|2
152,184,45848,2,0,B|88:160|88:72,1,120,0|0
232,90,46939,6,0,B|294:89|294:89|352:56,1,120,2|0
408,96,47757,2,0,B|448:144|432:224,1,120,2|0
384,256,48575,2,0,B|328:312,1,60,2|0
56,320,49939,6,0,B|88:368|184:368,1,120,0|0
200,304,50757,2,0,B|248:232,1,60,2|0
272,192,51302,2,0,B|345:191|377:239,1,120
416,296,52121,2,0,B|440:328|432:376|432:376|480:360|488:288,1,180,2|0
448,160,53484,6,0,B|392:112|328:112,1,120,2|0
272,112,54302,2,0,B|152:112,1,120
256,192,55121,12,0,57848
256,192,58939,6,0,B|264:272|336:296,1,120,0|0
448,352,60030,2,0,B|440:272|368:248,1,120,0|10
368,112,61121,6,0,B|416:64|504:96,2,120,0|0|0
232,144,62757,1,10
112,216,63303,6,0,B|152:272|224:288|288:232,1,180,0|2
304,184,64394,2,0,B|350:141|422:157|462:213,1,180
376,328,65757,2,0,B|296:328,1,60,0|2
176,296,66576,6,0,B|104:296,1,60
56,256,67121,2,0,B|56:120,1,120,8|0
200,152,68212,6,0,B|280:152,1,60
320,184,68757,2,0,B|360:208|352:272|320:288,1,120,0|10
192,336,69848,2,0,B|56:336,2,120,0|2|0
336,368,71485,1,8
456,288,72030,6,0,B|352:288|320:160,1,180,0|2
264,144,73121,2,0,B|200:120|144:160|80:144,1,180,0|0
80,288,74485,2,0,B|128:336,1,60,2|0
264,312,75303,6,0,B|344:312,2,60,0|0|8
204,272,76121,1,0
192,200,76394,6,0,B|160:144|64:136,1,120,2|0
224,80,77484,2,0,B|272:80|272:80|304:88|304:88|360:88,1,120,0|8
456,176,78576,6,0,B|456:232|408:248|408:248|296:248,1,180,0|2
256,220,79666,2,0,B|136:220,1,120,0|8
208,104,80757,6,0,B|256:48|328:40,2,120,0|2|0
336,168,82394,1,8
392,208,82666,2,0,B|416:288|336:320,1,120,0|2
144,288,84030,2,0,B|64:288,2,60,0|0|10
256,192,85121,6,0,B|312:176|312:176|376:192,1,120,0|0
256,280,86212,2,0,B|312:296|312:296|376:280,1,120,2|8
472,176,87303,2,0,B|478:68|366:22,1,180,0|2
336,88,88394,2,0,B|280:120|208:80,1,120,0|10
88,40,89485,6,0,B|104:136|208:176,1,180,0|2
264,200,90576,2,0,B|264:280,2,60,0|0|8
320,152,91394,2,0,B|368:128|440:152,1,120,0|2
256,192,92212,12,4,93848
248,208,110484,6,0,B|216:232|168:232|136:208,1,120,0|2
272,168,111575,2,0,B|304:144|352:144|384:168,1,120,0|2
472,288,112666,6,0,B|472:144,1,120,0|2
352,88,113757,2,0,B|320:72|320:72|232:72,1,120,0|2
104,248,115121,6,0,B|64:304,2,60,0|0|2
144,192,115939,1,0
176,256,116212,2,0,B|239:295|304:248,1,120,0|2
392,160,117302,6,0,B|336:192,2,60,2|0|0
488,48,118393,1,0
352,96,118939,6,0,B|272:96,1,60,2|0
240,40,119484,1,0
176,80,119757,2,0,B|128:80|128:80|104:72|104:72|48:72,1,120,2|0
80,144,120575,1,0
56,216,120848,2,0,B|102:216|102:216|126:208|126:208|174:208,1,120,2|0
232,256,121666,5,0
296,288,121939,2,0,B|336:288|336:288|392:288|400:224,1,120,2|0
344,192,122757,2,0,B|272:192,1,60
224,152,123302,2,0,B|227:108|283:108|283:108|323:108,1,120,2|0
392,112,124121,6,0,B|480:152|472:272,1,180,0|2
272,336,125757,2,0,B|200:336,1,60
144,360,126302,2,0,B|104:360|104:360|40:312|88:224,1,180,0|2
264,120,127939,6,0,B|344:120,2,60
200,88,128757,2,0,B|128:88|112:168,1,120,10|0
56,288,129848,6,0,B|128:288|128:288|184:272,1,120
200,344,130666,2,0,B|246:330|246:330|318:330,1,120,2|0
360,272,131484,5,0
432,256,131757,1,0
381,205,132030,2,0,B|376:160|365:133|301:117,1,120,10|0
248,160,132848,6,0,B|176:160,2,60,0|0|0
288,216,133666,2,0,B|288:264|288:264|304:288|304:288|304:336,1,120,2|0
240,368,134484,5,0
168,352,134757,2,0,B|88:352,1,60
40,224,135575,2,0,B|96:184|160:224,1,120,2|0
216,256,136393,1,8
280,288,136666,6,0,B|280:368,2,60
352,264,137484,2,0,B|416:248|440:160,1,120,2|0
480,48,138575,6,0,B|344:48,1,120,8|0
288,72,139393,2,0,B|232:88|232:88|168:72,1,120,2|0
104,48,140212,1,0
120,120,140484,2,0,B|144:176|120:240,1,120,0|0
88,304,141302,1,10
144,344,141575,5,0
208,312,141848,2,0,B|264:280|344:320,1,120,0|2
432,216,142939,2,0,B|488:160,2,60
360,240,143757,2,0,B|296:224|288:144|216:120,1,180,2|8
104,200,145121,6,0,B|80:280|160:320,1,120
209,306,145939,2,0,B|345:306,1,120,2|2
256,192,146757,12,0,149484
256,192,150575,6,0,B|280:128|360:104,1,120,0|2
320,256,151666,2,0,B|379:239|403:175,1,120,0|10
408,80,152757,6,0,B|488:96|496:168,1,120,0|2
464,216,153575,1,0
496,280,153848,2,0,B|490:337|410:353,1,120,0|10
272,328,154938,6,0,B|136:304,1,120,0|2
48,216,156030,2,0,B|0:256,2,60,0|0|8
104,168,156848,2,0,B|124:149|152:128|152:128|176:120|208:128,1,120,0|0
280,128,157666,1,2
416,80,158212,2,0,B|464:128|440:208,1,120,0|10
368,312,159302,6,0,B|352:344|272:344|256:312,1,120,0|2
312,264,160121,1,0
368,216,160393,2,0,B|352:184|272:184|256:216,1,120,0|10
152,304,161484,6,0,B|88:360,2,60,0|0|2
184,240,162302,1,0
172,168,162575,2,0,B|212:168|212:168|252:152|252:152|292:152,1,120,0|10
408,72,163666,6,0,B|336:72,2,60,0|0|2
456,128,164484,1,0
456,200,164757,2,0,B|448:248|416:264|416:264|352:264,1,120,8|10
304,240,165575,2,0,B|256:240|256:240|224:256|224:256|168:256,1,120
208,184,166393,6,0,B|112:184|112:184|40:160|40:104|64:64,1,240,2|8
200,48,168029,6,0,B|256:64|256:64|320:48,1,120,0|2
376,88,168848,1,0
440,128,169120,2,0,B|480:184|440:248,1,120,0|10
312,304,170211,6,0,B|232:304,2,60
376,264,171029,1,2
336,200,171302,2,0,B|384:160|360:72,1,120,0|10
224,72,172393,6,0,B|152:72,1,60
104,112,172938,2,0,B|40:112,1,60,2|0
64,184,173484,2,0,B|96:248|56:312,1,120,0|10
120,344,174302,2,0,B|248:344,1,120
312,344,175120,1,2
456,328,175666,2,0,B|480:272|464:200,1,120,0|10
328,160,176757,6,0,B|304:224|216:208,1,120,0|2
160,224,177575,1,0
104,272,177848,2,0,B|120:304|200:304|216:272,1,120,0|10
344,336,178938,6,0,B|408:296,2,60,0|0|2
272,352,179757,1,0
200,336,180029,2,0,B|160:336|160:336|120:320|120:320|64:320,1,120,0|10
88,176,181120,6,0,B|40:128,2,60,0|0|2
152,208,181938,1,0
216,176,182211,2,0,B|240:152|296:152|336:176,1,120,0|10
296,240,183029,2,0,B|329:260|385:260|409:236,1,120
440,168,183848,2,0,B|440:40,1,120,2|0
317,107,184938,6,0,B|280:96|280:96|192:96,1,120,10|4
