osu file format v9

[General]
AudioFilename: daiche - meltdown.mp3
AudioLeadIn: 0
PreviewTime: 184712
Countdown: 0
SampleSet: Soft
StackLeniency: 0.7
Mode: 0
LetterboxInBreaks: 1

[Editor]
Bookmarks: 7265,30537,53810,79277,90894,101095,125822,151277,162913,186186,209459,232731,258913,284367,296003,319276
DistanceSpacing: 1.7
BeatDivisor: 4
GridSize: 4

[Metadata]
Title:Meltdown
Artist:qinche
Creator:eveless
Version:Dai
Source:
Tags:meltdai daidai daiche vocaloid kagamine rin AngelHoney Alace Aakiha deepsea Sprosive ignorethis Kioukiou Kanbekotori Kiddly TW-KUMA01 xierbaliti Clare littlecar3370

[Difficulty]
HPDrainRate:5
CircleSize:4
OverallDifficulty:5
ApproachRate:8
SliderMultiplier:1.9
SliderTickRate:0.5

[Events]
//Background and Video events
0,0,"13885923.jpg"
//Break Periods
2,90731,100326
2,162731,185417
2,232912,258144
//Storyboard Layer 0 (Background)
//Storyboard Layer 1 (Fail)
//Storyboard Layer 2 (Pass)
//Storyboard Layer 3 (Foreground)
Sprite,Foreground,Centre,"sb\ignorethis.png",320,240 M,0,6895,7259,480,418,478,418 F,0,6895,7259,0,1 S,0,6895,7259,0.5,0.8 M,0,7259,,478,418,478,416 F,0,7259,29804,1 S,0,7259,29804,0.8 S,0,29804,,0.8 F,0,29804,30168,1,0 S,0,29804,30168,0.8,0.4 S,0,30168,,0.8 M,0,150894,,150,411 S,0,150894,151258,0.4,0.8 F,0,151076,151258,0,1 F,0,151258,,1 F,0,151258,161440,1 S,0,151258,161440,0.8 S,0,161440,,0.8 F,0,161440,162894,1,0 F,0,161440,162894,1,0
Sprite,Foreground,Centre,"sb\aakiha.png",320,240 F,0,29986,30349,0,1 S,0,29986,30349,0.6,0.8 M,0,30349,,485,416 F,0,30349,53440,1 S,0,30349,53440,0.8 M,0,30349,53713,485,416 F,0,53440,53713,1,0 S,0,53440,53713,0.8,0.4 M,0,184712,185440,156,406,148,405 F,0,184712,185440,0,1 S,0,184712,185440,0.6,0.8 M,0,185440,209076,148,405,473,405 F,0,185440,209076,1 S,0,185440,209076,0.8
Sprite,Foreground,Centre,"sb\deepsea.png",320,240 M,0,53713,53804,495,409,479,417 F,0,53713,53804,0.5,1 S,0,53713,53804,0.4,0.8 S,0,90894,,0.8 F,0,90894,91622,1,0
Sprite,Foreground,Centre,"sb\alace.png",320,240 M,0,125712,125894,146,413 F,0,125712,125894,0,1 S,0,125712,125894,0.4,0.8 F,0,125894,149803,1 S,0,125894,149803,0.8 F,0,149803,151167,1,0 S,0,149803,151167,0.8,0 F,0,209258,209440,0,1 S,0,209258,209440,0.44,0.84 M,0,209258,231258,487,399,152,399 F,0,209440,231258,1 F,0,231258,232712,1,0
Sprite,Foreground,Centre,"sb\sprosive.png",320,240 M,0,101076,,150,410 F,0,101076,101803,0.3,1 S,0,101076,101803,0.6,0.8 R,0,101093,,0 R,0,101093,,0 F,0,101803,125076,1 S,0,101803,125076,0.8 F,0,125076,125712,1,0 S,0,125076,125712,0.8,0.6 F,0,258167,258894,0,1 S,0,258167,258894,0.6,0.8 F,0,258894,283984,1 S,0,258894,283984,0.8 F,0,283984,284348,1,0 S,0,283984,284348,0.8,0.6
Sprite,Foreground,Centre,"sb\angelhoney.png",320,240 F,0,284257,284348,0,1 F,0,284257,284348,0,1 S,0,284257,284348,0.5,0.8 S,0,284257,284348,0.5,0.8 F,0,284348,,1 F,0,284348,,1 S,0,284348,,0.8 S,0,284348,,0.8 F,0,319257,319439,1,0
//Storyboard Sound Samples
//Background Colour Transformations
3,100,163,162,255

[TimingPoints]
7259,363.636363636364,4,2,1,100,1,0
30713,-100,4,2,1,61,0,0
52259,-100,4,2,1,35,0,0
52713,-100,4,2,1,61,0,0
64531,-200,4,2,1,100,0,0
64895,-200,4,2,1,13,0,0
66077,-200,4,2,1,100,0,0
67622,363.636363636364,4,2,1,100,1,0
101985,-100,4,1,1,32,0,0
102349,-100,4,2,1,100,0,0
125076,-133.333333333333,4,2,1,100,0,0
125440,-100,4,1,1,39,0,0
125622,-100,4,2,1,100,0,0
127349,-100,4,2,1,85,0,0
127531,-100,4,2,1,100,0,0
127712,-100,4,2,1,85,0,0
127894,-100,4,2,1,100,0,0
130985,-100,4,2,1,84,0,0
131167,-100,4,2,1,100,0,0
131349,-100,4,2,1,85,0,0
131531,-100,4,2,1,100,0,0
133167,-100,4,2,1,86,0,0
133349,-100,4,2,1,100,0,0
133531,-100,4,2,1,84,0,0
133712,-100,4,2,1,100,0,0
135349,-100,4,2,1,84,0,0
135531,-100,4,2,1,100,0,0
135712,-100,4,2,1,84,0,0
135894,-100,4,2,1,71,0,0
136076,-100,4,2,1,55,0,0
136258,-100,4,2,1,35,0,0
136531,-200,4,2,1,25,0,0
136622,-200,4,2,1,0,0,0
138894,-100,4,1,1,49,0,0
139622,363.636363636364,4,2,1,100,1,0
142622,-100,4,2,1,0,0,0
142803,-100,4,2,1,100,0,0
145531,-100,4,2,1,0,0,0
145712,-100,4,2,1,100,0,0
186167,-200,4,2,1,31,0,0
209894,-200,4,2,1,0,0,0
210076,-200,4,2,1,31,0,0
212803,-200,4,2,1,0,0,0
212985,-200,4,2,1,31,0,0
221531,-200,4,2,1,0,0,0
221712,-200,4,2,1,31,0,0
224440,-200,4,2,1,0,0,0
224622,-200,4,2,1,31,0,0
258167,-100,4,2,1,31,0,0
269803,-100,4,2,1,0,0,0
271985,-100,4,2,1,100,0,0
272712,363.636363636364,4,2,1,100,1,0
284257,-100,4,2,1,70,0,0
292984,-100,4,2,1,75,0,0
293893,-100,4,2,1,80,0,0
294439,-100,4,2,1,85,0,0
295166,-100,4,2,1,80,0,0
295893,-100,4,2,1,70,0,0
298802,-100,4,2,1,75,0,0
300530,-100,4,2,1,80,0,0
304621,-100,4,2,1,75,0,0
306802,-100,4,2,1,80,0,0
307530,-100,4,2,1,70,0,0
308802,-100,4,2,1,75,0,0
311893,-100,4,2,1,80,0,0
313348,-100,4,2,1,70,0,0
314075,-100,4,2,1,75,0,0
314802,-100,4,2,1,80,0,0
315530,-100,4,2,1,85,0,0
316257,-100,4,2,1,90,0,0
317802,-100,4,2,1,50,0,1
319257,-100,4,2,1,70,0,0

[Colours]
Combo1 : 255,255,255
Combo2 : 58,252,78
Combo3 : 245,245,95

[HitObjects]
58,57,7259,2,0,B|127:148|75:254,1,190,0|2
208,352,7986,1,0
363,281,8349,1,2
363,281,8531,2,2,B|434:101,1,190
382,34,9077,1,2
467,26,9259,1,0
297,46,9622,1,0
381,35,9804,1,2
466,26,9986,1,2
483,109,10168,6,0,B|287:134,2,190,0|2|0
439,274,11259,1,2
379,334,11440,2,2,B|281:376|190:329,1,190
131,273,11986,1,0
211,244,12168,1,2
52,307,12531,1,0
63,222,12713,1,2
63,222,12804,1,2
143,191,12986,1,2
143,191,13077,5,0
47,49,13440,1,2
217,38,13804,2,0,B|420:37,1,190,0|2
449,111,14349,2,0,B|242:111,1,190
214,184,14895,1,2
260,112,15077,1,0
172,258,15440,1,0
215,184,15622,1,2
214,184,15804,1,2
260,112,15986,5,0
112,198,16349,1,2
199,51,16713,1,0
199,51,16804,1,2
157,125,16986,1,0
157,125,17077,1,2
199,51,17259,2,0,B|400:51,1,190
470,76,17804,1,2
409,136,17986,1,0
491,158,18168,6,0,B|508:219,2,47.5,0|2|0
381,51,18531,1,2
349,199,18713,1,2
336,219,18804,1,2
322,238,18895,5,0
275,309,19077,1,0
226,379,19259,2,0,B|117:371|92:252,1,190,2|0
59,184,19804,1,0
143,194,19986,1,2
95,265,20168,1,0
143,194,20349,1,0
189,122,20531,1,0
238,52,20713,1,2
370,160,21077,5,0
382,139,21168,1,2
425,65,21349,1,0
405,50,21440,1,2
387,65,21531,1,0
367,50,21622,1,0
281,48,21804,5,0
205,88,21986,1,0
129,127,22168,1,2
60,283,22531,1,0
97,206,22713,1,0
130,127,22895,1,2
97,206,23077,1,0
16,177,23259,1,0
96,205,23440,1,0
173,242,23622,1,2
332,305,23986,5,0
354,312,24077,1,2
437,331,24259,1,0
453,314,24349,1,2
453,290,24440,1,0
466,270,24531,1,0
480,185,24713,5,0
400,216,24895,1,0
406,130,25077,1,2
253,54,25440,5,0
183,103,25622,2,0,B|167:156|184:213,1,95,0|2
200,280,25986,1,0
243,353,26168,1,0
313,304,26349,1,0
243,353,26531,1,2
385,257,26895,5,0
314,305,27077,1,0
244,354,27259,1,2
220,357,27349,1,0
196,358,27440,1,0
110,356,27622,5,0
157,284,27804,1,0
71,281,27986,1,2
162,144,28349,1,0
247,146,28531,1,0
226,228,28713,1,2
311,228,28895,1,0
375,171,29077,2,0,B|403:135|440:84,2,95,0|0|2
418,336,29804,5,0
397,252,29986,1,2
373,169,30168,1,2
347,134,30259,1,2
314,106,30349,1,2
280,79,30440,1,2
241,59,30531,1,2
64,144,30895,5,2
144,96,31077,1,0
144,96,31259,2,0,B|224:128|288:256,1,190,0|2
274,229,31804,1,0
224,304,31986,21,0
274,229,32168,1,0
368,256,32349,1,2
368,352,32531,1,2
272,384,32713,1,0
224,304,32895,1,0
274,229,33077,1,2
256,128,33259,1,2
320,64,33440,6,0,B|400:16|512:32,1,190,0|2
320,64,33986,1,0
384,144,34168,2,0,B|448:224|400:336,1,190,0|2
288,176,34713,2,0,B|192:224|80:176,1,190
80,96,35259,1,2
0,32,35440,1,0
80,96,35622,22,2,B|128:112,1,47.5
96,208,35895,2,2,B|80:256,1,47.5
128,336,36168,5,2
320,288,36349,1,4
320,288,36713,21,2
320,288,36895,1,0
448,144,37077,1,0
448,144,37440,1,2
448,144,37622,5,0
448,144,37804,1,0
384,256,37986,1,0
272,192,38168,1,2
336,80,38349,1,2
359,177,38531,21,0
295,289,38713,1,0
183,225,38895,1,2
247,113,39076,1,2
208,304,39259,6,0,B|128:352|16:320,1,190,0|2
208,304,39804,1,0
272,208,39986,1,0
272,208,40349,1,2
272,208,40531,2,0,B|384:256|480:208,1,190,0|2
456,218,40986,1,2
456,218,41077,1,2
480,112,41259,21,0
336,80,41440,1,2
320,112,41531,1,2
304,144,41622,1,2
288,176,41713,1,2
272,208,41804,1,2
272,208,41986,1,0
128,336,42168,6,0,B|48:256|80:128,1,190,4|2
368,336,42895,1,0
416,240,43077,1,0
416,128,43259,1,2
368,32,43440,1,2
288,112,43622,2,0,B|352:192|272:272,1,142.5,0|0
296,243,43986,1,2
208,192,44168,1,0
208,192,44531,22,0,B|112:192,2,95,0|2|0
64,96,45077,2,0,B|-16:192|64:272,1,190,0|2
112,192,45622,1,0
176,112,45804,1,0
272,64,45986,1,0
320,64,46077,1,0
368,80,46168,1,2
464,128,46349,2,0,B|512:240|416:320,1,190
352,240,46895,5,2
320,272,46986,1,2
288,304,47077,1,0
208,240,47259,1,2
176,272,47349,1,2
144,304,47440,1,0
16,304,47622,1,2
48,272,47713,1,2
80,240,47804,1,2
112,208,47895,1,2
144,176,47986,1,4
279,40,48349,21,2
431,58,48713,5,0
358,31,48895,1,2
432,58,49077,1,0
470,126,49259,1,2
432,192,49440,2,0,B|288:192,1,142.5
254,192,49804,2,0,B|142:192,1,95,2|0
48,336,50349,5,0
144,320,50531,1,2
144,320,50622,1,2
144,320,50713,2,0,B|144:208,1,95
48,48,51259,1,2
48,48,51622,22,0,B|160:48,1,95
320,128,51986,2,2,B|225:128,1,95,2|0
288,304,52349,1,2
288,304,52531,1,2
320,288,52622,1,2
352,272,52713,1,2
384,256,52804,1,2
416,240,52895,1,2
320,128,53077,5,4
64,336,53440,1,10
64,336,53804,6,0,B|16:240|80:112,1,190,0|0
448,48,54531,1,2
368,128,54713,1,0
272,208,54895,1,0
192,288,55077,1,0
80,256,55259,2,0,B|80:128,1,95,2|0
160,80,55622,2,0,B|160:192,1,95,2|0
336,320,56168,6,0,B|448:320,2,95
336,320,56713,1,2
384,112,57077,1,0
176,64,57440,1,2
192,176,57622,1,0
216,288,57804,1,0
216,288,57986,2,0,B|112:288,1,95,0|2
64,192,58349,1,0
48,80,58531,1,0
152,120,58713,1,0
256,160,58895,5,2
360,208,59077,1,0
416,104,59259,1,0
312,56,59440,1,0
312,56,59622,6,0,B|80:56,1,190,2|0
88,280,60349,1,2
200,280,60531,1,0
312,280,60713,1,2
424,280,60895,1,0
472,176,61077,1,2
360,176,61259,1,0
248,176,61440,1,2
128,176,61622,1,0
128,176,61986,6,0,B|88:72,2,95
64,272,62531,1,2
448,112,62895,1,0
64,272,63259,1,2
256,192,63440,1,0
448,112,63622,1,2
448,112,63804,2,0,B|496:232|432:328,1,190
336,296,64349,1,0
222,296,64531,2,0,B|176:232|224:112,2,190
128,320,66895,5,0
160,320,66986,1,0
192,320,67077,1,0
224,320,67168,1,0
256,320,67259,1,0
288,320,67349,1,0
320,320,67440,1,0
352,320,67531,1,0
384,320,67622,2,0,B|424:208|384:120,1,190,2|0
128,64,68349,2,0,B|88:176|128:264,1,190
496,328,69076,5,2
144,232,69440,1,0
368,136,69622,1,0
16,40,69985,1,0
16,40,70349,5,0
88,128,70531,2,0,B|296:128,1,190,2|0
152,320,71258,1,0
240,248,71440,2,0,B|376:248,2,95
152,176,71985,1,2
152,176,72076,1,0
256,120,72258,1,0
256,120,72349,1,0
360,72,72531,1,0
360,72,72622,1,0
256,120,72803,1,0
256,120,72894,2,0,B|256:240,2,95
152,72,73440,5,2
152,72,73531,1,0
136,296,73712,1,0
136,296,73803,1,0
360,312,73985,1,0
360,312,74076,1,0
376,88,74257,1,0
376,88,74349,2,0,B|272:40,1,95
176,16,74712,1,0
128,120,74894,2,0,B|24:320,1,190,2|0
144,336,75440,1,0
256,336,75622,1,0
256,320,75712,1,0
256,304,75803,1,0
256,288,75894,1,0
256,272,75985,1,0
256,160,76167,5,0
368,160,76349,1,2
368,160,76712,1,0
480,160,76894,1,0
424,256,77076,2,0,B|360:360,1,95
272,280,77440,2,0,B|176:216,1,95
248,128,77803,2,0,B|312:32,1,95,2|0
400,104,78167,2,0,B|496:176,1,95
424,264,78531,1,0
368,264,78622,1,0
312,264,78712,1,0
256,264,78803,1,0
200,264,78894,1,0
32,344,79258,6,0,B|8:240|32:128,1,190,2|0
480,40,79985,1,2
368,64,80167,1,0
256,96,80349,1,0
80,240,80712,5,2
80,240,80803,1,0
208,16,80985,1,0
208,16,81076,1,0
432,144,81258,1,0
432,144,81349,1,0
304,368,81531,1,0
304,368,81622,2,0,B|304:256,1,95
64,320,81985,5,0
64,320,82167,1,2
64,320,82258,1,0
160,64,82440,1,0
160,64,82531,1,0
256,320,82712,1,0
256,320,82803,1,0
352,64,82985,1,0
352,64,83076,2,0,B|392:192,2,95
264,88,83622,5,2
264,88,83712,1,0
64,256,83894,1,0
64,256,83985,1,0
304,344,84167,2,0,B|480:208,1,190
408,144,84712,2,0,B|232:280,1,190,0|2
88,344,85440,1,0
88,288,85531,1,0
88,232,85622,1,0
88,176,85712,1,0
88,120,85803,1,0
200,96,85985,6,0,B|320:96,2,95
192,208,86531,2,0,B|400:208,1,190,2|0
456,296,87076,2,0,B|264:296,1,190
160,336,87622,1,0
160,336,87712,1,0
160,336,87803,1,0
80,40,87985,6,0,B|56:144|88:256,1,190,2|0
160,152,88531,1,0
232,240,88712,2,0,B|336:152,1,95
392,104,89076,2,0,B|464:184,1,95
504,280,89440,5,2
488,88,89622,1,0
304,32,89803,1,2
120,64,89985,1,0
64,248,90167,1,2
232,336,90349,1,0
400,248,90531,1,2
104,96,101076,5,0
192,128,101258,1,0
280,160,101440,1,0
368,192,101622,1,0
456,224,101985,5,0
456,224,102076,1,8
456,224,102167,1,4
480,320,102349,1,2
392,288,102531,2,0,B|296:280|216:352,1,190,4|8
128,336,103076,1,0
128,336,103258,2,0,B|88:240,1,95,0|2
144,168,103622,2,0,B|184:264,1,95,8|0
256,200,103985,6,2,B|336:264|448:224,2,190,2|8|0
304,120,104894,1,2
400,136,105076,1,8
360,48,105258,1,0
264,32,105440,1,2
264,32,105622,6,0,B|168:48|128:160,1,190
88,240,106167,2,0,B|-8:192,2,95,0|2|8
152,312,106712,6,0,B|360:312,1,190,0|2
288,232,107258,2,0,B|392:232,1,95,8|0
328,152,107622,1,2
304,152,107712,1,0
280,152,107803,1,0
184,152,107986,1,8
160,152,108077,1,0
136,152,108168,1,0
56,208,108349,5,2
40,112,108531,1,0
72,296,108894,1,0
160,336,109076,2,0,B|256:352,2,95,0|2|8
216,256,109622,2,0,B|296:200|400:224,2,190,2|2|2
160,184,110531,5,0
160,160,110622,1,0
160,136,110712,1,2
160,40,110894,1,8
160,40,111076,1,0
240,88,111258,1,2
240,88,111440,1,2
336,88,111622,1,8
336,88,111803,1,0
432,64,111985,6,0,B|480:152|480:152|440:240,1,190,2|8
384,160,112531,2,0,B|346:241|346:241|394:329,1,190,2|0
300,320,113076,2,0,B|196:312,1,95,8|2
112,304,113440,1,2
72,64,113803,1,2
112,304,114167,1,4
40,240,114349,6,0,B|136:240|200:144,1,190,2|0
208,56,114894,1,0
208,56,115076,2,0,B|304:64,1,95,2|8
396,76,115440,2,0,B|460:68|508:172|428:220,2,190,2|2|2
356,164,116349,2,0,B|264:184,1,95,2|0
236,276,116712,2,0,B|328:256,1,95,8|0
208,368,117076,5,2
24,328,117440,2,0,B|112:264|72:152,1,190,8|0
48,72,117985,1,2
144,48,118167,1,8
168,136,118349,2,2,B|256:88|352:104,1,190,2|0
440,128,118894,1,8
440,128,119076,2,0,B|448:224,1,95,2|0
456,320,119440,1,2
456,320,119531,1,0
456,320,119622,1,8
360,304,119803,1,0
296,376,119985,1,2
112,344,120349,5,8
64,264,120531,1,0
72,168,120712,1,0
128,88,120894,1,2
216,56,121076,1,8
312,64,121258,2,2,B|360:64|408:88|440:128|448:176,1,190,2|2
360,208,121803,2,0,B|344:160|288:152,1,95,8|0
272,248,122167,1,4
272,248,122531,1,4
128,120,122894,6,0,B|56:192|96:304,2,190,0|8|2
208,72,123803,2,0,B|312:72,1,95,0|8
400,72,124167,1,2
472,136,124349,1,0
440,148,124440,1,2
420,176,124531,1,0
420,208,124622,1,2
440,236,124712,1,8
420,328,124894,1,0
420,328,125076,2,0,B|280:344,1,142.499995753169,4|8
233,39,125803,5,4
76,205,126167,2,0,B|70:156|24:123,1,95,8|0
80,284,126531,2,0,B|41:313|34:369,1,95,0|0
145,246,126894,2,0,B|189:265|241:242,1,95,8|0
320,220,127258,1,0
400,188,127440,1,4
448,116,127622,1,8
460,32,127803,1,4
380,64,127985,1,0
380,64,128076,1,0
380,64,128167,2,0,B|332:48|288:84,2,95,0|8|0
236,140,128712,5,0
12,224,129076,1,8
204,360,129440,2,0,B|256:336|296:372,1,95,0|0
376,356,129803,1,8
324,288,129985,2,0,B|212:284|168:184,1,190,0|0
88,176,130531,1,8
144,112,130712,1,0
228,128,130894,2,0,B|264:180|324:156,1,95,0|4
468,180,131258,2,0,B|432:128|372:152,1,95,8|4
364,220,131622,6,0,B|264:256|248:360,1,190,4|8
164,356,132167,1,0
116,284,132349,1,0
36,248,132531,1,0
116,284,132712,1,8
164,356,132894,2,0,B|224:260|328:256,1,190,0|4
400,232,133440,1,8
484,212,133622,1,4
428,148,133803,1,0
408,108,133894,1,0
376,80,133985,2,0,B|340:32|288:48,2,95,0|8|0
224,88,134531,5,0
224,88,134894,1,8
224,88,135258,1,0
148,128,135440,1,4
184,204,135622,1,0
260,164,135804,1,4
324,220,135985,5,2
392,256,136167,1,2
360,325,136349,1,2
291,288,136531,2,0,B|228:356|160:372|104:352|56:312|24:260|24:184,1,380,2|0
452,212,138894,5,0
376,252,139076,1,0
304,296,139258,1,0
304,296,139349,1,0
304,296,139440,1,0
192,336,139622,5,4
32,176,139985,1,8
256,128,140349,1,0
348,156,140531,1,0
256,128,140712,1,8
348,156,140894,1,0
256,128,141076,2,0,B|156:148|116:260,1,190,0|8
212,280,141622,1,0
304,308,141803,1,0
304,308,141894,1,0
304,308,141985,1,0
396,340,142167,1,8
488,368,142349,2,0,B|520:228|464:80,1,285,0|8
384,132,143076,1,8
196,112,143440,5,2
116,60,143622,1,8
108,156,143803,1,2
196,112,143985,2,0,B|296:120|352:220,1,190,4|8
324,304,144531,1,0
240,260,144712,1,0
192,252,144803,1,0
148,268,144894,1,0
88,344,145076,1,8
44,260,145258,2,0,B|60:156|136:76|256:84,1,285,0|8
332,80,145985,1,8
224,268,146349,5,2
324,292,146531,1,8
256,368,146712,1,2
224,268,146894,2,0,B|168:180|88:124,1,190,4|8
28,40,147440,1,8
392,108,147803,5,0
456,180,147985,1,8
376,232,148167,1,0
332,316,148349,2,0,B|240:284|152:364,1,190,0|8
60,356,148894,1,2
116,276,149076,1,0
156,359,149258,2,0,B|240:284|332:316,1,190,2|2
416,244,149803,5,0
332,184,149985,1,2
236,220,150167,1,0
152,160,150349,1,2
32,216,150531,5,0
152,160,150712,1,2
236,56,150894,1,2
296,292,151258,6,0,B|300:196|428:156,2,190,0|2|0
133,346,152349,1,2
78,184,152712,2,0,B|226:31,1,190,0|2
249,123,153258,2,2,B|101:276,1,190
35,231,153803,1,0
116,259,153985,1,2
196,290,154167,6,0,B|389:355,2,190,0|2|0
129,343,155076,1,0
116,259,155258,1,2
36,230,155440,1,0
36,230,155622,6,0,B|104:32,1,190,0|2
178,79,156167,2,2,B|110:277,1,190
85,338,156712,1,0
169,323,156894,1,2
169,323,157076,6,0,B|375:323,2,190,0|2|0
131,246,157985,1,0
103,164,158167,1,2
91,79,158349,1,0
156,134,158531,6,0,B|108:219|76:341,1,190,0|2
162,344,159076,2,2,B|210:259|242:137,1,190
226,82,159622,1,0
233,168,159803,1,2
307,210,159985,6,0,B|412:253,2,95,0|0|2
233,168,160531,1,0
228,253,160712,2,0,B|232:371,2,95,0|0|2
233,168,161258,1,0
155,203,161440,2,0,B|60:256,2,95,0|0|2
233,168,161985,1,0
165,116,162167,5,2
314,146,162349,1,2
213,260,162531,1,2
400,48,186167,5,4
400,48,186349,2,0,B|400:144,1,95
256,240,186894,1,2
256,240,187258,5,0
208,160,187440,2,0,B|112:160,1,95
32,176,187985,1,0
208,256,188349,1,2
208,256,188712,1,0
208,256,189076,5,0
304,256,189258,1,0
400,256,189440,1,0
464,80,189803,1,2
464,80,190167,6,0,B|432:128,1,47.5
272,64,190712,2,0,B|240:112,1,47.5
240,288,191258,2,0,B|304:192,1,95,2|4
112,176,191985,5,0
160,256,192167,1,0
432,256,192712,1,2
432,256,193076,5,0
432,352,193258,1,0
432,352,193622,5,0
256,288,193803,2,0,B|144:288,1,95,0|2
64,128,194531,5,0
64,128,194894,2,0,B|112:128,1,47.5
368,48,195622,1,2
368,48,196167,1,0
272,80,196349,2,0,B|272:32,2,47.5
272,80,197076,2,0,B|272:144|272:144|240:160,1,95,2|4
32,192,197803,5,0
32,192,197985,1,0
112,32,198349,1,0
112,32,198531,1,2
208,32,198712,1,0
304,32,198894,1,0
304,32,199076,2,0,B|368:112,1,95
448,272,199622,5,0
448,272,199985,1,2
112,272,200712,1,0
192,272,200894,2,0,B|336:272,1,142.5,0|2
176,352,201803,5,0
176,352,201985,2,0,B|64:352,1,95
32,192,202531,1,0
32,192,202894,2,0,B|128:192,1,95,2|4
400,64,203622,5,0
400,64,203803,1,0
144,64,204349,1,2
320,64,204712,1,0
240,64,204894,2,0,B|240:160,1,95
320,160,205440,2,0,B|320:256,1,95,0|2
400,224,205985,5,0
240,224,206167,1,0
368,144,206349,1,0
288,144,206531,1,0
320,320,206712,2,0,B|320:225,1,95
288,144,207258,6,0,B|192:144,1,95,2|0
224,64,207803,1,4
304,64,207985,1,0
288,144,208167,1,0
272,224,208349,1,4
128,304,208712,1,2
32,160,209076,2,4,B|32:208,1,47.5,4|4
68,88,209440,5,4
68,88,209622,2,0,B|144:52|200:124,1,142.5,2|2
292,152,210531,1,0
292,152,210712,2,0,B|236:164|220:232,1,95,2|2
180,240,211258,1,2
248,320,211622,1,2
344,356,211985,1,0
448,340,212349,1,2
448,340,212531,2,0,B|452:264|512:212,1,142.5,2|2
412,172,213440,1,0
448,132,213622,1,2
356,184,213985,1,2
320,224,214167,1,2
344,352,214349,6,0,B|292:348|264:284,1,95,0|0
270,298,214894,2,4,B|216:320,1,47.5,4|0
176,336,215258,1,4
72,320,215622,1,0
32,224,215985,1,2
60,124,216349,1,0
60,124,216531,1,2
144,60,216894,1,2
144,60,217076,2,0,B|208:60|232:108,2,95,2|2|0
180,184,218167,5,2
144,248,218349,1,2
76,272,218531,1,0
180,184,218894,1,2
316,136,219258,1,0
248,160,219440,1,2
124,88,219803,1,2
192,112,219985,1,2
292,296,220349,1,4
280,224,220531,1,0
248,160,220712,1,4
192,112,220894,1,4
124,88,221076,5,4
124,88,221258,2,0,B|56:128|24:208,1,142.5,2|2
30,192,222167,1,2
76,240,222349,1,2
132,204,222531,1,0
184,248,222712,1,2
240,212,222894,2,0,B|344:232,2,95,2|2|0
360,156,223985,1,2
360,156,224167,2,0,B|276:152|248:60,1,142.5,2|2
124,48,225076,1,0
188,60,225258,1,2
100,196,225622,1,2
36,184,225804,1,2
52,276,225985,6,0,B|108:272|148:324,1,95
196,344,226531,2,0,B|236:308,1,47.5,4|0
280,268,226894,1,4
432,220,227258,1,0
384,68,227622,1,2
232,116,227986,1,0
152,96,228167,1,2
280,268,228531,1,2
360,288,228712,5,2
152,96,229076,1,2
256,192,229440,12,4,231622
256,196,231985,5,4
256,196,232349,1,4
256,196,232531,1,4
256,196,232712,1,4
64,312,258894,6,0,B|160:328,1,95,4|0
192,320,259167,1,0
224,312,259258,2,0,B|320:328,1,95,2|0
408,312,259622,5,0
440,192,259803,1,2
352,104,259985,1,0
232,136,260167,1,2
136,64,260349,2,0,B|80:72,1,47.5,2|0
112,144,260531,2,0,B|56:152,1,47.5,2|0
88,224,260712,2,0,B|192:208,1,95,2|0
207,206,260985,1,0
231,202,261076,1,2
192,328,261258,1,0
384,56,261440,1,2
348,176,261622,1,0
392,288,261803,6,0,B|448:304|456:368,1,95
384,56,262167,2,0,B|488:120|448:240,1,190,2|0
264,72,262712,1,0
282,69,262803,1,0
300,66,262894,1,2
56,184,263076,6,0,B|168:224|240:136,1,190,4|0
120,272,263622,1,2
136,280,263712,1,0
152,288,263803,1,2
256,272,263985,5,4
376,304,264167,1,0
448,160,264349,5,4
288,160,264531,1,0
160,64,264712,6,0,B|64:80,1,95,2|0
136,144,265076,2,0,B|352:104,1,190,2|0
416,92,265622,1,0
424,116,265712,1,0
432,140,265803,1,2
464,232,265985,5,0
128,320,266349,1,2
240,296,266531,1,0
352,272,266712,1,2
368,104,266894,6,0,B|272:128,1,95,0|2
32,64,267258,2,0,B|128:40,1,95,0|2
176,120,267622,1,0
176,120,267985,2,0,B|112:208|168:312,1,190
232,232,268531,1,2
304,296,268712,1,0
232,360,268894,1,4
304,296,269076,5,2
440,224,269258,1,0
368,96,269440,1,2
232,160,269622,1,0
256,192,269803,12,0,271076
256,192,271985,5,4
256,192,272076,12,4,272712
352,216,272893,5,0
384,224,272984,1,0
416,232,273075,1,2
280,280,273257,1,0
328,128,273439,1,2
160,288,273621,1,0
200,64,273802,1,2
88,160,273984,1,0
208,184,274166,5,0
128,96,274348,1,2
144,112,274439,1,0
160,128,274530,1,0
280,280,274712,1,2
264,264,274803,1,0
248,248,274894,1,0
80,248,275075,5,2
336,104,275257,1,2
480,360,275439,1,0
424,280,275621,6,0,B|424:184|496:104,1,190,4|2
360,184,276166,2,0,B|328:288|352:384,1,190
240,264,276712,1,2
96,304,276893,1,0
32,168,277075,5,4
480,112,277439,1,2
432,32,277621,1,0
480,200,277802,1,0
472,232,277893,1,0
464,264,277984,1,2
376,176,278166,1,0
384,144,278257,1,0
392,112,278348,1,2
272,152,278530,6,0,B|168:160|88:104,1,190,4|2
88,200,279075,1,0
224,232,279257,1,0
184,320,279439,5,2
280,312,279621,1,0
376,328,279802,1,2
464,360,279984,2,0,B|504:272,1,95,2|0
480,96,280348,1,2
384,120,280530,2,0,B|344:208,1,95,2|0
272,112,280893,5,0
88,136,281075,1,2
176,104,281257,1,0
48,224,281439,2,0,B|48:320|160:376,1,190,4|0
464,224,281984,2,0,B|464:320|352:376,1,190,2|0
208,304,282530,1,0
304,304,282712,1,2
256,224,282893,5,4
216,48,283075,1,0
328,184,283257,1,2
160,104,283439,1,0
352,104,283621,1,0
184,184,283802,1,0
296,48,283984,1,2
96,112,284348,6,0,B|176:112|240:64,1,142.5,0|2
272,48,284712,2,0,B|224:144|272:240,1,190,6|8
384,304,285257,1,2
272,352,285439,2,0,B|224:336|176:336,1,95,10|0
480,352,285802,2,0,B|448:240|512:160,1,190,14|2
320,32,286348,2,0,B|272:144|128:144,1,190,12|2
64,128,286893,1,0
128,240,287075,1,2
144,352,287257,2,0,B|208:304|304:304,1,142.5,12|2
320,304,287621,1,0
448,192,287802,2,0,B|336:160|304:64,1,190,12|2
208,32,288348,1,0
176,128,288530,1,2
97,208,288712,5,12
432,288,289075,1,2
457,246,289166,1,0
470,198,289257,1,12
296,272,289439,1,2
266,236,289530,1,0
250,190,289621,1,12
328,104,289802,2,0,B|240:104|192:48,1,142.5,10|2
168,32,290166,2,0,B|152:136|40:176,1,190,12|2
232,344,290712,2,0,B|248:240|360:200,1,190,12|2
248,80,291257,2,0,B|216:136|152:160,1,95,4|2
360,72,291621,5,12
456,144,291802,1,2
456,144,291893,1,0
456,144,291984,1,10
360,200,292166,2,0,B|256:200|168:144,1,190,14|2
112,264,292712,2,0,B|160:256|208:232,1,95,12|2
304,328,293075,2,0,B|304:224|384:160,1,190,12|10
360,48,293621,5,4
248,88,293802,1,8
296,208,293984,1,6
192,280,294166,1,14
80,208,294348,1,12
48,88,294530,1,14
88,72,294621,1,2
128,48,294712,1,2
224,128,294893,1,10
320,56,295075,1,6
400,160,295257,2,0,B|464:176|488:224,1,95,6|10
368,336,295621,2,0,B|304:320|280:272,1,95,14|2
176,320,295984,6,0,B|208:224|128:128,1,190,6|10
32,352,296530,2,0,B|144:384|224:288,1,190,4|2
288,235,297075,1,8
344,144,297257,1,10
336,32,297439,1,6
40,248,297802,1,10
80,256,297893,1,0
121,254,297984,1,6
232,216,298166,1,2
320,144,298348,1,10
360,136,298439,1,0
401,140,298530,1,14
488,208,298712,1,14
408,312,298893,6,0,B|296:304|232:200,1,190,4|2
48,64,299439,2,0,B|160:72|224:176,1,190,6|2
178,276,299984,1,8
96,192,300166,1,10
320,176,300348,2,0,B|280:112|312:32,1,142.5,6|2
280,16,300712,2,0,B|184:56,1,95,8|6
192,168,301075,1,10
176,208,301166,1,0
152,240,301257,1,10
48,288,301439,1,6
64,160,301621,1,10
64,160,301712,1,0
64,160,301802,6,0,B|16:128|-16:64,1,95,4|2
168,88,302166,1,8
288,152,302348,2,0,B|336:144|384:120,1,95,4|2
224,256,302712,2,0,B|112:232|32:288,1,190,12|2
336,320,303257,2,0,B|384:312|432:288,1,95,4|0
472,184,303621,1,8
368,104,303802,2,0,B|320:88|264:88,1,95,4|0
168,160,304166,1,12
168,160,304257,1,0
168,160,304348,1,12
192,280,304530,1,8
320,296,304712,6,0,B|304:184|392:104,1,190,12|2
184,344,305257,2,0,B|144:248|40:200,1,190,14|2
32,96,305802,1,4
144,56,305984,1,10
216,152,306166,1,12
328,224,306348,1,2
368,216,306439,1,2
408,192,306530,1,2
472,96,306712,1,4
352,64,306893,1,2
312,80,306984,1,2
264,80,307075,1,2
216,72,307166,1,2
168,64,307257,2,0,B|112:64|72:80,1,95,6|4
16,176,307621,5,4
88,264,307802,2,0,B|200:248,1,95,2|0
192,110,308166,2,0,B|304:94,1,95,2|0
304,280,308530,2,0,B|416:264,1,95,2|2
456,152,308893,1,6
272,40,309257,2,0,B|192:120,1,95,2|0
384,176,309621,2,0,B|272:208,1,95,2|2
424,336,309984,2,0,B|312:320,1,95,2|0
208,256,310348,1,2
120,344,310530,6,0,B|24:264|56:136,1,190,6|2
200,32,311075,2,0,B|224:152|152:224,1,190,6|2
232,312,311621,2,0,B|344:272,1,95,4|2
432,336,311984,2,0,B|488:216|432:136,1,190,4|2
312,40,312530,2,0,B|256:136|312:200,1,142.5,4|2
320,208,312893,1,2
176,320,313075,1,6
192,280,313166,1,2
200,232,313257,1,6
80,144,313439,6,0,B|184:160|272:96,1,190,4|0
80,256,313984,1,2
216,296,314166,2,0,B|264:272|288:232,1,95,6|0
472,168,314530,2,0,B|496:224|488:264,1,95,2|2
384,328,314893,2,0,B|360:216|400:104,1,190,6|0
320,48,315439,1,2
184,80,315621,1,6
184,80,315712,1,2
184,80,315802,1,2
200,208,315984,1,0
200,208,316166,1,2
200,208,316348,6,0,B|104:256|0:160,1,190,6|2
336,272,316893,2,0,B|448:224|448:80,1,190,4|2
248,48,317439,2,0,B|280:160,1,95,4|6
256,192,317802,12,4,319257
