osu file format v14

[General]
AudioFilename: Los malaventurados no lloran.mp3
AudioLeadIn: 0
PreviewTime: 530
Countdown: 1
SampleSet: Soft
StackLeniency: 0.7
Mode: 0
LetterboxInBreaks: 1
WidescreenStoryboard: 1

[Editor]
DistanceSpacing: 1
BeatDivisor: 4
GridSize: 32
TimelineZoom: 1

[Metadata]
Title:Los Malaventurados No Lloran Tus Palabras
TitleUnicode:Los Malaventurados No Lloran Tus Palabras
Artist:pxndx
ArtistUnicode:pxndx
Creator:donjuan_217
Version:Normal
Source:
Tags:
BeatmapID:382130
BeatmapSetID:155837

[Difficulty]
HPDrainRate:7
CircleSize:3
OverallDifficulty:4
ApproachRate:7
SliderMultiplier:0.90000000596046
SliderTickRate:1

[Events]
//Background and Video events
0,0,"pxndx136.jpg",0,0
//Break Periods
2,6266,7309
2,56493,57541
2,140204,141893
2,156946,161425
//Storyboard Layer 0 (Background)
//Storyboard Layer 1 (Fail)
//Storyboard Layer 2 (Pass)
//Storyboard Layer 3 (Foreground)
//Storyboard Sound Samples

[TimingPoints]
484,697.59330310429,4,2,0,100,1,0

[Colours]
Combo1 : 128,0,255
Combo2 : 0,202,0
Combo3 : 18,124,255
Combo4 : 242,24,57
Combo5 : 255,192,0
Combo6 : 0,0,0

[HitObjects]
64,64,484,5,0,0:0:0:0:
480,64,2925,5,0,0:0:0:0:
32,64,3274,5,0,0:0:0:0:
256,192,3623,12,0,5367,0:0:0:0:
448,128,5715,5,0,0:0:0:0:
288,224,6064,5,0,0:0:0:0:
64,224,8855,5,0,0:0:0:0:
192,288,9203,1,0,0:0:0:0:
0,352,9552,5,0,0:0:0:0:
224,352,9901,1,0,0:0:0:0:
96,256,10250,5,0,0:0:0:0:
288,320,10947,5,0,0:0:0:0:
384,320,11645,2,0,B|448:288|448:352|480:256,3,90.000000596046
416,192,14435,5,0,0:0:0:0:
32,192,15133,1,0,0:0:0:0:
320,128,15831,2,0,B|256:32|448:32|384:128,1,180.000001192092
512,128,17575,5,0,0:0:0:0:
256,192,17923,5,0,0:0:0:0:
96,128,18272,1,0,0:0:0:0:
320,288,18621,1,0,0:0:0:0:
448,288,18970,1,0,0:0:0:0:
352,160,19319,5,0,0:0:0:0:
512,64,19667,1,0,0:0:0:0:
320,64,20016,2,0,L|256:64,3,45.000000298023
64,64,21411,6,0,L|0:96,3,45.000000298023
352,192,22806,6,0,B|224:128|320:256|288:224,3,90.000000596046
32,128,25597,5,0,0:0:0:0:
480,128,26294,5,0,0:0:0:0:
0,224,26992,2,0,B|-32:256|160:160|-64:288|64:384|96:256,1,180.000001192092
256,224,28736,1,0,0:0:0:0:
352,224,29085,1,0,0:0:0:0:
192,128,29434,5,0,0:0:0:0:
96,128,29782,1,0,0:0:0:0:
256,32,30131,1,0,0:0:0:0:
384,64,30480,1,0,0:0:0:0:
288,64,30829,5,0,0:0:0:0:
480,32,31178,1,0,0:0:0:0:
352,160,31526,1,0,0:0:0:0:
288,160,31875,1,0,0:0:0:0:
160,256,32224,5,0,0:0:0:0:
416,320,32573,2,0,P|448:320|448:352,3,45.000000298023
480,224,33968,5,0,0:0:0:0:
416,288,34317,1,0,0:0:0:0:
352,224,34666,1,0,0:0:0:0:
288,288,35014,1,0,0:0:0:0:
224,224,35363,1,0,0:0:0:0:
160,288,35712,1,0,0:0:0:0:
96,224,36061,1,0,0:0:0:0:
324,116,36410,1,0,0:0:0:0:
192,64,36758,6,0,L|128:64,7,45.000000298023
32,96,39549,5,0,0:0:0:0:
320,128,39898,1,0,0:0:0:0:
96,192,40246,1,0,0:0:0:0:
320,224,40595,1,0,0:0:0:0:
416,256,40944,5,0,0:0:0:0:
192,352,41293,1,0,0:0:0:0:
288,320,41642,1,0,0:0:0:0:
64,288,41990,1,0,0:0:0:0:
192,192,42339,6,0,L|154:121,3,45.000000298023
448,192,43734,2,0,L|489:164,3,45.000000298023
64,64,45129,2,0,B|139:39|197:36|270:44|355:118|330:203|221:263|118:219|97:152|72:120|126:101|209:130,2,540.000003576276
480,32,54198,1,0,0:0:0:0:
96,192,54896,5,0,0:0:0:0:
384,224,55245,1,0,0:0:0:0:
64,288,55593,1,0,0:0:0:0:
416,320,55942,1,0,0:0:0:0:
32,384,56291,1,0,0:0:0:0:
384,192,59081,5,0,0:0:0:0:
256,128,59779,1,0,0:0:0:0:
128,64,60477,5,0,0:0:0:0:
288,160,61174,1,0,0:0:0:0:
160,256,61872,5,0,0:0:0:0:
32,256,62221,1,0,0:0:0:0:
384,256,62569,5,0,0:0:0:0:
160,192,62918,1,0,0:0:0:0:
288,320,63267,5,0,0:0:0:0:
416,256,63616,1,0,0:0:0:0:
512,256,63964,1,0,0:0:0:0:
0,64,64662,5,0,0:0:0:0:
416,96,65011,5,0,0:0:0:0:
288,128,65360,5,0,0:0:0:0:
416,128,65708,5,0,0:0:0:0:
288,160,66057,5,0,0:0:0:0:
96,160,66755,5,0,0:0:0:0:
0,160,67452,5,0,0:0:0:0:
160,64,68150,1,0,0:0:0:0:
320,64,68848,1,0,0:0:0:0:
160,96,69545,1,0,0:0:0:0:
416,64,70243,5,0,0:0:0:0:
256,128,70592,1,0,0:0:0:0:
448,128,70940,1,0,0:0:0:0:
256,160,71289,1,0,0:0:0:0:
480,224,71638,5,0,0:0:0:0:
352,320,72336,1,0,0:0:0:0:
224,256,73033,5,0,0:0:0:0:
352,224,73382,1,0,0:0:0:0:
224,192,73731,5,0,0:0:0:0:
96,160,74080,1,0,0:0:0:0:
0,128,74428,5,0,0:0:0:0:
160,160,74777,1,0,0:0:0:0:
32,128,75126,1,0,0:0:0:0:
192,160,75475,1,0,0:0:0:0:
32,224,75824,2,0,L|32:310,3,45.000000298023
160,320,77219,2,0,L|224:320|224:320,3,45.000000298023
384,320,78614,2,0,B|416:320|416:256|384:256,3,90.000000596046
128,160,81404,5,0,0:0:0:0:
288,128,81753,1,0,0:0:0:0:
448,96,82102,1,0,0:0:0:0:
224,64,82451,1,0,0:0:0:0:
384,64,82800,1,0,0:0:0:0:
256,64,83497,1,0,0:0:0:0:
416,128,84195,5,0,0:0:0:0:
256,160,84543,1,0,0:0:0:0:
416,192,84892,1,0,0:0:0:0:
192,224,85241,1,0,0:0:0:0:
416,256,85590,5,0,0:0:0:0:
128,288,85939,1,0,0:0:0:0:
416,320,86287,1,0,0:0:0:0:
64,352,86636,1,0,0:0:0:0:
416,384,86985,5,0,0:0:0:0:
288,224,87334,1,0,0:0:0:0:
160,160,87683,1,0,0:0:0:0:
64,128,88031,1,0,0:0:0:0:
256,128,88380,5,0,0:0:0:0:
320,192,89078,1,0,0:0:0:0:
256,288,89775,1,0,0:0:0:0:
256,192,90124,12,0,91868,0:0:0:0:
480,32,92217,5,0,0:0:0:0:
384,64,92566,1,0,0:0:0:0:
512,96,92915,1,0,0:0:0:0:
384,128,93263,1,0,0:0:0:0:
320,32,93612,5,0,0:0:0:0:
224,64,93961,1,0,0:0:0:0:
384,96,94310,1,0,0:0:0:0:
224,128,94659,1,0,0:0:0:0:
416,320,95007,5,0,0:0:0:0:
224,256,95356,1,0,0:0:0:0:
320,320,95705,1,0,0:0:0:0:
0,256,96054,1,0,0:0:0:0:
128,256,96403,5,0,0:0:0:0:
32,192,96751,1,0,0:0:0:0:
416,192,97100,1,0,0:0:0:0:
128,128,97449,1,0,0:0:0:0:
0,64,97798,5,0,0:0:0:0:
256,64,98147,1,0,0:0:0:0:
512,64,98495,1,0,0:0:0:0:
320,160,98844,2,0,B|352:150|371:153|395:163|403:179,1,90.000000596046
224,32,99891,5,0,0:0:0:0:
96,64,100239,1,0,0:0:0:0:
480,96,100588,1,0,0:0:0:0:
224,128,100937,2,0,B|222:182|214:241|195:281|175:291|194:329|229:345|247:346|277:352|293:337|323:319|340:297|320:266|310:246|303:231|292:222|277:214|247:216|199:227|125:230,2,540.000003576276
416,96,110006,5,0,0:0:0:0:
96,96,110703,1,0,0:0:0:0:
416,224,111401,1,0,0:0:0:0:
96,224,112098,1,0,0:0:0:0:
416,352,112796,5,0,0:0:0:0:
128,352,113494,1,0,0:0:0:0:
320,352,113842,1,0,0:0:0:0:
96,288,114191,1,0,0:0:0:0:
0,192,114889,5,0,0:0:0:0:
192,256,115586,1,0,0:0:0:0:
96,32,116284,1,0,0:0:0:0:
288,96,116633,1,0,0:0:0:0:
128,64,116982,1,0,0:0:0:0:
320,128,117330,1,0,0:0:0:0:
448,160,117679,1,0,0:0:0:0:
288,192,118377,1,0,0:0:0:0:
480,224,119074,5,0,0:0:0:0:
288,352,119423,1,0,0:0:0:0:
448,288,119772,1,0,0:0:0:0:
224,352,120121,1,0,0:0:0:0:
384,256,120470,5,0,0:0:0:0:
64,320,120818,1,0,0:0:0:0:
256,320,121167,1,0,0:0:0:0:
32,256,121516,1,0,0:0:0:0:
320,192,121865,5,0,0:0:0:0:
0,192,122562,1,0,0:0:0:0:
512,64,123260,1,0,0:0:0:0:
0,64,123958,1,0,0:0:0:0:
256,128,124655,5,0,0:0:0:0:
480,192,125004,1,0,0:0:0:0:
32,64,125353,1,0,0:0:0:0:
480,64,126050,1,0,0:0:0:0:
320,352,126748,1,0,0:0:0:0:
0,256,127445,5,0,0:0:0:0:
256,256,127794,1,0,0:0:0:0:
64,192,128143,1,0,0:0:0:0:
320,192,128492,1,0,0:0:0:0:
512,192,128841,1,0,0:0:0:0:
0,128,129538,5,0,0:0:0:0:
512,32,130236,1,0,0:0:0:0:
448,32,130410,1,0,0:0:0:0:
384,64,130585,5,0,0:0:0:0:
320,64,130759,1,0,0:0:0:0:
256,96,130933,5,0,0:0:0:0:
192,96,131108,1,0,0:0:0:0:
128,128,131282,5,0,0:0:0:0:
128,192,131457,1,0,0:0:0:0:
160,160,131631,5,0,0:0:0:0:
160,224,131805,1,0,0:0:0:0:
192,192,131980,5,0,0:0:0:0:
192,256,132154,1,0,0:0:0:0:
224,224,132329,5,0,0:0:0:0:
224,288,132503,1,0,0:0:0:0:
256,256,132677,5,0,0:0:0:0:
256,320,132852,1,0,0:0:0:0:
320,288,133026,5,0,0:0:0:0:
192,32,133724,1,0,0:0:0:0:
338,328,134421,6,0,B|530:328|337:214|337:214,2,180.000001192092
251,301,137909,1,0,0:0:0:0:
172,257,138607,5,0,0:0:0:0:
120,183,139305,1,0,0:0:0:0:
84,99,140002,5,0,0:0:0:0:
441,55,142793,5,0,0:0:0:0:
420,142,143490,1,0,0:0:0:0:
394,228,144188,5,0,0:0:0:0:
377,186,144537,1,0,0:0:0:0:
371,141,144885,5,0,0:0:0:0:
280,141,145583,2,0,B|299:379|63:173|248:45|56:45|67:282,1,450.00000298023
102,326,149768,5,0,0:0:0:0:
149,249,150466,1,0,0:0:0:0:
69,206,151164,5,0,0:0:0:0:
91,167,151512,1,0,0:0:0:0:
120,119,151861,1,0,0:0:0:0:
209,129,152559,5,0,0:0:0:0:
272,193,153256,1,0,0:0:0:0:
333,258,153954,6,0,L|464:259,3,90.000000596046,0|0|0|0,0:0|0:0|0:0|0:0,0:0:0:0:
64,160,156744,1,0,0:0:0:0:
412,62,162325,5,0,0:0:0:0:
88,219,165116,5,0,0:0:0:0:
139,145,165813,1,0,0:0:0:0:
185,68,166511,5,0,0:0:0:0:
229,63,166860,1,0,0:0:0:0:
273,60,167208,1,0,0:0:0:0:
364,74,167906,5,0,0:0:0:0:
102,321,170696,5,0,0:0:0:0:
462,327,173487,5,0,0:0:0:0:
213,66,176277,5,0,0:0:0:0:
455,331,179067,5,0,0:0:0:0:
301,236,180463,1,0,0:0:0:0:
155,130,181858,1,0,0:0:0:0:
81,78,182555,1,0,0:0:0:0:
58,165,183253,1,0,0:0:0:0:
448,160,184648,2,0,L|352:192,1,90.000000596046,0|0,0:0|0:0,0:0:0:0:
393,294,186043,5,0,0:0:0:0:
444,121,187439,1,0,0:0:0:0:
276,187,188834,1,0,0:0:0:0:
450,232,190229,1,0,0:0:0:0:
412,256,190578,5,0,0:0:0:0:
368,245,190926,1,0,0:0:0:0:
353,202,191275,1,0,0:0:0:0:
354,156,191624,1,0,0:0:0:0:
292,89,192322,5,0,0:0:0:0:
204,69,193019,1,0,0:0:0:0:
114,77,193717,1,0,0:0:0:0:
75,158,194414,1,0,0:0:0:0:
252,188,195810,1,0,0:0:0:0:
241,277,196507,1,0,0:0:0:0:
330,264,197205,1,0,0:0:0:0:
427,112,198600,1,0,0:0:0:0:
128,64,199298,2,0,L|64:64,2,45.000000298023,0|0|0,0:0|0:0|0:0,0:0:0:0:
160,256,200693,1,0,0:0:0:0:
211,181,201390,5,0,0:0:0:0:
272,246,202088,1,0,0:0:0:0:
352,206,202786,1,0,0:0:0:0:
367,117,203483,1,0,0:0:0:0:
429,52,204181,5,0,0:0:0:0:
472,130,204878,1,0,0:0:0:0:
477,174,205227,1,0,0:0:0:0:
448,208,205576,1,0,0:0:0:0:
403,212,205925,1,0,0:0:0:0:
370,242,206274,1,0,0:0:0:0:
