osu file format v14

[General]
AudioFilename: Los malaventurados no lloran.mp3
AudioLeadIn: 0
PreviewTime: 530
Countdown: 1
SampleSet: Soft
StackLeniency: 0.7
Mode: 0
LetterboxInBreaks: 1
WidescreenStoryboard: 1

[Editor]
Bookmarks: 0
DistanceSpacing: 1
BeatDivisor: 4
GridSize: 32
TimelineZoom: 1

[Metadata]
Title:Los Malaventurados No Lloran Tus Palabras
TitleUnicode:Los Malaventurados No Lloran Tus Palabras
Artist:pxndx
ArtistUnicode:pxndx
Creator:donjuan_217
Version:Insane
Source:
Tags:
BeatmapID:382129
BeatmapSetID:155837

[Difficulty]
HPDrainRate:7
CircleSize:5
OverallDifficulty:6
ApproachRate:8
SliderMultiplier:0.90000000596046
SliderTickRate:2

[Events]
//Background and Video events
0,0,"pxndx136.jpg",0,0
//Break Periods
2,6266,8107
2,62074,63914
2,142994,144835
2,148575,150416
2,190431,191923
//Storyboard Layer 0 (Background)
//Storyboard Layer 1 (Fail)
//Storyboard Layer 2 (Pass)
//Storyboard Layer 3 (Foreground)
//Storyboard Sound Samples

[TimingPoints]
484,697.59330310429,4,2,0,100,1,0

[Colours]
Combo1 : 128,0,255
Combo2 : 0,202,0
Combo3 : 18,124,255
Combo4 : 242,24,57
Combo5 : 255,192,0
Combo6 : 0,0,0

[HitObjects]
160,128,484,5,0,0:0:0:0:
464,47,2751,5,0,0:0:0:0:
443,56,2925,5,0,0:0:0:0:
422,65,3099,1,0,0:0:0:0:
398,63,3274,1,0,0:0:0:0:
256,192,3623,12,0,5367,0:0:0:0:
300,171,5541,5,0,0:0:0:0:
321,163,5715,5,0,0:0:0:0:
342,155,5890,1,0,0:0:0:0:
362,147,6064,5,0,0:0:0:0:
480,128,8855,5,0,0:0:0:0:
490,177,9247,1,0,0:0:0:0:
455,195,9552,5,0,0:0:0:0:
415,217,9901,1,0,0:0:0:0:
370,226,10250,5,0,0:0:0:0:
324,248,10642,1,0,0:0:0:0:
287,261,10947,5,0,0:0:0:0:
270,246,11122,1,0,0:0:0:0:
218,202,11645,5,0,0:0:0:0:
178,180,11994,1,0,0:0:0:0:
157,172,12168,1,0,0:0:0:0:
135,178,12343,5,0,0:0:0:0:
116,190,12517,1,0,0:0:0:0:
100,206,12691,1,0,0:0:0:0:
119,246,13040,2,0,B|151:246|193:298|193:298,1,90.000000596046
222,328,14087,2,0,L|190:360,1,45.000000298023
145,352,14784,1,0,0:0:0:0:
131,333,14959,1,0,0:0:0:0:
119,289,15307,1,0,0:0:0:0:
133,271,15482,1,0,0:0:0:0:
160,235,15831,2,0,L|192:203,3,45.000000298023
208,187,17051,5,0,0:0:0:0:
226,173,17226,5,0,0:0:0:0:
262,146,17575,2,0,L|294:178,2,45.000000298023
283,106,18621,6,0,B|443:106|283:42,1,180.000001192092
238,42,20365,1,0,0:0:0:0:
193,46,20714,1,0,0:0:0:0:
148,47,21063,1,0,0:0:0:0:
108,67,21411,5,0,0:0:0:0:
138,99,21760,1,0,0:0:0:0:
106,131,22109,5,0,0:0:0:0:
94,150,22283,1,0,0:0:0:0:
32,192,22806,5,0,0:0:0:0:
82,193,23155,1,0,0:0:0:0:
104,194,23330,1,0,0:0:0:0:
126,192,23504,1,0,0:0:0:0:
147,185,23678,1,0,0:0:0:0:
164,171,23853,1,0,0:0:0:0:
203,149,24202,2,0,B|235:149|277:201|277:201,1,90.000000596046
303,233,25248,2,0,L|271:265,1,45.000000298023
248,304,25946,5,0,0:0:0:0:
264,319,26120,1,0,0:0:0:0:
308,325,26469,5,0,0:0:0:0:
327,314,26643,5,0,0:0:0:0:
363,287,26992,2,0,L|395:255,3,45.000000298023
399,233,28213,5,0,0:0:0:0:
406,211,28387,5,0,0:0:0:0:
436,177,28736,2,0,L|468:209,2,45.000000298023
388,186,29782,2,0,B|391:225|452:282|452:186,1,135.000000894069
453,140,31178,2,0,L|421:108,3,45.000000298023
376,112,32573,2,0,L|344:144,3,45.000000298023
301,158,33968,1,0,0:0:0:0:
256,161,34317,1,0,0:0:0:0:
211,159,34665,1,0,0:0:0:0:
171,180,35014,1,0,0:0:0:0:
165,224,35363,1,0,0:0:0:0:
207,239,35711,5,0,0:0:0:0:
236,273,36060,1,0,0:0:0:0:
276,291,36409,1,0,0:0:0:0:
298,293,36583,1,0,0:0:0:0:
316,279,36758,5,0,0:0:0:0:
325,235,37107,1,0,0:0:0:0:
329,190,37456,1,0,0:0:0:0:
285,177,37804,1,0,0:0:0:0:
241,164,38153,1,0,0:0:0:0:
196,167,38502,1,0,0:0:0:0:
155,147,38851,1,0,0:0:0:0:
126,112,39199,1,0,0:0:0:0:
132,90,39374,1,0,0:0:0:0:
147,73,39549,2,0,L|179:41,3,45.000000298023
223,46,40943,1,0,0:0:0:0:
266,56,41292,1,0,0:0:0:0:
301,83,41641,1,0,0:0:0:0:
283,124,41990,1,0,0:0:0:0:
242,143,42339,5,0,0:0:0:0:
200,126,42687,1,0,0:0:0:0:
156,116,43036,1,0,0:0:0:0:
111,119,43385,1,0,0:0:0:0:
92,159,43734,1,0,0:0:0:0:
128,185,44083,1,0,0:0:0:0:
171,197,44431,1,0,0:0:0:0:
213,211,44780,1,0,0:0:0:0:
255,225,45129,1,0,0:0:0:0:
256,192,45478,12,0,47222,0:0:0:0:
224,160,47571,5,0,0:0:0:0:
288,160,47919,2,0,B|320:160|384:224|512:64|384:0|224:128|480:160,1,360.000002384184
397,198,51408,1,0,0:0:0:0:
381,155,51757,1,0,0:0:0:0:
349,123,52105,1,0,0:0:0:0:
318,90,52454,2,0,L|286:58,2,45.000000298023
284,120,53500,1,0,0:0:0:0:
260,158,53849,1,0,0:0:0:0:
245,175,54023,1,0,0:0:0:0:
245,220,54372,1,0,0:0:0:0:
222,223,54546,1,0,0:0:0:0:
158,228,54895,5,0,0:0:0:0:
121,201,55244,1,0,0:0:0:0:
115,179,55418,1,0,0:0:0:0:
118,133,55768,5,0,0:0:0:0:
123,111,55942,1,0,0:0:0:0:
152,76,56291,1,0,0:0:0:0:
256,192,56640,12,0,58384,0:0:0:0:
192,160,58558,5,0,0:0:0:0:
160,128,58733,5,0,0:0:0:0:
192,96,58907,1,0,0:0:0:0:
224,96,59081,1,0,0:0:0:0:
256,192,59430,12,0,61174,0:0:0:0:
416,128,61349,5,0,0:0:0:0:
416,128,61523,5,0,0:0:0:0:
416,128,61697,1,0,0:0:0:0:
416,128,61872,5,0,0:0:0:0:
480,128,64662,5,0,0:0:0:0:
480,173,65011,1,0,0:0:0:0:
436,184,65360,1,0,0:0:0:0:
392,193,65708,1,0,0:0:0:0:
350,175,66057,5,0,0:0:0:0:
339,131,66406,1,0,0:0:0:0:
374,103,66755,1,0,0:0:0:0:
394,94,66929,1,0,0:0:0:0:
348,44,67452,5,0,0:0:0:0:
303,46,67801,1,0,0:0:0:0:
280,41,67976,1,0,0:0:0:0:
259,49,68150,5,0,0:0:0:0:
246,67,68324,1,0,0:0:0:0:
235,87,68499,1,0,0:0:0:0:
224,130,68848,2,0,B|256:130|298:182|298:182,1,90.000000596046
327,212,69895,2,0,L|295:244,1,45.000000298023
250,248,70592,1,0,0:0:0:0:
230,236,70767,1,0,0:0:0:0:
227,191,71115,1,0,0:0:0:0:
231,168,71290,1,0,0:0:0:0:
246,125,71639,2,0,L|278:93,3,45.000000298023
296,105,72859,5,0,0:0:0:0:
312,120,73034,5,0,0:0:0:0:
345,150,73383,2,0,L|377:182,2,45.000000298023
224,320,74429,6,0,B|384:320|224:256,1,180.000001192092
192,96,76173,1,0,0:0:0:0:
288,160,76522,1,0,0:0:0:0:
128,224,76871,1,0,0:0:0:0:
224,256,77219,5,0,0:0:0:0:
320,224,77568,1,0,0:0:0:0:
320,288,77917,5,0,0:0:0:0:
480,288,78091,1,0,0:0:0:0:
398,258,78614,5,0,0:0:0:0:
384,192,78963,1,0,0:0:0:0:
384,160,79138,1,0,0:0:0:0:
406,134,79312,1,0,0:0:0:0:
390,99,79486,1,0,0:0:0:0:
364,82,79661,1,0,0:0:0:0:
316,71,80009,2,0,B|266:69|257:129|257:129,1,90.000000596046
332,137,81056,2,0,L|300:169,1,45.000000298023
256,224,81754,5,0,0:0:0:0:
160,192,81928,1,0,0:0:0:0:
224,160,82277,5,0,0:0:0:0:
288,160,82451,1,0,0:0:0:0:
160,192,82800,2,0,L|192:160,3,45.000000298023
288,320,84020,5,0,0:0:0:0:
416,320,84195,1,0,0:0:0:0:
260,207,84544,2,0,L|292:239,2,45.000000298023
413,99,85590,2,0,B|406:47|433:8|477:99,1,135.000000894069
193,64,86986,6,0,L|161:32,3,45.000000298023
432,33,88381,6,0,L|400:65,3,45.000000298023
160,224,89775,5,0,0:0:0:0:
320,32,90124,1,0,0:0:0:0:
480,224,90473,1,0,0:0:0:0:
224,128,90822,1,0,0:0:0:0:
416,128,91171,1,0,0:0:0:0:
320,224,91519,5,0,0:0:0:0:
256,320,91868,1,0,0:0:0:0:
32,320,92217,1,0,0:0:0:0:
160,320,92391,1,0,0:0:0:0:
160,320,92566,5,0,0:0:0:0:
448,224,92915,1,0,0:0:0:0:
64,224,93263,1,0,0:0:0:0:
127,157,93612,1,0,0:0:0:0:
261,158,93961,1,0,0:0:0:0:
0,160,94310,1,0,0:0:0:0:
181,208,94659,1,0,0:0:0:0:
237,95,95007,1,0,0:0:0:0:
177,96,95182,1,0,0:0:0:0:
127,83,95356,2,0,L|159:51,3,45.000000298023
265,104,96751,1,0,0:0:0:0:
158,172,97100,1,0,0:0:0:0:
160,64,97449,1,0,0:0:0:0:
270,62,97798,1,0,0:0:0:0:
256,128,98147,5,0,0:0:0:0:
128,64,98495,1,0,0:0:0:0:
193,184,98844,1,0,0:0:0:0:
192,64,99193,1,0,0:0:0:0:
318,64,99542,1,0,0:0:0:0:
459,65,99891,1,0,0:0:0:0:
460,207,100239,1,0,0:0:0:0:
323,208,100588,1,0,0:0:0:0:
392,131,100937,1,0,0:0:0:0:
256,192,101286,12,0,103030,0:0:0:0:
224,160,103379,5,0,0:0:0:0:
287,221,103727,2,0,B|384:224|474:103|384:96|192:128|416:224,1,360.000002384184
288,192,107215,1,0,0:0:0:0:
369,212,107564,1,0,0:0:0:0:
449,225,107913,1,0,0:0:0:0:
480,162,108262,2,0,L|448:130,2,45.000000298023
416,224,109308,1,0,0:0:0:0:
371,181,109657,1,0,0:0:0:0:
344,150,109831,1,0,0:0:0:0:
301,102,110180,1,0,0:0:0:0:
272,68,110354,1,0,0:0:0:0:
224,160,110703,5,0,0:0:0:0:
128,192,111052,1,0,0:0:0:0:
128,147,111226,1,0,0:0:0:0:
224,96,111575,1,0,0:0:0:0:
256,128,111750,1,0,0:0:0:0:
224,32,112098,5,0,0:0:0:0:
288,96,112447,1,0,0:0:0:0:
384,96,112970,1,0,0:0:0:0:
384,32,113494,5,0,0:0:0:0:
448,128,113842,1,0,0:0:0:0:
192,32,114889,5,0,0:0:0:0:
64,160,115238,1,0,0:0:0:0:
288,96,115761,1,0,0:0:0:0:
0,32,116284,1,0,0:0:0:0:
121,74,116633,1,0,0:0:0:0:
398,362,117679,1,0,0:0:0:0:
287,217,118028,1,0,0:0:0:0:
448,96,118551,1,0,0:0:0:0:
128,224,119074,5,0,0:0:0:0:
192,192,119423,1,0,0:0:0:0:
256,32,120470,5,0,0:0:0:0:
352,32,120818,1,0,0:0:0:0:
416,160,121342,1,0,0:0:0:0:
320,96,121865,1,0,0:0:0:0:
225,128,122214,1,0,0:0:0:0:
224,224,123260,5,0,0:0:0:0:
288,96,123609,1,0,0:0:0:0:
448,64,124132,1,0,0:0:0:0:
451,255,124655,1,0,0:0:0:0:
448,96,125004,1,0,0:0:0:0:
480,352,126050,5,0,0:0:0:0:
320,224,126399,1,0,0:0:0:0:
133,68,126922,1,0,0:0:0:0:
224,352,127445,1,0,0:0:0:0:
320,192,127794,1,0,0:0:0:0:
224,224,128841,5,0,0:0:0:0:
352,256,129189,1,0,0:0:0:0:
480,128,129713,1,0,0:0:0:0:
352,192,130236,1,0,0:0:0:0:
352,192,130585,1,0,0:0:0:0:
320,128,131631,5,0,0:0:0:0:
288,96,131980,1,0,0:0:0:0:
351,91,132503,1,0,0:0:0:0:
320,128,133026,1,0,0:0:0:0:
288,128,133375,1,0,0:0:0:0:
363,229,134421,2,0,B|339:255|339:255|324:277|330:328|362:360|391:276|391:276|394:328|394:360|472:323|452:261|442:253|436:237|420:227,1,360.000002384184
96,288,140002,5,0,0:0:0:0:
202,161,141397,6,0,B|202:97|138:65|116:104|113:137|123:173,1,180.000001192092
355,193,145583,6,0,B|480:287|224:383|226:177|448:255|114:151|227:307,1,360.000002384184
224,160,151164,5,0,0:0:0:0:
167,144,152559,6,0,B|152:133|148:106|171:73|235:73|237:109,1,135.000000894069
224,160,153954,6,0,L|256:192,3,45.000000298023
192,224,155349,6,0,L|159:191,3,45.000000298023
96,160,156744,5,0,0:0:0:0:
96,192,157093,5,0,0:0:0:0:
160,224,157268,1,0,0:0:0:0:
96,224,157442,5,0,0:0:0:0:
160,192,157616,1,0,0:0:0:0:
160,256,157791,5,0,0:0:0:0:
128,192,157965,1,0,0:0:0:0:
160,128,158140,5,0,0:0:0:0:
160,192,158314,1,0,0:0:0:0:
160,256,158488,5,0,0:0:0:0:
128,224,158663,1,0,0:0:0:0:
160,192,158837,5,0,0:0:0:0:
192,160,159012,1,0,0:0:0:0:
160,224,159186,5,0,0:0:0:0:
224,192,159360,1,0,0:0:0:0:
160,160,159535,5,0,0:0:0:0:
256,160,159709,1,0,0:0:0:0:
346,159,159884,1,0,0:0:0:0:
343,76,160058,1,0,0:0:0:0:
352,32,160232,5,0,0:0:0:0:
160,32,160407,2,0,L|152:57,2,22.5000001490115
288,32,160930,5,0,0:0:0:0:
224,32,161104,1,0,0:0:0:0:
288,64,161279,1,0,0:0:0:0:
352,160,161453,5,0,0:0:0:0:
384,96,161628,1,0,0:0:0:0:
160,32,161802,6,0,L|152:57,2,22.5000001490115
256,160,162325,5,0,0:0:0:0:
192,128,162500,1,0,0:0:0:0:
128,153,162674,2,0,L|160:185,3,45.000000298023
96,160,163895,5,0,0:0:0:0:
64,160,164069,2,0,L|96:192,3,45.000000298023
160,192,165290,6,0,L|172:215,2,22.5000001490115
175,175,165813,5,0,0:0:0:0:
256,96,165988,1,0,0:0:0:0:
337,96,166162,1,0,0:0:0:0:
255,27,166336,1,0,0:0:0:0:
166,65,166511,2,0,L|198:97,3,45.000000298023
160,160,167731,5,0,0:0:0:0:
256,96,167906,5,0,0:0:0:0:
224,64,168080,1,0,0:0:0:0:
320,96,168255,5,0,0:0:0:0:
320,160,168429,1,0,0:0:0:0:
224,192,168603,5,0,0:0:0:0:
160,256,168778,1,0,0:0:0:0:
352,192,168952,5,0,0:0:0:0:
416,128,169127,1,0,0:0:0:0:
64,192,169301,5,0,0:0:0:0:
328,153,169475,1,0,0:0:0:0:
416,224,169650,5,0,0:0:0:0:
352,224,169824,1,0,0:0:0:0:
290,224,169999,1,0,0:0:0:0:
222,225,170173,1,0,0:0:0:0:
160,224,170347,5,0,0:0:0:0:
352,128,170522,1,0,0:0:0:0:
480,192,170696,5,0,0:0:0:0:
402,170,170871,5,0,0:0:0:0:
192,64,171045,5,0,0:0:0:0:
165,32,171219,5,0,0:0:0:0:
96,32,171394,5,0,0:0:0:0:
60,31,171568,2,0,L|58:58,2,22.5000001490115
19,31,172091,1,0,0:0:0:0:
224,160,172266,5,0,0:0:0:0:
160,160,172440,5,0,0:0:0:0:
96,160,172615,5,0,0:0:0:0:
96,224,172789,5,0,0:0:0:0:
107,250,172963,2,0,L|130:258,2,22.5000001490115
384,160,173487,5,0,0:0:0:0:
256,160,173661,5,0,0:0:0:0:
256,160,173835,5,0,0:0:0:0:
128,160,174010,5,0,0:0:0:0:
96,288,174184,5,0,0:0:0:0:
96,288,174359,5,0,0:0:0:0:
96,288,174533,5,0,0:0:0:0:
128,224,174707,5,0,0:0:0:0:
128,224,174882,5,0,0:0:0:0:
128,224,175056,5,0,0:0:0:0:
256,160,175231,5,0,0:0:0:0:
288,160,175405,5,0,0:0:0:0:
320,160,175579,5,0,0:0:0:0:
192,96,175754,5,0,0:0:0:0:
192,96,175928,5,0,0:0:0:0:
192,96,176103,5,0,0:0:0:0:
480,160,176277,5,0,0:0:0:0:
32,96,176451,5,0,0:0:0:0:
79,99,176626,5,0,0:0:0:0:
128,128,176800,5,0,0:0:0:0:
96,160,176975,5,0,0:0:0:0:
128,224,177149,5,0,0:0:0:0:
238,254,177323,5,0,0:0:0:0:
352,256,177498,5,0,0:0:0:0:
236,160,177672,5,0,0:0:0:0:
224,64,177847,5,0,0:0:0:0:
352,64,178021,5,0,0:0:0:0:
416,96,178195,5,0,0:0:0:0:
448,96,178370,5,0,0:0:0:0:
448,64,178457,1,0,0:0:0:0:
448,64,178544,1,0,0:0:0:0:
448,64,178631,1,0,0:0:0:0:
448,96,178719,1,0,0:0:0:0:
448,128,178806,1,0,0:0:0:0:
448,96,178893,5,0,0:0:0:0:
448,96,178980,5,0,0:0:0:0:
480,160,179067,5,0,0:0:0:0:
256,160,180463,5,0,0:0:0:0:
128,224,181858,5,0,0:0:0:0:
32,192,182555,1,0,0:0:0:0:
0,96,183253,1,0,0:0:0:0:
107,123,183951,1,0,0:0:0:0:
149,135,184299,1,0,0:0:0:0:
171,153,184474,1,0,0:0:0:0:
194,169,184648,2,0,L|234:219,3,45.000000298023
267,205,186043,1,0,0:0:0:0:
224,125,186741,1,0,0:0:0:0:
223,81,187090,1,0,0:0:0:0:
256,128,187439,5,0,0:0:0:0:
128,64,187787,1,0,0:0:0:0:
128,274,188485,1,0,0:0:0:0:
232,275,188834,1,0,0:0:0:0:
350,279,189183,1,0,0:0:0:0:
348,64,189880,1,0,0:0:0:0:
227,64,190229,1,0,0:0:0:0:
224,160,192671,5,0,0:0:0:0:
287,221,193019,2,0,B|384:224|474:103|384:96|192:128|416:224,1,360.000002384184
288,192,196507,1,0,0:0:0:0:
340,311,197205,1,0,0:0:0:0:
385,228,197554,2,0,L|353:196,2,45.000000298023
431,185,198600,1,0,0:0:0:0:
428,43,199298,1,0,0:0:0:0:
224,160,199995,5,0,0:0:0:0:
224,96,200693,1,0,0:0:0:0:
352,96,201390,5,0,0:0:0:0:
224,128,201739,1,0,0:0:0:0:
416,64,202262,1,0,0:0:0:0:
192,32,202786,1,0,0:0:0:0:
82,94,203134,1,0,0:0:0:0:
160,192,203483,1,0,0:0:0:0:
160,96,203832,1,0,0:0:0:0:
192,32,204181,5,0,0:0:0:0:
64,160,204530,1,0,0:0:0:0:
479,163,205576,1,0,0:0:0:0:
