osu file format v14

[General]
AudioFilename: Los malaventurados no lloran.mp3
AudioLeadIn: 0
PreviewTime: 530
Countdown: 1
SampleSet: Soft
StackLeniency: 0.7
Mode: 0
LetterboxInBreaks: 1
WidescreenStoryboard: 1

[Editor]
DistanceSpacing: 1
BeatDivisor: 4
GridSize: 32
TimelineZoom: 0.8

[Metadata]
Title:Los Malaventurados No Lloran Tus Palabras
TitleUnicode:Los Malaventurados No Lloran Tus Palabras
Artist:pxndx
ArtistUnicode:pxndx
Creator:donjuan_217
Version:Hard
Source:
Tags:
BeatmapID:382128
BeatmapSetID:155837

[Difficulty]
HPDrainRate:7
CircleSize:3
OverallDifficulty:7
ApproachRate:8
SliderMultiplier:0.90000000596046
SliderTickRate:1

[Events]
//Background and Video events
0,0,"pxndx136.jpg",0,0
//Break Periods
//Storyboard Layer 0 (Background)
//Storyboard Layer 1 (Fail)
//Storyboard Layer 2 (Pass)
//Storyboard Layer 3 (Foreground)
//Storyboard Sound Samples

[TimingPoints]
484,697.59330310429,4,2,0,100,1,0

[Colours]
Combo1 : 128,0,255
Combo2 : 0,202,0
Combo3 : 18,124,255
Combo4 : 242,24,57
Combo5 : 255,192,0
Combo6 : 0,0,0

[HitObjects]
256,192,484,5,0,0:0:0:0:
96,192,3274,1,0,0:0:0:0:
416,192,6064,1,0,0:0:0:0:
256,192,8855,1,0,0:0:0:0:
352,128,9203,1,0,0:0:0:0:
448,64,9552,1,0,0:0:0:0:
256,64,9727,1,0,0:0:0:0:
64,64,9901,1,0,0:0:0:0:
160,128,10250,1,0,0:0:0:0:
256,192,10947,1,0,0:0:0:0:
32,352,11645,6,0,B|96:352|96:288|160:288,1,135.000000894069,0|0,0:0|0:0,0:0:0:0:
480,256,13040,1,0,0:0:0:0:
32,256,13738,1,0,0:0:0:0:
352,224,13912,1,0,0:0:0:0:
256,160,14087,1,0,0:0:0:0:
160,96,14435,1,0,0:0:0:0:
480,160,14784,2,0,L|512:128,1,45.000000298023,0|0,0:0|0:0,0:0:0:0:
32,160,15482,1,0,0:0:0:0:
416,352,15831,2,0,L|384:352,1,45.000000298023
96,352,16528,2,0,L|160:352,1,45.000000298023
256,0,17226,6,0,B|224:64|288:32|256:96,1,90.000000596046
96,160,18272,2,0,L|128:192,1,45.000000298023
416,160,18970,2,0,L|384:128,1,45.000000298023,0|0,0:0|0:0,0:0:0:0:
256,192,19667,2,0,L|224:192,1,22.5000001490115
96,288,20016,2,0,B|32:224|96:160|160:224,1,180.000001192092,0|0,0:0|0:0,0:0:0:0:
256,288,21586,2,0,L|288:288,1,22.5000001490115
448,224,21934,2,0,L|416:224,1,22.5000001490115
224,160,22283,2,0,L|256:160,1,22.5000001490115
480,352,22632,2,0,L|448:352,1,22.5000001490115
32,32,23155,5,0,0:0:0:0:
224,64,23504,1,0,0:0:0:0:
32,128,23853,1,0,0:0:0:0:
224,160,24202,1,0,0:0:0:0:
480,224,24550,2,0,L|416:224,1,45.000000298023
256,288,25248,1,0,0:0:0:0:
64,352,25597,6,0,B|64:288|128:352|128:288,1,90.000000596046
128,96,26643,1,0,0:0:0:0:
384,64,26992,2,0,L|416:96,1,45.000000298023,0|0,0:0|0:0,0:0:0:0:
448,256,27690,2,0,L|416:224,1,45.000000298023
32,160,28387,6,0,B|96:96|96:224|160:160,1,135.000000894069
480,256,29782,1,0,0:0:0:0:
96,96,30131,2,0,L|64:64,1,45.000000298023
416,320,30829,1,0,0:0:0:0:
224,128,31178,6,0,B|160:128|224:32|160:32,1,135.000000894069
448,32,32398,1,0,0:0:0:0:
64,352,32573,2,0,B|128:352|64:256|128:256,1,135.000000894069
256,192,33968,6,0,P|224:256|160:256,1,135.000000894069
320,128,35363,2,0,P|352:64|416:64,1,135.000000894069
96,64,36758,2,0,P|160:64|192:128,1,135.000000894069
480,192,38154,5,0,0:0:0:0:
416,128,38502,1,0,0:0:0:0:
480,320,38851,1,0,0:0:0:0:
416,256,39200,1,0,0:0:0:0:
32,352,39549,2,0,B|64:288|128:352|160:288,1,135.000000894069
448,96,40944,2,0,L|480:64,1,45.000000298023,0|0,0:0|0:0,0:0:0:0:
320,160,41642,2,0,L|352:128,1,45.000000298023
32,32,42339,6,0,B|64:128|128:32|128:96,1,135.000000894069
224,160,43560,1,0,0:0:0:0:
288,224,43734,1,0,0:0:0:0:
64,160,44083,1,0,0:0:0:0:
448,224,44432,2,0,L|384:224,1,45.000000298023
448,64,45129,6,0,P|384:64|352:128,1,135.000000894069
352,288,46525,1,0,0:0:0:0:
448,320,46873,1,0,0:0:0:0:
416,192,47222,1,0,0:0:0:0:
512,224,47571,1,0,0:0:0:0:
192,256,47920,6,0,P|128:224|128:160,1,135.000000894069
352,64,49315,2,0,L|320:32,1,45.000000298023,0|0,0:0|0:0,0:0:0:0:
160,64,50013,2,0,L|192:96,1,45.000000298023
320,256,50710,6,0,P|384:224|384:160,1,135.000000894069
160,320,52105,2,0,L|96:320,1,45.000000298023
352,320,52803,2,0,L|416:320,1,45.000000298023
480,96,53501,6,0,P|384:96|352:128,1,135.000000894069
32,96,54896,2,0,P|128:96|160:128,1,135.000000894069
256,192,56291,12,0,58733,0:0:0:0:
192,320,59081,6,0,B|128:288|192:224|256:160|192:128|96:224|32:192,1,315.000002086161
480,192,61872,2,0,B|416:224|320:128|256:160|320:224|384:288|320:320,1,315.000002086161
256,192,64662,5,0,0:0:0:0:
384,320,65010,1,0,0:0:0:0:
448,64,65359,1,0,0:0:0:0:
256,320,65534,1,0,0:0:0:0:
64,64,65708,1,0,0:0:0:0:
128,320,66057,1,0,0:0:0:0:
256,192,66754,1,0,0:0:0:0:
416,128,67452,6,0,B|416:64|480:64|480:0,1,135.000000894069,0|0,0:0|0:0,0:0:0:0:
32,320,68847,1,0,0:0:0:0:
480,320,69545,1,0,0:0:0:0:
128,32,69719,1,0,0:0:0:0:
256,160,69894,1,0,0:0:0:0:
384,288,70242,1,0,0:0:0:0:
480,160,70591,2,0,L|512:128,1,45.000000298023,0|0,0:0|0:0,0:0:0:0:
32,160,71289,1,0,0:0:0:0:
448,352,71638,2,0,L|416:352,1,45.000000298023
64,32,72335,2,0,L|128:32,1,45.000000298023
480,160,73033,6,0,B|448:224|512:192|480:256,1,90.000000596046
32,64,74079,2,0,L|64:96,1,45.000000298023
480,320,74777,2,0,L|448:288,1,45.000000298023,0|0,0:0|0:0,0:0:0:0:
448,64,75474,2,0,L|416:64,1,22.5000001490115
64,320,75823,2,0,B|0:256|64:192|128:256,1,180.000001192092,0|0,0:0|0:0,0:0:0:0:
448,32,77393,2,0,L|480:32,1,22.5000001490115
256,128,77741,2,0,L|224:128,1,22.5000001490115
480,224,78090,2,0,L|512:224,1,22.5000001490115
224,320,78439,2,0,L|192:320,1,22.5000001490115
480,32,78962,5,0,0:0:0:0:
32,352,79311,1,0,0:0:0:0:
288,128,79660,1,0,0:0:0:0:
224,256,80009,1,0,0:0:0:0:
448,96,80358,2,0,L|384:96,1,45.000000298023
96,96,81055,1,0,0:0:0:0:
416,352,81404,6,0,B|480:352|416:288|480:288,1,90.000000596046
128,96,82450,1,0,0:0:0:0:
416,64,82799,2,0,L|448:96,1,45.000000298023,0|0,0:0|0:0,0:0:0:0:
96,320,83497,2,0,L|64:288,1,45.000000298023
384,320,84194,6,0,B|480:384|416:256|512:320,1,135.000000894069
480,128,85589,1,0,0:0:0:0:
32,256,85938,2,0,L|0:224,1,45.000000298023
256,320,86636,1,0,0:0:0:0:
64,96,86985,6,0,B|0:96|64:0|0:0,1,135.000000894069
512,0,88205,1,0,0:0:0:0:
0,384,88380,2,0,B|64:384|0:288|64:288,1,135.000000894069
448,96,89776,6,0,P|416:160|352:160,1,135.000000894069
64,288,91171,2,0,P|96:224|160:224,1,135.000000894069
352,224,92566,2,0,P|416:224|448:288,1,135.000000894069
256,192,93962,5,0,0:0:0:0:
416,128,94310,1,0,0:0:0:0:
256,96,94659,1,0,0:0:0:0:
416,224,95008,1,0,0:0:0:0:
192,256,95357,2,0,B|160:320|96:256|64:320,1,135.000000894069
384,160,96752,2,0,L|416:128,1,45.000000298023,0|0,0:0|0:0,0:0:0:0:
128,224,97450,2,0,L|160:256,1,45.000000298023
256,192,98147,6,0,B|288:288|352:192|352:256,1,135.000000894069
288,96,99368,1,0,0:0:0:0:
224,320,99542,1,0,0:0:0:0:
64,160,99891,1,0,0:0:0:0:
448,224,100240,2,0,L|384:224,1,45.000000298023
224,32,100937,6,0,P|160:32|128:96,1,135.000000894069
480,352,102333,1,0,0:0:0:0:
384,288,102681,1,0,0:0:0:0:
288,224,103030,1,0,0:0:0:0:
480,224,103379,1,0,0:0:0:0:
96,160,103728,6,0,P|32:128|32:64,1,135.000000894069
224,64,105123,2,0,L|288:64,1,45.000000298023,0|0,0:0|0:0,0:0:0:0:
448,192,105821,2,0,L|480:224,1,45.000000298023
192,320,106518,6,0,P|256:288|256:224,1,135.000000894069
160,96,107913,2,0,L|96:96,1,45.000000298023
352,288,108611,2,0,L|416:288,1,45.000000298023
160,128,109309,6,0,P|64:128|32:160,1,135.000000894069,0|0,0:0|0:0,0:0:0:0:
352,256,110704,2,0,P|448:256|480:288,1,135.000000894069
64,320,112098,6,0,L|0:320,1,45.000000298023
480,64,112622,1,0,0:0:0:0:
416,160,112970,1,0,0:0:0:0:
96,256,113319,2,0,L|32:224,1,67.5000004470345
416,224,114017,1,0,0:0:0:0:
416,352,114366,1,0,0:0:0:0:
288,352,114889,5,0,0:0:0:0:
224,64,115238,2,0,L|192:64,1,22.5000001490115
224,192,115761,2,0,L|192:160,1,45.000000298023
96,160,116633,2,0,L|64:160,1,22.5000001490115
96,64,117156,1,0,0:0:0:0:
256,352,117679,6,0,L|192:352,1,45.000000298023
32,96,118203,1,0,0:0:0:0:
480,96,118551,1,0,0:0:0:0:
96,256,118900,2,0,L|32:224,1,67.5000004470345
416,224,119598,1,0,0:0:0:0:
448,192,119947,1,0,0:0:0:0:
32,160,120470,5,0,0:0:0:0:
288,192,120819,2,0,L|256:192,1,22.5000001490115
448,64,121342,2,0,L|416:32,1,45.000000298023
128,128,122214,2,0,L|96:128,1,22.5000001490115
416,288,122737,1,0,0:0:0:0:
96,320,123260,6,0,L|32:320,1,45.000000298023
256,192,123784,1,0,0:0:0:0:
480,160,124132,1,0,0:0:0:0:
96,64,124481,2,0,L|32:32,1,67.5000004470345
416,224,125179,1,0,0:0:0:0:
96,352,125528,1,0,0:0:0:0:
192,352,126051,5,0,0:0:0:0:
480,128,126400,2,0,L|448:128,1,22.5000001490115
96,128,126923,2,0,L|64:96,1,45.000000298023
64,288,127795,2,0,L|32:288,1,22.5000001490115
384,224,128318,1,0,0:0:0:0:
256,192,128841,6,0,L|192:192,1,45.000000298023
128,160,129365,1,0,0:0:0:0:
256,32,129713,1,0,0:0:0:0:
96,352,130062,2,0,L|32:320,1,67.5000004470345
416,352,130760,1,0,0:0:0:0:
192,192,131109,1,0,0:0:0:0:
320,224,131632,5,0,0:0:0:0:
288,320,131981,2,0,L|256:320,1,22.5000001490115
384,64,132504,2,0,L|352:32,1,45.000000298023
96,96,133376,2,0,L|64:96,1,22.5000001490115
416,320,133899,1,0,0:0:0:0:
320,224,134421,6,0,B|256:160|320:128|352:224|448:96|352:0|256:64,1,315.000002086161
192,64,137212,2,0,B|192:256|32:160|96:256|96:64|256:256,1,360.000002384184
256,192,142793,5,0,0:0:0:0:
160,192,144188,1,0,0:0:0:0:
448,320,145583,6,0,B|352:384|224:224|512:288|384:192,1,270.000001788138
128,128,148373,2,0,B|32:128|32:224|128:224|128:320|32:320,1,270.000001788138
288,160,151164,1,0,0:0:0:0:
192,160,153954,1,0,0:0:0:0:
320,160,155349,1,0,0:0:0:0:
