osu file format v14

[General]
AudioFilename: Los malaventurados no lloran.mp3
AudioLeadIn: 0
PreviewTime: 530
Countdown: 1
SampleSet: Soft
StackLeniency: 0.7
Mode: 2
LetterboxInBreaks: 1
WidescreenStoryboard: 0

[Editor]
DistanceSpacing: 1
BeatDivisor: 2
GridSize: 32
TimelineZoom: 1

[Metadata]
Title:Los Malaventurados No Lloran Tus Palabras
TitleUnicode:Los Malaventurados No Lloran Tus Palabras
Artist:pxndx
ArtistUnicode:pxndx
Creator:donjuan_217
Version:Easy
Source:
Tags:
BeatmapID:382126
BeatmapSetID:155837

[Difficulty]
HPDrainRate:2
CircleSize:3
OverallDifficulty:10
ApproachRate:6
SliderMultiplier:0.90000000596046
SliderTickRate:1

[Events]
//Background and Video events
0,0,"pxndx136.jpg",0,0
//Break Periods
2,684,5014
2,59281,60822
2,142993,144533
2,168106,169646
//Storyboard Layer 0 (Background)
//Storyboard Layer 1 (Fail)
//Storyboard Layer 2 (Pass)
//Storyboard Layer 3 (Foreground)
//Storyboard Sound Samples

[TimingPoints]
484,697.59330310429,4,2,0,100,1,0

[Colours]
Combo1 : 128,0,255
Combo2 : 0,202,0
Combo3 : 18,124,255
Combo4 : 242,24,57
Combo5 : 255,192,0
Combo6 : 0,0,0

[HitObjects]
52,62,484,5,0,0:0:0:0:
288,320,6064,5,0,0:0:0:0:
256,288,6413,1,8,0:0:0:0:
224,256,6762,1,0,0:0:0:0:
192,224,7111,1,8,0:0:0:0:
288,192,7459,5,0,0:0:0:0:
320,160,7808,1,8,0:0:0:0:
352,128,8157,1,0,0:0:0:0:
480,64,8506,1,8,0:0:0:0:
196,64,8855,6,0,B|4:64|4:256|196:256,1,360.000002384184
359,318,12343,5,0,0:0:0:0:
269,321,13040,1,0,0:0:0:0:
182,296,13738,1,2,0:0:0:0:
137,290,14087,1,2,0:0:0:0:
92,288,14435,5,0,0:0:0:0:
153,222,15133,1,2,0:0:0:0:
256,224,15831,1,0,0:0:0:0:
352,256,16528,1,0,0:0:0:0:
416,320,17226,5,0,0:0:0:0:
324,347,17923,1,0,0:0:0:0:
247,299,18621,1,0,0:0:0:0:
298,224,19319,1,0,0:0:0:0:
336,142,20016,6,0,B|336:46|432:46|464:78|432:110,2,180.000001192092
261,179,23504,1,0,0:0:0:0:
212,103,24202,1,0,0:0:0:0:
300,58,24899,1,2,0:0:0:0:
337,83,25248,5,2,0:0:0:0:
380,93,25597,1,0,0:0:0:0:
333,169,26294,1,2,0:0:0:0:
254,212,26992,5,0,0:0:0:0:
185,270,27690,1,0,0:0:0:0:
117,329,28387,1,0,0:0:0:0:
74,249,29085,1,0,0:0:0:0:
54,161,29782,5,0,0:0:0:0:
130,112,30480,1,0,0:0:0:0:
207,66,31178,2,0,L|303:66|303:66,3,90.000000596046
384,128,33968,5,0,0:0:0:0:
352,160,34317,1,0,0:0:0:0:
320,192,34666,1,0,0:0:0:0:
288,224,35014,1,0,0:0:0:0:
480,224,35363,1,2,0:0:0:0:
416,256,35712,1,2,0:0:0:0:
352,288,36061,1,2,0:0:0:0:
320,320,36410,5,2,0:0:0:0:
224,320,36758,1,0,0:0:0:0:
160,320,37107,1,0,0:0:0:0:
96,320,37456,1,0,0:0:0:0:
102,293,37805,1,0,0:0:0:0:
67,264,38154,1,2,0:0:0:0:
49,222,38502,1,2,0:0:0:0:
55,174,38851,1,2,0:0:0:0:
82,138,39200,1,2,0:0:0:0:
115,107,39549,5,0,0:0:0:0:
155,87,39898,1,0,0:0:0:0:
198,74,40246,1,0,0:0:0:0:
242,67,40595,1,0,0:0:0:0:
287,64,40944,1,2,0:0:0:0:
332,64,41293,1,2,0:0:0:0:
376,70,41642,1,2,0:0:0:0:
393,111,41990,1,2,0:0:0:0:
416,150,42339,6,0,B|480:342|480:214|416:374|352:214|352:342|384:182|352:118|256:342,1,360.000002384184,0|0,0:0|0:0,0:0:0:0:
235,345,45827,5,0,0:0:0:0:
157,298,46525,1,0,0:0:0:0:
191,269,46873,1,2,0:0:0:0:
230,246,47222,1,0,0:0:0:0:
319,236,47920,2,0,B|223:12|191:76|223:236|223:108|159:268|95:108|95:236|159:44,1,360.000002384184
184,40,51408,5,0,0:0:0:0:
273,38,52105,1,0,0:0:0:0:
318,38,52454,1,2,0:0:0:0:
359,54,52803,1,0,0:0:0:0:
318,134,53501,2,0,B|542:134|286:230|286:230|446:262,1,360.000002384184
256,192,56989,12,0,59081,0:0:0:0:
453,333,61872,5,0,0:0:0:0:
414,309,62221,1,0,0:0:0:0:
376,283,62569,1,0,0:0:0:0:
332,270,62918,1,0,0:0:0:0:
96,320,63267,5,0,0:0:0:0:
224,256,63616,1,0,0:0:0:0:
160,288,63964,1,0,0:0:0:0:
288,224,64313,1,0,0:0:0:0:
124,236,64662,6,0,B|28:204|124:76|508:364|28:12|316:44,1,360.000002384184
355,57,68150,1,0,0:0:0:0:
423,115,68848,1,0,0:0:0:0:
342,154,69545,1,2,0:0:0:0:
377,182,69894,5,2,0:0:0:0:
420,194,70243,1,0,0:0:0:0:
346,246,70940,1,2,0:0:0:0:
248,250,71638,5,2,0:0:0:0:
224,288,71987,1,2,0:0:0:0:
192,320,72336,1,0,0:0:0:0:
109,310,73033,1,2,0:0:0:0:
77,225,73731,1,0,0:0:0:0:
52,139,74428,5,2,0:0:0:0:
96,128,74777,1,2,0:0:0:0:
130,95,75126,1,0,0:0:0:0:
211,55,75824,2,0,B|307:183|307:23|179:247,2,180.000001192092
299,39,79312,1,0,0:0:0:0:
384,66,80009,5,0,0:0:0:0:
439,136,80707,1,2,0:0:0:0:
447,180,81056,1,2,0:0:0:0:
448,224,81404,1,0,0:0:0:0:
360,245,82102,5,2,0:0:0:0:
273,266,82800,1,2,0:0:0:0:
224,288,83148,1,2,0:0:0:0:
185,288,83497,1,0,0:0:0:0:
95,299,84195,5,2,0:0:0:0:
57,217,84892,1,0,0:0:0:0:
61,127,85590,1,0,0:0:0:0:
96,128,85939,1,2,0:0:0:0:
128,128,86287,1,0,0:0:0:0:
236,90,86985,6,0,P|300:58|300:122,3,90.000000596046
353,133,89775,5,0,0:0:0:0:
395,148,90124,1,0,0:0:0:0:
160,128,90473,1,0,0:0:0:0:
128,160,90822,1,0,0:0:0:0:
399,66,91171,1,2,0:0:0:0:
354,57,91519,1,2,0:0:0:0:
308,57,91868,1,2,0:0:0:0:
263,58,92217,1,2,0:0:0:0:
218,53,92566,5,0,0:0:0:0:
224,96,92915,1,0,0:0:0:0:
220,141,93263,1,0,0:0:0:0:
180,119,93612,1,0,0:0:0:0:
143,92,93961,1,2,0:0:0:0:
103,70,94310,1,2,0:0:0:0:
65,46,94659,1,2,0:0:0:0:
73,90,95007,1,2,0:0:0:0:
90,131,95356,5,0,0:0:0:0:
132,145,95705,1,0,0:0:0:0:
178,149,96054,1,0,0:0:0:0:
216,124,96403,1,0,0:0:0:0:
247,91,96751,1,2,0:0:0:0:
285,68,97100,1,2,0:0:0:0:
329,54,97449,1,2,0:0:0:0:
359,86,97798,1,2,0:0:0:0:
382,124,98147,6,0,B|446:316|446:188|382:348|318:188|318:316|350:156|318:92|222:316,1,360.000002384184,0|0,0:0|0:0,0:0:0:0:
251,334,101635,5,0,0:0:0:0:
340,329,102332,1,0,0:0:0:0:
403,265,103030,1,0,0:0:0:0:
421,176,103727,2,0,B|325:-48|293:16|261:240|325:48|261:208|197:48|197:208|261:-16,1,360.000002384184
145,63,107215,5,0,0:0:0:0:
72,116,107913,1,0,0:0:0:0:
62,205,108610,1,0,0:0:0:0:
151,195,109308,2,0,B|503:323|247:99|247:99|215:131,1,360.000002384184
354,92,112796,5,0,0:0:0:0:
266,72,113494,1,0,0:0:0:0:
180,99,114191,1,2,0:0:0:0:
202,138,114540,1,0,0:0:0:0:
237,166,114889,5,2,0:0:0:0:
319,200,115586,1,0,0:0:0:0:
396,246,116284,1,0,0:0:0:0:
318,291,116982,1,0,0:0:0:0:
228,291,117679,6,0,B|36:259|68:195|36:131|324:131|164:227,1,360.000002384184
283,220,121167,1,0,0:0:0:0:
373,222,121865,1,0,0:0:0:0:
418,144,122562,1,2,0:0:0:0:
439,104,122911,1,2,0:0:0:0:
459,64,123260,1,0,0:0:0:0:
369,55,123958,5,0,0:0:0:0:
280,38,124655,1,0,0:0:0:0:
198,76,125353,1,2,0:0:0:0:
157,96,125701,1,0,0:0:0:0:
116,116,126050,5,2,0:0:0:0:
62,188,126748,1,0,0:0:0:0:
148,213,127445,1,0,0:0:0:0:
236,196,128143,1,0,0:0:0:0:
326,196,128841,6,0,B|518:164|454:100|518:36|230:36|390:132,1,360.000002384184
282,121,132329,1,0,0:0:0:0:
193,107,133026,1,0,0:0:0:0:
103,93,133724,1,0,0:0:0:0:
68,121,134073,5,2,0:0:0:0:
59,165,134421,1,0,0:0:0:0:
256,192,135119,12,0,139305,0:0:0:0:
224,320,140002,5,0,0:0:0:0:
160,256,140700,1,0,0:0:0:0:
96,320,141397,1,2,0:0:0:0:
70,283,141746,1,0,0:0:0:0:
50,242,142095,1,2,0:0:0:0:
83,158,142793,5,0,0:0:0:0:
433,76,145583,6,0,B|209:44|81:108|209:140|305:140,1,360.000002384184
291,223,149071,1,0,0:0:0:0:
327,305,149768,1,0,0:0:0:0:
283,302,150117,1,2,0:0:0:0:
239,289,150466,1,2,0:0:0:0:
152,263,151164,2,0,B|344:103|248:7|120:103,1,360.000002384184
77,172,154652,6,0,B|141:172|141:204|109:204|109:140|173:140|173:172,3,90.000000596046
220,110,157442,1,0,0:0:0:0:
302,73,158140,1,2,0:0:0:0:
383,111,158837,1,0,0:0:0:0:
448,172,159535,5,2,0:0:0:0:
364,206,160232,1,0,0:0:0:0:
303,139,160930,1,2,0:0:0:0:
230,85,161628,1,0,0:0:0:0:
142,63,162325,5,2,0:0:0:0:
277,181,163720,1,2,0:0:0:0:
426,301,165116,1,2,0:0:0:0:
248,274,166511,1,0,0:0:0:0:
159,259,167208,1,0,0:0:0:0:
72,235,167906,1,2,0:0:0:0:
388,64,170696,5,0,0:0:0:0:
318,120,171394,1,0,0:0:0:0:
249,178,172091,1,2,0:0:0:0:
187,243,172789,1,2,0:0:0:0:
132,314,173487,6,0,B|292:314|484:186|484:122|324:58|132:90|164:218|292:282|420:346|420:346,1,720.000004768368
346,284,179765,1,0,0:0:0:0:
295,209,180463,2,0,B|359:145|359:17|263:113|199:177|231:17,2,270.000001788138
226,267,185346,1,0,0:0:0:0:
160,328,186043,6,0,B|64:392|-128:328|352:168|-128:264|-128:168|320:72|96:264|288:328,1,540.000003576276
312,241,190926,1,0,0:0:0:0:
347,158,191624,2,0,B|347:30|475:30|475:158|475:222|475:286|411:286|379:286|219:286|251:158,1,540.000003576276
164,188,196507,1,0,0:0:0:0:
127,161,196856,1,0,0:0:0:0:
96,128,197205,5,0,0:0:0:0:
179,94,197902,1,0,0:0:0:0:
263,63,198600,2,0,B|359:287|423:223|423:95|391:31|327:63,1,360.000002384184
220,96,202437,1,0,0:0:0:0:
185,125,202786,5,0,0:0:0:0:
107,170,203483,1,0,0:0:0:0:
70,252,204181,1,0,0:0:0:0:
153,286,204878,2,0,B|185:318|185:286|153:318,2,45.000000298023
