osu file format v14

[General]
AudioFilename: 1-09 - Toki(Club Mix).mp3
AudioLeadIn: 0
PreviewTime: 73902
Countdown: 1
SampleSet: None
StackLeniency: 0.7
Mode: 3
LetterboxInBreaks: 1
SpecialStyle: 0
WidescreenStoryboard: 0

[Editor]
Bookmarks: 14825,29594,59132,72056,73902,88671,103440,118209,132979,162517,192056,206825,221594,236363,251132,252979,341594
DistanceSpacing: 0.8
BeatDivisor: 4
GridSize: 32
TimelineZoom: 2

[Metadata]
Title:Toki (Club Mix)
TitleUnicode:Toki (Club Mix)
Artist:puru
ArtistUnicode:puru
Creator:JamesHappy
Version:Shift
Source:BMS
Tags:of fighters 2012 groundbreaking bof2012 compilation album remix
BeatmapID:1435246
BeatmapSetID:678767

[Difficulty]
HPDrainRate:8
CircleSize:4
OverallDifficulty:8
ApproachRate:5
SliderMultiplier:1.4
SliderTickRate:1

[Events]
//Background and Video events
0,0,"sdsd.jpg",0,0
//Break Periods
//Storyboard Layer 0 (Background)
//Storyboard Layer 1 (Fail)
//Storyboard Layer 2 (Pass)
//Storyboard Layer 3 (Foreground)
//Storyboard Sound Samples

[TimingPoints]
40,461.538461538462,4,2,0,10,1,0
73886,-100,4,2,0,10,0,1
101578,-100,4,2,0,10,0,0
103424,-100,4,2,0,10,0,1
132963,-100,4,2,0,10,0,0
192040,-100,4,2,0,10,0,1
251116,-100,4,2,0,10,0,0

[HitObjects]
64,192,40,5,0,0:0:0:0:
192,192,40,1,0,0:0:0:0:
320,192,40,1,0,0:0:0:0:
448,192,40,1,0,0:0:0:0:
192,192,270,1,0,0:0:0:0:
320,192,386,1,0,0:0:0:0:
64,192,501,1,0,0:0:0:0:
192,192,501,1,0,0:0:0:0:
320,192,732,1,0,0:0:0:0:
192,192,963,1,0,0:0:0:0:
64,192,963,1,0,0:0:0:0:
320,192,1078,1,0,0:0:0:0:
448,192,1193,1,0,0:0:0:0:
64,192,1424,1,0,0:0:0:0:
192,192,1424,1,0,0:0:0:0:
320,192,1655,1,0,0:0:0:0:
448,192,1770,1,0,0:0:0:0:
64,192,1886,1,0,0:0:0:0:
192,192,1886,1,0,0:0:0:0:
320,192,2001,1,0,0:0:0:0:
192,192,2116,1,0,0:0:0:0:
448,192,2232,1,0,0:0:0:0:
64,192,2347,1,0,0:0:0:0:
192,192,2347,1,0,0:0:0:0:
320,192,2578,1,0,0:0:0:0:
64,192,2809,1,0,0:0:0:0:
192,192,2809,1,0,0:0:0:0:
448,192,2924,1,0,0:0:0:0:
320,192,3040,1,0,0:0:0:0:
64,192,3270,1,0,0:0:0:0:
192,192,3270,1,0,0:0:0:0:
448,192,3501,1,0,0:0:0:0:
448,192,3616,1,0,0:0:0:0:
320,192,3616,1,0,0:0:0:0:
64,192,3732,1,0,0:0:0:0:
192,192,3732,1,0,0:0:0:0:
448,192,3963,1,0,0:0:0:0:
320,192,4078,1,0,0:0:0:0:
192,192,4193,1,0,0:0:0:0:
64,192,4193,1,0,0:0:0:0:
320,192,4424,1,0,0:0:0:0:
64,192,4655,1,0,0:0:0:0:
192,192,4655,1,0,0:0:0:0:
320,192,4770,1,0,0:0:0:0:
192,192,4886,1,0,0:0:0:0:
64,192,5116,1,0,0:0:0:0:
192,192,5116,1,0,0:0:0:0:
448,192,5232,1,0,0:0:0:0:
320,192,5347,1,0,0:0:0:0:
448,192,5463,1,0,0:0:0:0:
192,192,5578,1,0,0:0:0:0:
64,192,5578,1,0,0:0:0:0:
320,192,5693,1,0,0:0:0:0:
192,192,5809,1,0,0:0:0:0:
448,192,5924,1,0,0:0:0:0:
64,192,6040,1,0,0:0:0:0:
192,192,6040,1,0,0:0:0:0:
320,192,6270,1,0,0:0:0:0:
64,192,6501,1,0,0:0:0:0:
192,192,6501,1,0,0:0:0:0:
320,192,6616,1,0,0:0:0:0:
448,192,6732,128,0,7078:0:0:0:0:
192,192,6732,1,0,0:0:0:0:
64,192,6963,1,0,0:0:0:0:
192,192,6963,1,0,0:0:0:0:
320,192,7078,1,0,0:0:0:0:
448,192,7193,1,0,0:0:0:0:
192,192,7193,1,0,0:0:0:0:
448,192,7309,1,0,0:0:0:0:
64,192,7424,1,0,0:0:0:0:
192,192,7424,1,0,0:0:0:0:
192,192,7655,1,0,0:0:0:0:
320,192,7770,1,0,0:0:0:0:
192,192,7886,1,0,0:0:0:0:
64,192,7886,1,0,0:0:0:0:
320,192,8116,1,0,0:0:0:0:
192,192,8347,1,0,0:0:0:0:
64,192,8347,1,0,0:0:0:0:
448,192,8463,1,0,0:0:0:0:
320,192,8578,1,0,0:0:0:0:
192,192,8809,1,0,0:0:0:0:
64,192,8809,1,0,0:0:0:0:
448,192,8924,1,0,0:0:0:0:
192,192,9040,1,0,0:0:0:0:
320,192,9155,1,0,0:0:0:0:
64,192,9270,1,0,0:0:0:0:
192,192,9270,1,0,0:0:0:0:
448,192,9386,1,0,0:0:0:0:
320,192,9501,1,0,0:0:0:0:
448,192,9616,1,0,0:0:0:0:
64,192,9732,1,0,0:0:0:0:
192,192,9732,1,0,0:0:0:0:
320,192,9963,1,0,0:0:0:0:
64,192,10193,1,0,0:0:0:0:
192,192,10193,1,0,0:0:0:0:
448,192,10309,1,0,0:0:0:0:
320,192,10424,1,0,0:0:0:0:
64,192,10655,1,0,0:0:0:0:
192,192,10655,1,0,0:0:0:0:
320,192,10770,1,0,0:0:0:0:
448,192,10886,1,0,0:0:0:0:
448,192,11001,1,0,0:0:0:0:
64,192,11116,1,0,0:0:0:0:
192,192,11116,1,0,0:0:0:0:
320,192,11232,1,0,0:0:0:0:
64,192,11347,1,0,0:0:0:0:
448,192,11463,1,0,0:0:0:0:
64,192,11578,1,0,0:0:0:0:
192,192,11578,1,0,0:0:0:0:
320,192,11809,1,0,0:0:0:0:
64,192,12040,1,0,0:0:0:0:
192,192,12040,1,0,0:0:0:0:
448,192,12155,1,0,0:0:0:0:
320,192,12270,1,0,0:0:0:0:
64,192,12501,1,0,0:0:0:0:
192,192,12501,1,0,0:0:0:0:
448,192,12616,1,0,0:0:0:0:
64,192,12732,1,0,0:0:0:0:
320,192,12847,1,0,0:0:0:0:
64,192,12963,1,0,0:0:0:0:
192,192,12963,1,0,0:0:0:0:
448,192,13078,1,0,0:0:0:0:
192,192,13193,1,0,0:0:0:0:
320,192,13309,1,0,0:0:0:0:
64,192,13424,1,0,0:0:0:0:
192,192,13424,1,0,0:0:0:0:
448,192,13655,1,0,0:0:0:0:
64,192,13886,1,0,0:0:0:0:
192,192,13886,1,0,0:0:0:0:
320,192,14001,1,0,0:0:0:0:
448,192,14116,128,0,14463:0:0:0:0:
192,192,14116,1,0,0:0:0:0:
64,192,14347,1,0,0:0:0:0:
192,192,14347,1,0,0:0:0:0:
320,192,14463,1,0,0:0:0:0:
448,192,14578,1,0,0:0:0:0:
448,192,14693,1,0,0:0:0:0:
64,192,14809,1,0,0:0:0:0:
192,192,14809,1,0,0:0:0:0:
320,192,15040,1,0,0:0:0:0:
192,192,15155,1,0,0:0:0:0:
448,192,15270,1,0,0:0:0:0:
320,192,15270,1,0,0:0:0:0:
192,192,15501,1,0,0:0:0:0:
448,192,15732,1,0,0:0:0:0:
320,192,15732,1,0,0:0:0:0:
192,192,15847,1,0,0:0:0:0:
64,192,15963,1,0,0:0:0:0:
448,192,16193,1,0,0:0:0:0:
320,192,16193,1,0,0:0:0:0:
192,192,16424,1,0,0:0:0:0:
64,192,16540,1,0,0:0:0:0:
448,192,16655,1,0,0:0:0:0:
320,192,16655,1,0,0:0:0:0:
192,192,16770,1,0,0:0:0:0:
320,192,16886,1,0,0:0:0:0:
64,192,17001,1,0,0:0:0:0:
320,192,17116,1,0,0:0:0:0:
448,192,17116,1,0,0:0:0:0:
192,192,17347,1,0,0:0:0:0:
320,192,17578,1,0,0:0:0:0:
448,192,17578,1,0,0:0:0:0:
64,192,17693,1,0,0:0:0:0:
192,192,17809,1,0,0:0:0:0:
448,192,18040,1,0,0:0:0:0:
320,192,18040,1,0,0:0:0:0:
64,192,18270,1,0,0:0:0:0:
64,192,18386,1,0,0:0:0:0:
192,192,18386,1,0,0:0:0:0:
320,192,18501,1,0,0:0:0:0:
448,192,18501,1,0,0:0:0:0:
64,192,18732,1,0,0:0:0:0:
192,192,18847,1,0,0:0:0:0:
448,192,18963,1,0,0:0:0:0:
320,192,18963,1,0,0:0:0:0:
192,192,19193,1,0,0:0:0:0:
448,192,19424,1,0,0:0:0:0:
320,192,19424,1,0,0:0:0:0:
192,192,19540,1,0,0:0:0:0:
320,192,19655,1,0,0:0:0:0:
448,192,19886,1,0,0:0:0:0:
320,192,19886,1,0,0:0:0:0:
64,192,20001,1,0,0:0:0:0:
192,192,20116,1,0,0:0:0:0:
64,192,20232,1,0,0:0:0:0:
448,192,20347,1,0,0:0:0:0:
320,192,20347,1,0,0:0:0:0:
192,192,20463,1,0,0:0:0:0:
320,192,20578,1,0,0:0:0:0:
64,192,20693,1,0,0:0:0:0:
320,192,20809,1,0,0:0:0:0:
448,192,20809,1,0,0:0:0:0:
192,192,21040,1,0,0:0:0:0:
320,192,21270,1,0,0:0:0:0:
448,192,21270,1,0,0:0:0:0:
192,192,21386,1,0,0:0:0:0:
64,192,21501,128,0,21847:0:0:0:0:
320,192,21501,1,0,0:0:0:0:
448,192,21732,1,0,0:0:0:0:
320,192,21732,1,0,0:0:0:0:
192,192,21847,1,0,0:0:0:0:
64,192,21963,1,0,0:0:0:0:
320,192,21963,1,0,0:0:0:0:
64,192,22078,1,0,0:0:0:0:
448,192,22193,1,0,0:0:0:0:
320,192,22193,1,0,0:0:0:0:
320,192,22424,1,0,0:0:0:0:
192,192,22540,1,0,0:0:0:0:
448,192,22655,1,0,0:0:0:0:
320,192,22655,1,0,0:0:0:0:
192,192,22886,1,0,0:0:0:0:
320,192,23116,1,0,0:0:0:0:
448,192,23116,1,0,0:0:0:0:
64,192,23232,1,0,0:0:0:0:
192,192,23347,1,0,0:0:0:0:
448,192,23578,1,0,0:0:0:0:
320,192,23578,1,0,0:0:0:0:
64,192,23693,1,0,0:0:0:0:
320,192,23809,1,0,0:0:0:0:
192,192,23924,1,0,0:0:0:0:
448,192,24040,1,0,0:0:0:0:
320,192,24040,1,0,0:0:0:0:
64,192,24155,1,0,0:0:0:0:
192,192,24270,1,0,0:0:0:0:
64,192,24386,1,0,0:0:0:0:
448,192,24501,1,0,0:0:0:0:
320,192,24501,1,0,0:0:0:0:
192,192,24732,1,0,0:0:0:0:
320,192,24963,1,0,0:0:0:0:
448,192,24963,1,0,0:0:0:0:
64,192,25078,1,0,0:0:0:0:
192,192,25193,1,0,0:0:0:0:
448,192,25424,1,0,0:0:0:0:
320,192,25424,1,0,0:0:0:0:
192,192,25540,1,0,0:0:0:0:
64,192,25655,1,0,0:0:0:0:
64,192,25770,1,0,0:0:0:0:
448,192,25886,1,0,0:0:0:0:
320,192,25886,1,0,0:0:0:0:
192,192,26001,1,0,0:0:0:0:
448,192,26116,1,0,0:0:0:0:
64,192,26232,1,0,0:0:0:0:
448,192,26347,1,0,0:0:0:0:
320,192,26347,1,0,0:0:0:0:
192,192,26578,1,0,0:0:0:0:
320,192,26809,1,0,0:0:0:0:
448,192,26809,1,0,0:0:0:0:
64,192,26924,1,0,0:0:0:0:
192,192,27040,1,0,0:0:0:0:
448,192,27270,1,0,0:0:0:0:
320,192,27270,1,0,0:0:0:0:
64,192,27386,1,0,0:0:0:0:
448,192,27501,1,0,0:0:0:0:
192,192,27616,1,0,0:0:0:0:
320,192,27732,1,0,0:0:0:0:
448,192,27732,1,0,0:0:0:0:
64,192,27847,1,0,0:0:0:0:
320,192,27963,1,0,0:0:0:0:
192,192,28078,1,0,0:0:0:0:
448,192,28193,1,0,0:0:0:0:
320,192,28193,1,0,0:0:0:0:
64,192,28424,1,0,0:0:0:0:
448,192,28655,1,0,0:0:0:0:
320,192,28655,1,0,0:0:0:0:
192,192,28770,1,0,0:0:0:0:
64,192,28886,128,0,29232:0:0:0:0:
320,192,28886,1,0,0:0:0:0:
448,192,29116,1,0,0:0:0:0:
320,192,29116,1,0,0:0:0:0:
192,192,29232,1,0,0:0:0:0:
64,192,29347,1,0,0:0:0:0:
64,192,29463,1,0,0:0:0:0:
448,192,29578,1,0,0:0:0:0:
320,192,29578,1,0,0:0:0:0:
192,192,29578,1,0,0:0:0:0:
192,192,29809,1,0,0:0:0:0:
320,192,29924,1,0,0:0:0:0:
64,192,30040,1,0,0:0:0:0:
448,192,30040,1,0,0:0:0:0:
320,192,30270,1,0,0:0:0:0:
448,192,30501,1,0,0:0:0:0:
64,192,30501,1,0,0:0:0:0:
192,192,30616,1,0,0:0:0:0:
320,192,30732,1,0,0:0:0:0:
64,192,30963,1,0,0:0:0:0:
448,192,30963,1,0,0:0:0:0:
192,192,31193,1,0,0:0:0:0:
320,192,31309,1,0,0:0:0:0:
64,192,31424,1,0,0:0:0:0:
448,192,31424,1,0,0:0:0:0:
192,192,31540,1,0,0:0:0:0:
64,192,31655,1,0,0:0:0:0:
320,192,31770,1,0,0:0:0:0:
64,192,31886,1,0,0:0:0:0:
448,192,31886,1,0,0:0:0:0:
320,192,32116,1,0,0:0:0:0:
64,192,32347,1,0,0:0:0:0:
448,192,32347,1,0,0:0:0:0:
192,192,32463,1,0,0:0:0:0:
320,192,32578,1,0,0:0:0:0:
64,192,32809,1,0,0:0:0:0:
448,192,32809,1,0,0:0:0:0:
192,192,33040,1,0,0:0:0:0:
192,192,33155,1,0,0:0:0:0:
320,192,33155,1,0,0:0:0:0:
64,192,33270,1,0,0:0:0:0:
448,192,33270,1,0,0:0:0:0:
192,192,33501,1,0,0:0:0:0:
320,192,33616,1,0,0:0:0:0:
448,192,33732,1,0,0:0:0:0:
64,192,33732,1,0,0:0:0:0:
320,192,33963,1,0,0:0:0:0:
64,192,34193,1,0,0:0:0:0:
448,192,34193,1,0,0:0:0:0:
192,192,34309,1,0,0:0:0:0:
320,192,34424,1,0,0:0:0:0:
64,192,34655,1,0,0:0:0:0:
448,192,34655,1,0,0:0:0:0:
192,192,34770,1,0,0:0:0:0:
192,192,34886,1,0,0:0:0:0:
320,192,35001,1,0,0:0:0:0:
448,192,35116,1,0,0:0:0:0:
64,192,35116,1,0,0:0:0:0:
192,192,35232,1,0,0:0:0:0:
320,192,35347,1,0,0:0:0:0:
320,192,35463,1,0,0:0:0:0:
64,192,35578,1,0,0:0:0:0:
448,192,35578,1,0,0:0:0:0:
192,192,35809,1,0,0:0:0:0:
64,192,36040,1,0,0:0:0:0:
448,192,36040,1,0,0:0:0:0:
320,192,36155,1,0,0:0:0:0:
448,192,36270,128,0,36616:0:0:0:0:
192,192,36270,1,0,0:0:0:0:
64,192,36501,1,0,0:0:0:0:
192,192,36501,1,0,0:0:0:0:
320,192,36616,1,0,0:0:0:0:
448,192,36732,1,0,0:0:0:0:
192,192,36732,1,0,0:0:0:0:
448,192,36847,1,0,0:0:0:0:
320,192,36963,1,0,0:0:0:0:
192,192,36963,1,0,0:0:0:0:
64,192,37193,1,0,0:0:0:0:
448,192,37309,1,0,0:0:0:0:
192,192,37424,1,0,0:0:0:0:
320,192,37424,1,0,0:0:0:0:
64,192,37655,1,0,0:0:0:0:
192,192,37886,1,0,0:0:0:0:
320,192,37886,1,0,0:0:0:0:
448,192,38001,1,0,0:0:0:0:
64,192,38116,1,0,0:0:0:0:
192,192,38347,1,0,0:0:0:0:
320,192,38347,1,0,0:0:0:0:
448,192,38463,1,0,0:0:0:0:
64,192,38578,1,0,0:0:0:0:
448,192,38693,1,0,0:0:0:0:
320,192,38809,1,0,0:0:0:0:
192,192,38809,1,0,0:0:0:0:
64,192,38924,1,0,0:0:0:0:
448,192,39040,1,0,0:0:0:0:
64,192,39155,1,0,0:0:0:0:
320,192,39270,1,0,0:0:0:0:
192,192,39270,1,0,0:0:0:0:
448,192,39501,1,0,0:0:0:0:
320,192,39732,1,0,0:0:0:0:
192,192,39732,1,0,0:0:0:0:
448,192,39847,1,0,0:0:0:0:
64,192,39963,1,0,0:0:0:0:
192,192,40193,1,0,0:0:0:0:
320,192,40193,1,0,0:0:0:0:
64,192,40309,1,0,0:0:0:0:
448,192,40424,1,0,0:0:0:0:
448,192,40540,1,0,0:0:0:0:
320,192,40655,1,0,0:0:0:0:
192,192,40655,1,0,0:0:0:0:
64,192,40770,1,0,0:0:0:0:
320,192,40886,1,0,0:0:0:0:
64,192,41001,1,0,0:0:0:0:
320,192,41116,1,0,0:0:0:0:
192,192,41116,1,0,0:0:0:0:
448,192,41347,1,0,0:0:0:0:
192,192,41578,1,0,0:0:0:0:
320,192,41578,1,0,0:0:0:0:
64,192,41693,1,0,0:0:0:0:
320,192,41809,1,0,0:0:0:0:
320,192,42040,1,0,0:0:0:0:
192,192,42040,1,0,0:0:0:0:
448,192,42155,1,0,0:0:0:0:
64,192,42270,1,0,0:0:0:0:
448,192,42386,1,0,0:0:0:0:
320,192,42501,1,0,0:0:0:0:
192,192,42501,1,0,0:0:0:0:
448,192,42616,1,0,0:0:0:0:
192,192,42732,1,0,0:0:0:0:
64,192,42847,1,0,0:0:0:0:
320,192,42963,1,0,0:0:0:0:
192,192,42963,1,0,0:0:0:0:
448,192,43193,1,0,0:0:0:0:
320,192,43424,1,0,0:0:0:0:
192,192,43424,1,0,0:0:0:0:
64,192,43540,1,0,0:0:0:0:
448,192,43655,128,0,44001:0:0:0:0:
320,192,43655,1,0,0:0:0:0:
320,192,43886,1,0,0:0:0:0:
192,192,43886,1,0,0:0:0:0:
64,192,44001,1,0,0:0:0:0:
448,192,44116,1,0,0:0:0:0:
448,192,44232,1,0,0:0:0:0:
64,192,44347,1,0,0:0:0:0:
192,192,44347,1,0,0:0:0:0:
320,192,44463,1,0,0:0:0:0:
448,192,44578,1,0,0:0:0:0:
64,192,44578,128,0,44693:0:0:0:0:
192,192,44693,1,0,0:0:0:0:
448,192,44809,1,0,0:0:0:0:
320,192,44809,1,0,0:0:0:0:
192,192,44924,1,0,0:0:0:0:
64,192,44924,128,0,45040:0:0:0:0:
320,192,45040,1,0,0:0:0:0:
448,192,45270,1,0,0:0:0:0:
320,192,45270,1,0,0:0:0:0:
192,192,45386,1,0,0:0:0:0:
320,192,45501,1,0,0:0:0:0:
64,192,45501,128,0,45616:0:0:0:0:
448,192,45732,1,0,0:0:0:0:
320,192,45732,1,0,0:0:0:0:
192,192,45847,1,0,0:0:0:0:
64,192,45847,128,0,45963:0:0:0:0:
320,192,45963,1,0,0:0:0:0:
192,192,46078,1,0,0:0:0:0:
448,192,46193,1,0,0:0:0:0:
320,192,46193,1,0,0:0:0:0:
192,192,46309,1,0,0:0:0:0:
320,192,46424,1,0,0:0:0:0:
64,192,46424,128,0,46540:0:0:0:0:
192,192,46540,1,0,0:0:0:0:
320,192,46655,1,0,0:0:0:0:
448,192,46655,1,0,0:0:0:0:
192,192,46770,1,0,0:0:0:0:
64,192,46770,128,0,46886:0:0:0:0:
320,192,46886,1,0,0:0:0:0:
320,192,47116,1,0,0:0:0:0:
448,192,47116,1,0,0:0:0:0:
192,192,47232,1,0,0:0:0:0:
448,192,47347,1,0,0:0:0:0:
64,192,47347,128,0,47463:0:0:0:0:
448,192,47578,1,0,0:0:0:0:
320,192,47578,1,0,0:0:0:0:
64,192,47693,128,0,47809:0:0:0:0:
192,192,47693,1,0,0:0:0:0:
320,192,47809,1,0,0:0:0:0:
192,192,47924,1,0,0:0:0:0:
320,192,48040,1,0,0:0:0:0:
448,192,48040,1,0,0:0:0:0:
320,192,48270,1,0,0:0:0:0:
64,192,48270,128,0,48386:0:0:0:0:
192,192,48386,1,0,0:0:0:0:
448,192,48501,1,0,0:0:0:0:
320,192,48501,1,0,0:0:0:0:
64,192,48616,128,0,48732:0:0:0:0:
192,192,48616,1,0,0:0:0:0:
448,192,48732,1,0,0:0:0:0:
448,192,48963,1,0,0:0:0:0:
320,192,48963,1,0,0:0:0:0:
192,192,49078,1,0,0:0:0:0:
320,192,49193,1,0,0:0:0:0:
64,192,49193,128,0,49309:0:0:0:0:
448,192,49424,1,0,0:0:0:0:
320,192,49424,1,0,0:0:0:0:
192,192,49540,1,0,0:0:0:0:
64,192,49540,128,0,49655:0:0:0:0:
448,192,49655,1,0,0:0:0:0:
192,192,49770,1,0,0:0:0:0:
448,192,49886,1,0,0:0:0:0:
320,192,49886,1,0,0:0:0:0:
192,192,50001,1,0,0:0:0:0:
448,192,50116,1,0,0:0:0:0:
64,192,50116,128,0,50232:0:0:0:0:
192,192,50232,1,0,0:0:0:0:
320,192,50347,1,0,0:0:0:0:
448,192,50347,1,0,0:0:0:0:
64,192,50463,128,0,50578:0:0:0:0:
192,192,50463,1,0,0:0:0:0:
320,192,50578,1,0,0:0:0:0:
320,192,50809,1,0,0:0:0:0:
448,192,50809,1,0,0:0:0:0:
192,192,50924,1,0,0:0:0:0:
64,192,51040,128,0,51386:0:0:0:0:
320,192,51040,1,0,0:0:0:0:
448,192,51270,1,0,0:0:0:0:
320,192,51270,1,0,0:0:0:0:
192,192,51386,1,0,0:0:0:0:
64,192,51501,1,0,0:0:0:0:
320,192,51501,1,0,0:0:0:0:
64,192,51616,1,0,0:0:0:0:
448,192,51732,1,0,0:0:0:0:
320,192,51732,1,0,0:0:0:0:
320,192,51963,1,0,0:0:0:0:
448,192,51963,1,0,0:0:0:0:
192,192,52078,1,0,0:0:0:0:
448,192,52193,1,0,0:0:0:0:
320,192,52193,1,0,0:0:0:0:
192,192,52424,1,0,0:0:0:0:
448,192,52424,1,0,0:0:0:0:
320,192,52424,1,0,0:0:0:0:
320,192,52655,1,0,0:0:0:0:
448,192,52655,1,0,0:0:0:0:
64,192,52770,1,0,0:0:0:0:
192,192,52886,1,0,0:0:0:0:
320,192,52886,1,0,0:0:0:0:
448,192,52886,1,0,0:0:0:0:
448,192,53116,1,0,0:0:0:0:
320,192,53116,1,0,0:0:0:0:
192,192,53116,1,0,0:0:0:0:
64,192,53232,1,0,0:0:0:0:
320,192,53347,1,0,0:0:0:0:
448,192,53347,1,0,0:0:0:0:
192,192,53347,1,0,0:0:0:0:
64,192,53463,1,0,0:0:0:0:
448,192,53578,1,0,0:0:0:0:
320,192,53578,1,0,0:0:0:0:
192,192,53578,1,0,0:0:0:0:
64,192,53693,1,0,0:0:0:0:
192,192,53809,1,0,0:0:0:0:
320,192,53809,1,0,0:0:0:0:
448,192,53809,1,0,0:0:0:0:
64,192,53924,1,0,0:0:0:0:
448,192,54040,1,0,0:0:0:0:
320,192,54040,1,0,0:0:0:0:
192,192,54040,1,0,0:0:0:0:
192,192,54270,1,0,0:0:0:0:
320,192,54270,1,0,0:0:0:0:
448,192,54270,1,0,0:0:0:0:
320,192,54501,1,0,0:0:0:0:
448,192,54501,1,0,0:0:0:0:
192,192,54501,1,0,0:0:0:0:
64,192,54616,1,0,0:0:0:0:
192,192,54732,1,0,0:0:0:0:
320,192,54732,1,0,0:0:0:0:
448,192,54732,1,0,0:0:0:0:
448,192,54963,1,0,0:0:0:0:
320,192,54963,1,0,0:0:0:0:
64,192,54963,1,0,0:0:0:0:
192,192,55078,1,0,0:0:0:0:
64,192,55193,1,0,0:0:0:0:
320,192,55193,1,0,0:0:0:0:
448,192,55193,1,0,0:0:0:0:
448,192,55424,1,0,0:0:0:0:
320,192,55424,1,0,0:0:0:0:
192,192,55540,1,0,0:0:0:0:
64,192,55540,1,0,0:0:0:0:
448,192,55655,1,0,0:0:0:0:
320,192,55655,1,0,0:0:0:0:
64,192,55770,1,0,0:0:0:0:
192,192,55770,1,0,0:0:0:0:
448,192,55886,1,0,0:0:0:0:
320,192,55886,1,0,0:0:0:0:
64,192,56001,1,0,0:0:0:0:
192,192,56001,1,0,0:0:0:0:
320,192,56116,1,0,0:0:0:0:
448,192,56116,1,0,0:0:0:0:
64,192,56232,1,0,0:0:0:0:
192,192,56232,1,0,0:0:0:0:
320,192,56347,1,0,0:0:0:0:
448,192,56347,1,0,0:0:0:0:
192,192,56463,1,0,0:0:0:0:
448,192,56578,1,0,0:0:0:0:
64,192,56693,1,0,0:0:0:0:
320,192,56809,1,0,0:0:0:0:
192,192,56924,1,0,0:0:0:0:
320,192,57040,1,0,0:0:0:0:
192,192,57155,1,0,0:0:0:0:
64,192,57270,1,0,0:0:0:0:
320,192,57270,1,0,0:0:0:0:
448,192,57270,128,0,57732:0:0:0:0:
192,192,57732,128,0,57963:0:0:0:0:
320,192,57732,1,0,0:0:0:0:
64,192,57732,1,0,0:0:0:0:
448,192,57963,1,0,0:0:0:0:
448,192,58040,1,0,0:0:0:0:
448,192,58116,1,0,0:0:0:0:
448,192,58193,1,0,0:0:0:0:
192,192,58193,128,0,58424:0:0:0:0:
64,192,58193,1,0,0:0:0:0:
320,192,58424,1,0,0:0:0:0:
448,192,58424,1,0,0:0:0:0:
448,192,58655,1,0,0:0:0:0:
192,192,58655,128,0,58886:0:0:0:0:
64,192,58655,1,0,0:0:0:0:
320,192,58886,1,0,0:0:0:0:
448,192,58886,1,0,0:0:0:0:
320,192,59001,1,0,0:0:0:0:
448,192,59001,1,0,0:0:0:0:
448,192,59116,1,0,0:0:0:0:
64,192,59116,1,0,0:0:0:0:
192,192,59116,1,0,0:0:0:0:
320,192,59116,1,0,0:0:0:0:
64,192,59347,1,0,0:0:0:0:
320,192,59463,1,0,0:0:0:0:
192,192,59578,1,0,0:0:0:0:
448,192,59578,1,0,0:0:0:0:
64,192,59578,1,0,0:0:0:0:
64,192,59693,1,0,0:0:0:0:
320,192,59809,1,0,0:0:0:0:
64,192,59924,1,0,0:0:0:0:
192,192,60040,1,0,0:0:0:0:
448,192,60040,1,0,0:0:0:0:
64,192,60270,1,0,0:0:0:0:
320,192,60270,1,0,0:0:0:0:
192,192,60386,1,0,0:0:0:0:
64,192,60501,1,0,0:0:0:0:
192,192,60501,1,0,0:0:0:0:
320,192,60501,128,0,60616:0:0:0:0:
448,192,60501,128,0,60616:0:0:0:0:
64,192,60732,128,0,60847:0:0:0:0:
192,192,60732,128,0,60847:0:0:0:0:
64,192,60963,1,0,0:0:0:0:
320,192,60963,1,0,0:0:0:0:
448,192,60963,1,0,0:0:0:0:
192,192,61193,1,0,0:0:0:0:
320,192,61309,1,0,0:0:0:0:
64,192,61424,1,0,0:0:0:0:
192,192,61424,1,0,0:0:0:0:
448,192,61424,1,0,0:0:0:0:
320,192,61655,1,0,0:0:0:0:
448,192,61770,1,0,0:0:0:0:
192,192,61886,1,0,0:0:0:0:
320,192,62116,1,0,0:0:0:0:
192,192,62232,1,0,0:0:0:0:
320,192,62347,1,0,0:0:0:0:
448,192,62347,1,0,0:0:0:0:
64,192,62347,1,0,0:0:0:0:
192,192,62347,1,0,0:0:0:0:
448,192,62463,1,0,0:0:0:0:
64,192,62578,1,0,0:0:0:0:
192,192,62578,1,0,0:0:0:0:
320,192,62578,1,0,0:0:0:0:
448,192,62578,1,0,0:0:0:0:
64,192,62693,1,0,0:0:0:0:
64,192,62809,1,0,0:0:0:0:
192,192,62809,1,0,0:0:0:0:
320,192,62809,1,0,0:0:0:0:
448,192,62809,1,0,0:0:0:0:
320,192,63040,1,0,0:0:0:0:
192,192,63155,1,0,0:0:0:0:
320,192,63270,1,0,0:0:0:0:
64,192,63270,1,0,0:0:0:0:
448,192,63270,1,0,0:0:0:0:
192,192,63386,1,0,0:0:0:0:
448,192,63501,1,0,0:0:0:0:
64,192,63732,1,0,0:0:0:0:
448,192,63732,1,0,0:0:0:0:
192,192,63732,1,0,0:0:0:0:
448,192,63963,1,0,0:0:0:0:
192,192,63963,1,0,0:0:0:0:
320,192,64078,1,0,0:0:0:0:
320,192,64193,1,0,0:0:0:0:
64,192,64193,128,0,64309:0:0:0:0:
448,192,64193,1,0,0:0:0:0:
192,192,64193,128,0,64309:0:0:0:0:
320,192,64424,128,0,64540:0:0:0:0:
448,192,64424,128,0,64540:0:0:0:0:
320,192,64655,1,0,0:0:0:0:
64,192,64655,1,0,0:0:0:0:
448,192,64655,1,0,0:0:0:0:
192,192,64886,1,0,0:0:0:0:
320,192,65001,1,0,0:0:0:0:
64,192,65116,1,0,0:0:0:0:
192,192,65116,1,0,0:0:0:0:
448,192,65116,1,0,0:0:0:0:
320,192,65232,1,0,0:0:0:0:
64,192,65347,1,0,0:0:0:0:
64,192,65578,1,0,0:0:0:0:
192,192,65578,1,0,0:0:0:0:
320,192,65578,128,0,65924:0:0:0:0:
448,192,65578,128,0,65924:0:0:0:0:
64,192,65809,1,0,0:0:0:0:
192,192,65866,1,0,0:0:0:0:
64,192,65924,1,0,0:0:0:0:
192,192,65982,1,0,0:0:0:0:
64,192,66040,1,0,0:0:0:0:
320,192,66040,1,0,0:0:0:0:
448,192,66040,1,0,0:0:0:0:
192,192,66155,1,0,0:0:0:0:
448,192,66270,1,0,0:0:0:0:
320,192,66270,1,0,0:0:0:0:
64,192,66270,1,0,0:0:0:0:
64,192,66386,1,0,0:0:0:0:
192,192,66501,1,0,0:0:0:0:
320,192,66501,1,0,0:0:0:0:
448,192,66501,1,0,0:0:0:0:
448,192,66732,1,0,0:0:0:0:
192,192,66847,1,0,0:0:0:0:
448,192,66963,1,0,0:0:0:0:
64,192,66963,1,0,0:0:0:0:
320,192,66963,1,0,0:0:0:0:
448,192,67078,1,0,0:0:0:0:
192,192,67193,1,0,0:0:0:0:
448,192,67309,1,0,0:0:0:0:
64,192,67424,1,0,0:0:0:0:
320,192,67424,1,0,0:0:0:0:
192,192,67655,1,0,0:0:0:0:
448,192,67655,1,0,0:0:0:0:
320,192,67770,1,0,0:0:0:0:
320,192,67886,1,0,0:0:0:0:
192,192,67886,128,0,68001:0:0:0:0:
64,192,67886,128,0,68001:0:0:0:0:
448,192,67886,1,0,0:0:0:0:
320,192,68116,128,0,68232:0:0:0:0:
448,192,68116,128,0,68232:0:0:0:0:
64,192,68347,1,0,0:0:0:0:
448,192,68347,1,0,0:0:0:0:
192,192,68347,1,0,0:0:0:0:
320,192,68578,1,0,0:0:0:0:
192,192,68693,1,0,0:0:0:0:
448,192,68809,1,0,0:0:0:0:
320,192,68809,1,0,0:0:0:0:
64,192,68809,1,0,0:0:0:0:
192,192,69040,1,0,0:0:0:0:
64,192,69155,1,0,0:0:0:0:
320,192,69270,1,0,0:0:0:0:
192,192,69501,1,0,0:0:0:0:
320,192,69616,1,0,0:0:0:0:
448,192,69732,1,0,0:0:0:0:
320,192,69732,1,0,0:0:0:0:
192,192,69732,1,0,0:0:0:0:
64,192,69732,1,0,0:0:0:0:
64,192,69847,1,0,0:0:0:0:
320,192,69963,1,0,0:0:0:0:
192,192,69963,1,0,0:0:0:0:
448,192,69963,1,0,0:0:0:0:
64,192,69963,1,0,0:0:0:0:
448,192,70078,1,0,0:0:0:0:
320,192,70193,1,0,0:0:0:0:
64,192,70193,1,0,0:0:0:0:
448,192,70193,1,0,0:0:0:0:
192,192,70193,1,0,0:0:0:0:
192,192,70424,1,0,0:0:0:0:
320,192,70540,1,0,0:0:0:0:
64,192,70655,1,0,0:0:0:0:
448,192,70655,1,0,0:0:0:0:
192,192,70655,1,0,0:0:0:0:
320,192,70770,1,0,0:0:0:0:
64,192,70886,1,0,0:0:0:0:
64,192,71116,1,0,0:0:0:0:
320,192,71116,1,0,0:0:0:0:
448,192,71116,1,0,0:0:0:0:
64,192,71347,1,0,0:0:0:0:
320,192,71347,1,0,0:0:0:0:
192,192,71463,1,0,0:0:0:0:
448,192,71578,128,0,71693:0:0:0:0:
320,192,71578,128,0,71693:0:0:0:0:
64,192,71578,1,0,0:0:0:0:
192,192,71578,1,0,0:0:0:0:
64,192,71809,128,0,71924:0:0:0:0:
192,192,71809,128,0,71924:0:0:0:0:
192,192,72040,1,0,0:0:0:0:
64,192,72040,1,0,0:0:0:0:
320,192,72270,1,0,0:0:0:0:
192,192,72386,1,0,0:0:0:0:
448,192,72501,1,0,0:0:0:0:
64,192,72501,1,0,0:0:0:0:
192,192,72616,1,0,0:0:0:0:
448,192,72732,5,0,0:0:0:0:
320,192,72963,1,0,0:0:0:0:
64,192,72963,1,0,0:0:0:0:
64,192,73193,1,0,0:0:0:0:
192,192,73193,128,0,73424:0:0:0:0:
320,192,73193,128,0,73424:0:0:0:0:
448,192,73540,1,0,0:0:0:0:
192,192,73540,128,0,73770:0:0:0:0:
320,192,73540,128,0,73770:0:0:0:0:
448,192,73886,1,0,0:0:0:0:
320,192,73886,1,0,0:0:0:0:
192,192,73886,1,0,0:0:0:0:
64,192,73886,1,0,0:0:0:0:
448,192,74001,1,0,0:0:0:0:
192,192,74116,1,0,0:0:0:0:
64,192,74116,1,0,0:0:0:0:
320,192,74232,1,0,0:0:0:0:
64,192,74347,1,0,0:0:0:0:
192,192,74347,1,0,0:0:0:0:
448,192,74347,1,0,0:0:0:0:
320,192,74463,1,0,0:0:0:0:
448,192,74463,1,0,0:0:0:0:
192,192,74578,1,0,0:0:0:0:
320,192,74693,1,0,0:0:0:0:
192,192,74809,1,0,0:0:0:0:
64,192,74809,1,0,0:0:0:0:
448,192,74809,1,0,0:0:0:0:
320,192,74924,1,0,0:0:0:0:
448,192,75040,1,0,0:0:0:0:
64,192,75040,1,0,0:0:0:0:
192,192,75155,1,0,0:0:0:0:
64,192,75270,1,0,0:0:0:0:
320,192,75270,1,0,0:0:0:0:
448,192,75270,1,0,0:0:0:0:
192,192,75386,1,0,0:0:0:0:
64,192,75386,1,0,0:0:0:0:
448,192,75501,1,0,0:0:0:0:
320,192,75616,1,0,0:0:0:0:
64,192,75732,1,0,0:0:0:0:
192,192,75732,1,0,0:0:0:0:
448,192,75732,1,0,0:0:0:0:
320,192,75847,1,0,0:0:0:0:
192,192,75963,1,0,0:0:0:0:
64,192,75963,1,0,0:0:0:0:
448,192,76078,1,0,0:0:0:0:
64,192,76193,1,0,0:0:0:0:
192,192,76193,1,0,0:0:0:0:
320,192,76193,1,0,0:0:0:0:
448,192,76309,1,0,0:0:0:0:
320,192,76309,1,0,0:0:0:0:
192,192,76424,1,0,0:0:0:0:
320,192,76540,1,0,0:0:0:0:
64,192,76655,1,0,0:0:0:0:
192,192,76655,1,0,0:0:0:0:
448,192,76655,1,0,0:0:0:0:
320,192,76770,1,0,0:0:0:0:
64,192,76886,1,0,0:0:0:0:
448,192,76886,1,0,0:0:0:0:
192,192,77001,1,0,0:0:0:0:
64,192,77116,1,0,0:0:0:0:
448,192,77116,1,0,0:0:0:0:
320,192,77116,1,0,0:0:0:0:
192,192,77232,1,0,0:0:0:0:
64,192,77232,1,0,0:0:0:0:
320,192,77347,1,0,0:0:0:0:
320,192,77463,1,0,0:0:0:0:
64,192,77578,1,0,0:0:0:0:
192,192,77578,1,0,0:0:0:0:
448,192,77578,1,0,0:0:0:0:
320,192,77693,1,0,0:0:0:0:
64,192,77809,1,0,0:0:0:0:
192,192,77809,1,0,0:0:0:0:
320,192,77924,1,0,0:0:0:0:
192,192,78040,1,0,0:0:0:0:
64,192,78040,1,0,0:0:0:0:
448,192,78040,1,0,0:0:0:0:
320,192,78155,1,0,0:0:0:0:
448,192,78155,1,0,0:0:0:0:
192,192,78270,1,0,0:0:0:0:
320,192,78386,1,0,0:0:0:0:
64,192,78501,1,0,0:0:0:0:
448,192,78501,1,0,0:0:0:0:
192,192,78501,1,0,0:0:0:0:
320,192,78616,1,0,0:0:0:0:
192,192,78732,1,0,0:0:0:0:
64,192,78732,1,0,0:0:0:0:
448,192,78847,1,0,0:0:0:0:
64,192,78963,1,0,0:0:0:0:
192,192,78963,1,0,0:0:0:0:
320,192,78963,1,0,0:0:0:0:
448,192,79078,1,0,0:0:0:0:
320,192,79078,1,0,0:0:0:0:
64,192,79193,1,0,0:0:0:0:
192,192,79309,1,0,0:0:0:0:
320,192,79424,1,0,0:0:0:0:
448,192,79424,1,0,0:0:0:0:
64,192,79424,1,0,0:0:0:0:
192,192,79540,1,0,0:0:0:0:
448,192,79655,1,0,0:0:0:0:
320,192,79655,1,0,0:0:0:0:
64,192,79770,1,0,0:0:0:0:
192,192,79886,1,0,0:0:0:0:
320,192,79886,1,0,0:0:0:0:
448,192,79886,1,0,0:0:0:0:
64,192,80001,1,0,0:0:0:0:
192,192,80001,1,0,0:0:0:0:
320,192,80116,1,0,0:0:0:0:
448,192,80232,1,0,0:0:0:0:
64,192,80347,1,0,0:0:0:0:
192,192,80347,1,0,0:0:0:0:
320,192,80347,1,0,0:0:0:0:
448,192,80463,1,0,0:0:0:0:
192,192,80578,1,0,0:0:0:0:
64,192,80578,1,0,0:0:0:0:
320,192,80693,1,0,0:0:0:0:
64,192,80809,1,0,0:0:0:0:
192,192,80809,1,0,0:0:0:0:
448,192,80809,1,0,0:0:0:0:
320,192,80924,1,0,0:0:0:0:
192,192,81040,1,0,0:0:0:0:
192,192,81155,1,0,0:0:0:0:
64,192,81270,1,0,0:0:0:0:
320,192,81270,1,0,0:0:0:0:
448,192,81270,1,0,0:0:0:0:
192,192,81386,1,0,0:0:0:0:
320,192,81501,1,0,0:0:0:0:
448,192,81501,1,0,0:0:0:0:
192,192,81616,1,0,0:0:0:0:
448,192,81732,1,0,0:0:0:0:
64,192,81732,1,0,0:0:0:0:
320,192,81732,1,0,0:0:0:0:
192,192,81847,1,0,0:0:0:0:
448,192,81847,1,0,0:0:0:0:
192,192,81963,1,0,0:0:0:0:
320,192,82078,1,0,0:0:0:0:
192,192,82193,1,0,0:0:0:0:
64,192,82193,1,0,0:0:0:0:
448,192,82193,1,0,0:0:0:0:
320,192,82309,1,0,0:0:0:0:
192,192,82424,1,0,0:0:0:0:
448,192,82424,1,0,0:0:0:0:
64,192,82540,1,0,0:0:0:0:
448,192,82655,1,0,0:0:0:0:
192,192,82655,1,0,0:0:0:0:
320,192,82655,1,0,0:0:0:0:
64,192,82770,1,0,0:0:0:0:
320,192,82770,1,0,0:0:0:0:
192,192,82886,1,0,0:0:0:0:
320,192,83001,1,0,0:0:0:0:
64,192,83116,1,0,0:0:0:0:
192,192,83116,1,0,0:0:0:0:
448,192,83116,1,0,0:0:0:0:
320,192,83232,1,0,0:0:0:0:
64,192,83347,1,0,0:0:0:0:
192,192,83347,1,0,0:0:0:0:
192,192,83463,1,0,0:0:0:0:
64,192,83578,1,0,0:0:0:0:
448,192,83578,1,0,0:0:0:0:
320,192,83578,1,0,0:0:0:0:
192,192,83693,1,0,0:0:0:0:
64,192,83693,1,0,0:0:0:0:
320,192,83809,1,0,0:0:0:0:
192,192,83924,1,0,0:0:0:0:
64,192,84040,1,0,0:0:0:0:
320,192,84040,1,0,0:0:0:0:
448,192,84040,1,0,0:0:0:0:
448,192,84155,1,0,0:0:0:0:
320,192,84270,1,0,0:0:0:0:
64,192,84270,1,0,0:0:0:0:
192,192,84386,1,0,0:0:0:0:
64,192,84501,1,0,0:0:0:0:
320,192,84501,1,0,0:0:0:0:
448,192,84501,1,0,0:0:0:0:
320,192,84616,1,0,0:0:0:0:
192,192,84616,1,0,0:0:0:0:
64,192,84732,1,0,0:0:0:0:
448,192,84847,1,0,0:0:0:0:
64,192,84963,1,0,0:0:0:0:
192,192,84963,1,0,0:0:0:0:
320,192,84963,1,0,0:0:0:0:
448,192,85078,1,0,0:0:0:0:
64,192,85193,1,0,0:0:0:0:
320,192,85193,1,0,0:0:0:0:
192,192,85309,1,0,0:0:0:0:
64,192,85424,1,0,0:0:0:0:
192,192,85424,1,0,0:0:0:0:
448,192,85424,1,0,0:0:0:0:
320,192,85540,1,0,0:0:0:0:
448,192,85540,1,0,0:0:0:0:
320,192,85655,1,0,0:0:0:0:
192,192,85770,1,0,0:0:0:0:
64,192,85886,1,0,0:0:0:0:
320,192,85886,1,0,0:0:0:0:
448,192,85886,1,0,0:0:0:0:
192,192,86001,1,0,0:0:0:0:
448,192,86116,1,0,0:0:0:0:
320,192,86116,1,0,0:0:0:0:
192,192,86232,1,0,0:0:0:0:
64,192,86347,1,0,0:0:0:0:
448,192,86347,1,0,0:0:0:0:
320,192,86347,1,0,0:0:0:0:
192,192,86463,1,0,0:0:0:0:
64,192,86463,1,0,0:0:0:0:
320,192,86578,1,0,0:0:0:0:
320,192,86693,1,0,0:0:0:0:
64,192,86809,1,0,0:0:0:0:
192,192,86809,1,0,0:0:0:0:
448,192,86809,1,0,0:0:0:0:
448,192,86924,1,0,0:0:0:0:
320,192,87040,1,0,0:0:0:0:
64,192,87040,1,0,0:0:0:0:
192,192,87155,1,0,0:0:0:0:
64,192,87270,1,0,0:0:0:0:
320,192,87270,1,0,0:0:0:0:
448,192,87270,1,0,0:0:0:0:
64,192,87386,1,0,0:0:0:0:
192,192,87386,1,0,0:0:0:0:
448,192,87501,1,0,0:0:0:0:
320,192,87616,1,0,0:0:0:0:
64,192,87732,1,0,0:0:0:0:
192,192,87732,1,0,0:0:0:0:
320,192,87847,1,0,0:0:0:0:
192,192,87963,1,0,0:0:0:0:
448,192,87963,1,0,0:0:0:0:
64,192,88078,1,0,0:0:0:0:
320,192,88193,1,0,0:0:0:0:
192,192,88193,1,0,0:0:0:0:
448,192,88193,1,0,0:0:0:0:
320,192,88309,1,0,0:0:0:0:
64,192,88309,1,0,0:0:0:0:
192,192,88424,1,0,0:0:0:0:
448,192,88540,1,0,0:0:0:0:
64,192,88655,1,0,0:0:0:0:
192,192,88655,1,0,0:0:0:0:
320,192,88655,1,0,0:0:0:0:
448,192,88655,1,0,0:0:0:0:
64,192,88770,1,0,0:0:0:0:
320,192,88886,1,0,0:0:0:0:
448,192,88886,1,0,0:0:0:0:
192,192,89001,1,0,0:0:0:0:
448,192,89116,1,0,0:0:0:0:
320,192,89116,1,0,0:0:0:0:
64,192,89116,1,0,0:0:0:0:
192,192,89232,1,0,0:0:0:0:
64,192,89232,1,0,0:0:0:0:
320,192,89347,1,0,0:0:0:0:
192,192,89463,1,0,0:0:0:0:
448,192,89578,1,0,0:0:0:0:
320,192,89578,1,0,0:0:0:0:
64,192,89578,1,0,0:0:0:0:
192,192,89693,1,0,0:0:0:0:
64,192,89809,1,0,0:0:0:0:
448,192,89809,1,0,0:0:0:0:
320,192,89924,1,0,0:0:0:0:
64,192,90040,1,0,0:0:0:0:
448,192,90040,1,0,0:0:0:0:
192,192,90040,1,0,0:0:0:0:
448,192,90155,1,0,0:0:0:0:
320,192,90155,1,0,0:0:0:0:
64,192,90270,1,0,0:0:0:0:
192,192,90386,1,0,0:0:0:0:
64,192,90501,1,0,0:0:0:0:
448,192,90501,1,0,0:0:0:0:
320,192,90501,1,0,0:0:0:0:
192,192,90616,1,0,0:0:0:0:
448,192,90732,1,0,0:0:0:0:
320,192,90732,1,0,0:0:0:0:
64,192,90847,1,0,0:0:0:0:
448,192,90963,1,0,0:0:0:0:
320,192,90963,1,0,0:0:0:0:
192,192,90963,1,0,0:0:0:0:
64,192,91078,1,0,0:0:0:0:
192,192,91078,1,0,0:0:0:0:
320,192,91193,1,0,0:0:0:0:
192,192,91309,1,0,0:0:0:0:
448,192,91424,1,0,0:0:0:0:
64,192,91424,1,0,0:0:0:0:
320,192,91424,1,0,0:0:0:0:
192,192,91540,1,0,0:0:0:0:
448,192,91655,1,0,0:0:0:0:
64,192,91655,1,0,0:0:0:0:
320,192,91770,1,0,0:0:0:0:
192,192,91886,1,0,0:0:0:0:
64,192,91886,1,0,0:0:0:0:
448,192,91886,1,0,0:0:0:0:
448,192,92001,1,0,0:0:0:0:
320,192,92001,1,0,0:0:0:0:
192,192,92116,1,0,0:0:0:0:
192,192,92232,1,0,0:0:0:0:
64,192,92347,1,0,0:0:0:0:
320,192,92347,1,0,0:0:0:0:
448,192,92347,1,0,0:0:0:0:
192,192,92463,1,0,0:0:0:0:
320,192,92578,1,0,0:0:0:0:
448,192,92578,1,0,0:0:0:0:
192,192,92693,1,0,0:0:0:0:
448,192,92809,1,0,0:0:0:0:
320,192,92809,1,0,0:0:0:0:
64,192,92809,1,0,0:0:0:0:
64,192,92924,1,0,0:0:0:0:
192,192,92924,1,0,0:0:0:0:
320,192,93040,1,0,0:0:0:0:
192,192,93155,1,0,0:0:0:0:
448,192,93270,1,0,0:0:0:0:
64,192,93270,1,0,0:0:0:0:
320,192,93270,1,0,0:0:0:0:
192,192,93386,1,0,0:0:0:0:
448,192,93501,1,0,0:0:0:0:
320,192,93501,1,0,0:0:0:0:
64,192,93616,1,0,0:0:0:0:
320,192,93732,1,0,0:0:0:0:
448,192,93732,1,0,0:0:0:0:
192,192,93732,1,0,0:0:0:0:
192,192,93847,1,0,0:0:0:0:
64,192,93847,1,0,0:0:0:0:
448,192,93963,1,0,0:0:0:0:
320,192,94078,1,0,0:0:0:0:
64,192,94193,1,0,0:0:0:0:
448,192,94193,1,0,0:0:0:0:
192,192,94193,1,0,0:0:0:0:
320,192,94309,1,0,0:0:0:0:
64,192,94424,1,0,0:0:0:0:
192,192,94424,1,0,0:0:0:0:
448,192,94540,1,0,0:0:0:0:
192,192,94655,1,0,0:0:0:0:
320,192,94655,1,0,0:0:0:0:
64,192,94655,1,0,0:0:0:0:
320,192,94770,1,0,0:0:0:0:
448,192,94770,1,0,0:0:0:0:
192,192,94886,1,0,0:0:0:0:
64,192,95001,1,0,0:0:0:0:
320,192,95116,1,0,0:0:0:0:
192,192,95116,1,0,0:0:0:0:
448,192,95116,1,0,0:0:0:0:
64,192,95232,1,0,0:0:0:0:
448,192,95347,1,0,0:0:0:0:
320,192,95347,1,0,0:0:0:0:
192,192,95463,1,0,0:0:0:0:
448,192,95578,1,0,0:0:0:0:
64,192,95578,1,0,0:0:0:0:
320,192,95578,1,0,0:0:0:0:
192,192,95693,1,0,0:0:0:0:
320,192,95809,1,0,0:0:0:0:
320,192,95924,1,0,0:0:0:0:
192,192,96040,1,0,0:0:0:0:
448,192,96040,1,0,0:0:0:0:
64,192,96040,1,0,0:0:0:0:
320,192,96155,1,0,0:0:0:0:
192,192,96270,1,0,0:0:0:0:
64,192,96270,1,0,0:0:0:0:
320,192,96386,1,0,0:0:0:0:
64,192,96501,1,0,0:0:0:0:
448,192,96501,1,0,0:0:0:0:
192,192,96501,1,0,0:0:0:0:
64,192,96616,1,0,0:0:0:0:
320,192,96616,1,0,0:0:0:0:
320,192,96732,1,0,0:0:0:0:
192,192,96847,1,0,0:0:0:0:
64,192,96963,1,0,0:0:0:0:
320,192,96963,1,0,0:0:0:0:
448,192,96963,1,0,0:0:0:0:
192,192,97078,1,0,0:0:0:0:
64,192,97193,1,0,0:0:0:0:
320,192,97193,1,0,0:0:0:0:
448,192,97309,1,0,0:0:0:0:
64,192,97424,1,0,0:0:0:0:
320,192,97424,1,0,0:0:0:0:
192,192,97424,1,0,0:0:0:0:
448,192,97540,1,0,0:0:0:0:
192,192,97540,1,0,0:0:0:0:
320,192,97655,1,0,0:0:0:0:
192,192,97770,1,0,0:0:0:0:
320,192,97886,1,0,0:0:0:0:
64,192,97886,1,0,0:0:0:0:
448,192,97886,1,0,0:0:0:0:
192,192,98001,1,0,0:0:0:0:
320,192,98116,1,0,0:0:0:0:
448,192,98116,1,0,0:0:0:0:
320,192,98232,1,0,0:0:0:0:
192,192,98347,1,0,0:0:0:0:
448,192,98347,1,0,0:0:0:0:
64,192,98347,1,0,0:0:0:0:
320,192,98463,1,0,0:0:0:0:
448,192,98463,1,0,0:0:0:0:
192,192,98578,1,0,0:0:0:0:
320,192,98693,1,0,0:0:0:0:
192,192,98809,1,0,0:0:0:0:
64,192,98809,1,0,0:0:0:0:
448,192,98809,1,0,0:0:0:0:
64,192,98924,1,0,0:0:0:0:
192,192,99040,1,0,0:0:0:0:
448,192,99040,1,0,0:0:0:0:
320,192,99155,1,0,0:0:0:0:
64,192,99270,1,0,0:0:0:0:
192,192,99270,1,0,0:0:0:0:
448,192,99270,1,0,0:0:0:0:
192,192,99386,1,0,0:0:0:0:
320,192,99386,1,0,0:0:0:0:
448,192,99501,1,0,0:0:0:0:
64,192,99616,1,0,0:0:0:0:
448,192,99732,1,0,0:0:0:0:
192,192,99732,1,0,0:0:0:0:
320,192,99732,1,0,0:0:0:0:
64,192,99847,1,0,0:0:0:0:
192,192,99963,1,0,0:0:0:0:
448,192,99963,1,0,0:0:0:0:
320,192,100078,1,0,0:0:0:0:
320,192,100193,1,0,0:0:0:0:
64,192,100193,1,0,0:0:0:0:
448,192,100193,1,0,0:0:0:0:
192,192,100309,1,0,0:0:0:0:
64,192,100309,1,0,0:0:0:0:
192,192,100424,1,0,0:0:0:0:
320,192,100540,1,0,0:0:0:0:
448,192,100655,1,0,0:0:0:0:
64,192,100655,1,0,0:0:0:0:
192,192,100655,1,0,0:0:0:0:
320,192,100770,1,0,0:0:0:0:
192,192,100886,1,0,0:0:0:0:
64,192,100886,1,0,0:0:0:0:
320,192,101001,1,0,0:0:0:0:
192,192,101116,1,0,0:0:0:0:
448,192,101116,1,0,0:0:0:0:
64,192,101116,1,0,0:0:0:0:
448,192,101232,1,0,0:0:0:0:
320,192,101232,1,0,0:0:0:0:
192,192,101347,1,0,0:0:0:0:
192,192,101463,1,0,0:0:0:0:
64,192,101578,1,0,0:0:0:0:
448,192,101578,1,0,0:0:0:0:
320,192,101578,1,0,0:0:0:0:
64,192,101693,1,0,0:0:0:0:
448,192,101809,1,0,0:0:0:0:
192,192,101809,1,0,0:0:0:0:
320,192,101924,1,0,0:0:0:0:
64,192,102040,1,0,0:0:0:0:
448,192,102040,1,0,0:0:0:0:
192,192,102040,1,0,0:0:0:0:
448,192,102155,1,0,0:0:0:0:
320,192,102155,1,0,0:0:0:0:
64,192,102270,1,0,0:0:0:0:
192,192,102386,1,0,0:0:0:0:
448,192,102501,1,0,0:0:0:0:
320,192,102501,1,0,0:0:0:0:
192,192,102616,1,0,0:0:0:0:
64,192,102732,1,0,0:0:0:0:
320,192,102732,1,0,0:0:0:0:
448,192,102847,1,0,0:0:0:0:
64,192,102963,1,0,0:0:0:0:
192,192,102963,1,0,0:0:0:0:
320,192,102963,1,0,0:0:0:0:
448,192,103078,1,0,0:0:0:0:
192,192,103078,1,0,0:0:0:0:
320,192,103193,1,0,0:0:0:0:
64,192,103309,1,0,0:0:0:0:
64,192,103424,1,0,0:0:0:0:
320,192,103424,1,0,0:0:0:0:
192,192,103424,1,0,0:0:0:0:
448,192,103424,1,0,0:0:0:0:
320,192,103540,1,0,0:0:0:0:
192,192,103655,1,0,0:0:0:0:
64,192,103655,1,0,0:0:0:0:
320,192,103770,1,0,0:0:0:0:
64,192,103886,1,0,0:0:0:0:
192,192,103886,1,0,0:0:0:0:
448,192,103886,1,0,0:0:0:0:
320,192,104001,1,0,0:0:0:0:
448,192,104001,1,0,0:0:0:0:
192,192,104116,1,0,0:0:0:0:
320,192,104232,1,0,0:0:0:0:
192,192,104347,1,0,0:0:0:0:
448,192,104347,1,0,0:0:0:0:
64,192,104347,1,0,0:0:0:0:
320,192,104463,1,0,0:0:0:0:
448,192,104578,1,0,0:0:0:0:
64,192,104578,1,0,0:0:0:0:
192,192,104693,1,0,0:0:0:0:
320,192,104809,1,0,0:0:0:0:
64,192,104809,1,0,0:0:0:0:
448,192,104809,1,0,0:0:0:0:
192,192,104924,1,0,0:0:0:0:
64,192,104924,1,0,0:0:0:0:
448,192,105040,1,0,0:0:0:0:
320,192,105155,1,0,0:0:0:0:
64,192,105270,1,0,0:0:0:0:
448,192,105270,1,0,0:0:0:0:
192,192,105270,1,0,0:0:0:0:
320,192,105386,1,0,0:0:0:0:
192,192,105501,1,0,0:0:0:0:
64,192,105501,1,0,0:0:0:0:
448,192,105616,1,0,0:0:0:0:
64,192,105732,1,0,0:0:0:0:
192,192,105732,1,0,0:0:0:0:
320,192,105732,1,0,0:0:0:0:
320,192,105847,1,0,0:0:0:0:
448,192,105847,1,0,0:0:0:0:
192,192,105963,1,0,0:0:0:0:
320,192,106078,1,0,0:0:0:0:
448,192,106193,1,0,0:0:0:0:
192,192,106193,1,0,0:0:0:0:
64,192,106193,1,0,0:0:0:0:
320,192,106309,1,0,0:0:0:0:
448,192,106424,1,0,0:0:0:0:
64,192,106424,1,0,0:0:0:0:
192,192,106540,1,0,0:0:0:0:
320,192,106655,1,0,0:0:0:0:
64,192,106655,1,0,0:0:0:0:
448,192,106655,1,0,0:0:0:0:
192,192,106770,1,0,0:0:0:0:
64,192,106770,1,0,0:0:0:0:
320,192,106886,1,0,0:0:0:0:
320,192,107001,1,0,0:0:0:0:
448,192,107116,1,0,0:0:0:0:
192,192,107116,1,0,0:0:0:0:
64,192,107116,1,0,0:0:0:0:
320,192,107232,1,0,0:0:0:0:
64,192,107347,1,0,0:0:0:0:
192,192,107347,1,0,0:0:0:0:
320,192,107463,1,0,0:0:0:0:
192,192,107578,1,0,0:0:0:0:
64,192,107578,1,0,0:0:0:0:
448,192,107578,1,0,0:0:0:0:
448,192,107693,1,0,0:0:0:0:
320,192,107693,1,0,0:0:0:0:
192,192,107809,1,0,0:0:0:0:
320,192,107924,1,0,0:0:0:0:
64,192,108040,1,0,0:0:0:0:
192,192,108040,1,0,0:0:0:0:
448,192,108040,1,0,0:0:0:0:
320,192,108155,1,0,0:0:0:0:
192,192,108270,1,0,0:0:0:0:
64,192,108270,1,0,0:0:0:0:
448,192,108386,1,0,0:0:0:0:
320,192,108501,1,0,0:0:0:0:
64,192,108501,1,0,0:0:0:0:
192,192,108501,1,0,0:0:0:0:
320,192,108616,1,0,0:0:0:0:
448,192,108616,1,0,0:0:0:0:
64,192,108732,1,0,0:0:0:0:
192,192,108847,1,0,0:0:0:0:
448,192,108963,1,0,0:0:0:0:
320,192,108963,1,0,0:0:0:0:
64,192,108963,1,0,0:0:0:0:
192,192,109078,1,0,0:0:0:0:
448,192,109193,1,0,0:0:0:0:
320,192,109193,1,0,0:0:0:0:
64,192,109309,1,0,0:0:0:0:
192,192,109424,1,0,0:0:0:0:
320,192,109424,1,0,0:0:0:0:
448,192,109424,1,0,0:0:0:0:
192,192,109540,1,0,0:0:0:0:
64,192,109540,1,0,0:0:0:0:
320,192,109655,1,0,0:0:0:0:
448,192,109770,1,0,0:0:0:0:
192,192,109886,1,0,0:0:0:0:
320,192,109886,1,0,0:0:0:0:
64,192,109886,1,0,0:0:0:0:
448,192,110001,1,0,0:0:0:0:
192,192,110116,1,0,0:0:0:0:
64,192,110116,1,0,0:0:0:0:
320,192,110232,1,0,0:0:0:0:
192,192,110347,1,0,0:0:0:0:
448,192,110347,1,0,0:0:0:0:
64,192,110347,1,0,0:0:0:0:
320,192,110463,1,0,0:0:0:0:
448,192,110463,1,0,0:0:0:0:
192,192,110578,1,0,0:0:0:0:
192,192,110693,1,0,0:0:0:0:
320,192,110809,1,0,0:0:0:0:
448,192,110809,1,0,0:0:0:0:
64,192,110809,1,0,0:0:0:0:
192,192,110924,1,0,0:0:0:0:
448,192,111040,1,0,0:0:0:0:
320,192,111040,1,0,0:0:0:0:
192,192,111155,1,0,0:0:0:0:
64,192,111270,1,0,0:0:0:0:
320,192,111270,1,0,0:0:0:0:
448,192,111270,1,0,0:0:0:0:
192,192,111386,1,0,0:0:0:0:
448,192,111386,1,0,0:0:0:0:
192,192,111501,1,0,0:0:0:0:
320,192,111616,1,0,0:0:0:0:
448,192,111732,1,0,0:0:0:0:
192,192,111732,1,0,0:0:0:0:
64,192,111732,1,0,0:0:0:0:
320,192,111847,1,0,0:0:0:0:
192,192,111963,1,0,0:0:0:0:
448,192,111963,1,0,0:0:0:0:
64,192,112078,1,0,0:0:0:0:
448,192,112193,1,0,0:0:0:0:
192,192,112193,1,0,0:0:0:0:
320,192,112193,1,0,0:0:0:0:
64,192,112309,1,0,0:0:0:0:
320,192,112309,1,0,0:0:0:0:
192,192,112424,1,0,0:0:0:0:
320,192,112540,1,0,0:0:0:0:
448,192,112655,1,0,0:0:0:0:
64,192,112655,1,0,0:0:0:0:
192,192,112655,1,0,0:0:0:0:
320,192,112770,1,0,0:0:0:0:
64,192,112886,1,0,0:0:0:0:
192,192,112886,1,0,0:0:0:0:
192,192,113001,1,0,0:0:0:0:
448,192,113116,1,0,0:0:0:0:
64,192,113116,1,0,0:0:0:0:
320,192,113116,1,0,0:0:0:0:
64,192,113232,1,0,0:0:0:0:
192,192,113232,1,0,0:0:0:0:
320,192,113347,1,0,0:0:0:0:
192,192,113463,1,0,0:0:0:0:
320,192,113578,1,0,0:0:0:0:
448,192,113578,1,0,0:0:0:0:
64,192,113578,1,0,0:0:0:0:
448,192,113693,1,0,0:0:0:0:
320,192,113809,1,0,0:0:0:0:
64,192,113809,1,0,0:0:0:0:
192,192,113924,1,0,0:0:0:0:
448,192,114040,1,0,0:0:0:0:
320,192,114040,1,0,0:0:0:0:
64,192,114040,1,0,0:0:0:0:
192,192,114155,1,0,0:0:0:0:
320,192,114155,1,0,0:0:0:0:
64,192,114270,1,0,0:0:0:0:
448,192,114386,1,0,0:0:0:0:
64,192,114501,1,0,0:0:0:0:
320,192,114501,1,0,0:0:0:0:
192,192,114501,1,0,0:0:0:0:
448,192,114616,1,0,0:0:0:0:
320,192,114732,1,0,0:0:0:0:
64,192,114732,1,0,0:0:0:0:
192,192,114847,1,0,0:0:0:0:
192,192,114963,1,0,0:0:0:0:
64,192,114963,1,0,0:0:0:0:
448,192,114963,1,0,0:0:0:0:
448,192,115078,1,0,0:0:0:0:
320,192,115078,1,0,0:0:0:0:
320,192,115193,1,0,0:0:0:0:
192,192,115309,1,0,0:0:0:0:
320,192,115424,1,0,0:0:0:0:
64,192,115424,1,0,0:0:0:0:
448,192,115424,1,0,0:0:0:0:
192,192,115540,1,0,0:0:0:0:
448,192,115655,1,0,0:0:0:0:
320,192,115655,1,0,0:0:0:0:
192,192,115770,1,0,0:0:0:0:
448,192,115886,1,0,0:0:0:0:
320,192,115886,1,0,0:0:0:0:
64,192,115886,1,0,0:0:0:0:
64,192,116001,1,0,0:0:0:0:
192,192,116001,1,0,0:0:0:0:
320,192,116116,1,0,0:0:0:0:
320,192,116232,1,0,0:0:0:0:
192,192,116347,1,0,0:0:0:0:
64,192,116347,1,0,0:0:0:0:
448,192,116347,1,0,0:0:0:0:
448,192,116463,1,0,0:0:0:0:
64,192,116578,1,0,0:0:0:0:
320,192,116578,1,0,0:0:0:0:
192,192,116693,1,0,0:0:0:0:
64,192,116809,1,0,0:0:0:0:
448,192,116809,1,0,0:0:0:0:
320,192,116809,1,0,0:0:0:0:
192,192,116924,1,0,0:0:0:0:
64,192,116924,1,0,0:0:0:0:
448,192,117040,1,0,0:0:0:0:
320,192,117155,1,0,0:0:0:0:
192,192,117270,1,0,0:0:0:0:
64,192,117270,1,0,0:0:0:0:
320,192,117386,1,0,0:0:0:0:
448,192,117501,1,0,0:0:0:0:
192,192,117501,1,0,0:0:0:0:
64,192,117616,1,0,0:0:0:0:
448,192,117732,1,0,0:0:0:0:
320,192,117732,1,0,0:0:0:0:
192,192,117732,1,0,0:0:0:0:
320,192,117847,1,0,0:0:0:0:
64,192,117847,1,0,0:0:0:0:
192,192,117963,1,0,0:0:0:0:
448,192,118078,1,0,0:0:0:0:
320,192,118193,1,0,0:0:0:0:
64,192,118193,1,0,0:0:0:0:
192,192,118193,1,0,0:0:0:0:
448,192,118193,1,0,0:0:0:0:
192,192,118309,1,0,0:0:0:0:
448,192,118424,1,0,0:0:0:0:
320,192,118424,1,0,0:0:0:0:
192,192,118540,1,0,0:0:0:0:
64,192,118655,1,0,0:0:0:0:
320,192,118655,1,0,0:0:0:0:
448,192,118655,1,0,0:0:0:0:
64,192,118770,1,0,0:0:0:0:
192,192,118770,1,0,0:0:0:0:
320,192,118886,1,0,0:0:0:0:
192,192,119001,1,0,0:0:0:0:
64,192,119116,1,0,0:0:0:0:
320,192,119116,1,0,0:0:0:0:
448,192,119116,1,0,0:0:0:0:
192,192,119232,1,0,0:0:0:0:
448,192,119347,1,0,0:0:0:0:
64,192,119347,1,0,0:0:0:0:
320,192,119463,1,0,0:0:0:0:
192,192,119578,1,0,0:0:0:0:
448,192,119578,1,0,0:0:0:0:
64,192,119578,1,0,0:0:0:0:
320,192,119693,1,0,0:0:0:0:
448,192,119693,1,0,0:0:0:0:
64,192,119809,1,0,0:0:0:0:
192,192,119924,1,0,0:0:0:0:
320,192,120040,1,0,0:0:0:0:
448,192,120040,1,0,0:0:0:0:
64,192,120040,1,0,0:0:0:0:
192,192,120155,1,0,0:0:0:0:
320,192,120270,1,0,0:0:0:0:
448,192,120270,1,0,0:0:0:0:
64,192,120386,1,0,0:0:0:0:
192,192,120501,1,0,0:0:0:0:
320,192,120501,1,0,0:0:0:0:
448,192,120501,1,0,0:0:0:0:
192,192,120616,1,0,0:0:0:0:
64,192,120616,1,0,0:0:0:0:
320,192,120732,1,0,0:0:0:0:
192,192,120847,1,0,0:0:0:0:
320,192,120963,1,0,0:0:0:0:
64,192,120963,1,0,0:0:0:0:
448,192,120963,1,0,0:0:0:0:
192,192,121078,1,0,0:0:0:0:
64,192,121193,1,0,0:0:0:0:
448,192,121193,1,0,0:0:0:0:
320,192,121309,1,0,0:0:0:0:
448,192,121424,1,0,0:0:0:0:
64,192,121424,1,0,0:0:0:0:
192,192,121424,1,0,0:0:0:0:
320,192,121540,1,0,0:0:0:0:
448,192,121540,1,0,0:0:0:0:
192,192,121655,1,0,0:0:0:0:
192,192,121770,1,0,0:0:0:0:
448,192,121886,1,0,0:0:0:0:
320,192,121886,1,0,0:0:0:0:
64,192,121886,1,0,0:0:0:0:
192,192,122001,1,0,0:0:0:0:
448,192,122116,1,0,0:0:0:0:
320,192,122116,1,0,0:0:0:0:
192,192,122232,1,0,0:0:0:0:
64,192,122347,1,0,0:0:0:0:
320,192,122347,1,0,0:0:0:0:
448,192,122347,1,0,0:0:0:0:
192,192,122463,1,0,0:0:0:0:
64,192,122463,1,0,0:0:0:0:
320,192,122578,1,0,0:0:0:0:
192,192,122693,1,0,0:0:0:0:
320,192,122809,1,0,0:0:0:0:
64,192,122809,1,0,0:0:0:0:
448,192,122809,1,0,0:0:0:0:
192,192,122924,1,0,0:0:0:0:
320,192,123040,1,0,0:0:0:0:
448,192,123040,1,0,0:0:0:0:
64,192,123155,1,0,0:0:0:0:
192,192,123270,1,0,0:0:0:0:
448,192,123270,1,0,0:0:0:0:
320,192,123270,1,0,0:0:0:0:
64,192,123386,1,0,0:0:0:0:
192,192,123386,1,0,0:0:0:0:
448,192,123501,1,0,0:0:0:0:
320,192,123616,1,0,0:0:0:0:
192,192,123732,1,0,0:0:0:0:
448,192,123732,1,0,0:0:0:0:
64,192,123732,1,0,0:0:0:0:
320,192,123847,1,0,0:0:0:0:
192,192,123963,1,0,0:0:0:0:
64,192,123963,1,0,0:0:0:0:
448,192,124078,1,0,0:0:0:0:
64,192,124193,1,0,0:0:0:0:
320,192,124193,1,0,0:0:0:0:
192,192,124193,1,0,0:0:0:0:
448,192,124309,1,0,0:0:0:0:
320,192,124309,1,0,0:0:0:0:
192,192,124424,1,0,0:0:0:0:
64,192,124540,1,0,0:0:0:0:
448,192,124655,1,0,0:0:0:0:
192,192,124655,1,0,0:0:0:0:
320,192,124655,1,0,0:0:0:0:
64,192,124770,1,0,0:0:0:0:
320,192,124886,1,0,0:0:0:0:
448,192,124886,1,0,0:0:0:0:
192,192,125001,1,0,0:0:0:0:
320,192,125116,1,0,0:0:0:0:
64,192,125116,1,0,0:0:0:0:
448,192,125116,1,0,0:0:0:0:
192,192,125232,1,0,0:0:0:0:
320,192,125347,1,0,0:0:0:0:
320,192,125463,1,0,0:0:0:0:
64,192,125578,1,0,0:0:0:0:
448,192,125578,1,0,0:0:0:0:
192,192,125578,1,0,0:0:0:0:
320,192,125693,1,0,0:0:0:0:
64,192,125809,1,0,0:0:0:0:
192,192,125809,1,0,0:0:0:0:
320,192,125924,1,0,0:0:0:0:
192,192,126040,1,0,0:0:0:0:
448,192,126040,1,0,0:0:0:0:
64,192,126040,1,0,0:0:0:0:
320,192,126155,1,0,0:0:0:0:
64,192,126155,1,0,0:0:0:0:
320,192,126270,1,0,0:0:0:0:
192,192,126386,1,0,0:0:0:0:
448,192,126501,1,0,0:0:0:0:
320,192,126501,1,0,0:0:0:0:
64,192,126501,1,0,0:0:0:0:
192,192,126616,1,0,0:0:0:0:
320,192,126732,1,0,0:0:0:0:
64,192,126732,1,0,0:0:0:0:
448,192,126847,1,0,0:0:0:0:
192,192,126963,1,0,0:0:0:0:
320,192,126963,1,0,0:0:0:0:
64,192,126963,1,0,0:0:0:0:
192,192,127078,1,0,0:0:0:0:
448,192,127078,1,0,0:0:0:0:
320,192,127193,1,0,0:0:0:0:
192,192,127309,1,0,0:0:0:0:
448,192,127424,1,0,0:0:0:0:
64,192,127424,1,0,0:0:0:0:
320,192,127424,1,0,0:0:0:0:
192,192,127540,1,0,0:0:0:0:
448,192,127655,1,0,0:0:0:0:
320,192,127655,1,0,0:0:0:0:
320,192,127770,1,0,0:0:0:0:
64,192,127886,1,0,0:0:0:0:
448,192,127886,1,0,0:0:0:0:
192,192,127886,1,0,0:0:0:0:
448,192,128001,1,0,0:0:0:0:
320,192,128001,1,0,0:0:0:0:
192,192,128116,1,0,0:0:0:0:
320,192,128232,1,0,0:0:0:0:
448,192,128347,1,0,0:0:0:0:
64,192,128347,1,0,0:0:0:0:
192,192,128347,1,0,0:0:0:0:
64,192,128463,1,0,0:0:0:0:
448,192,128578,1,0,0:0:0:0:
192,192,128578,1,0,0:0:0:0:
320,192,128693,1,0,0:0:0:0:
448,192,128809,1,0,0:0:0:0:
192,192,128809,1,0,0:0:0:0:
64,192,128809,1,0,0:0:0:0:
320,192,128924,1,0,0:0:0:0:
192,192,128924,1,0,0:0:0:0:
448,192,129040,1,0,0:0:0:0:
64,192,129155,1,0,0:0:0:0:
320,192,129270,1,0,0:0:0:0:
192,192,129270,1,0,0:0:0:0:
448,192,129270,1,0,0:0:0:0:
64,192,129386,1,0,0:0:0:0:
448,192,129501,1,0,0:0:0:0:
192,192,129501,1,0,0:0:0:0:
320,192,129616,1,0,0:0:0:0:
448,192,129732,1,0,0:0:0:0:
64,192,129732,1,0,0:0:0:0:
320,192,129732,1,0,0:0:0:0:
64,192,129847,1,0,0:0:0:0:
192,192,129847,1,0,0:0:0:0:
192,192,129963,1,0,0:0:0:0:
320,192,130078,1,0,0:0:0:0:
192,192,130193,1,0,0:0:0:0:
64,192,130193,1,0,0:0:0:0:
448,192,130193,1,0,0:0:0:0:
320,192,130309,1,0,0:0:0:0:
64,192,130424,1,0,0:0:0:0:
192,192,130424,1,0,0:0:0:0:
320,192,130540,1,0,0:0:0:0:
64,192,130655,1,0,0:0:0:0:
448,192,130655,1,0,0:0:0:0:
192,192,130655,1,0,0:0:0:0:
320,192,130770,1,0,0:0:0:0:
448,192,130770,1,0,0:0:0:0:
192,192,130886,1,0,0:0:0:0:
192,192,131001,1,0,0:0:0:0:
320,192,131116,1,0,0:0:0:0:
448,192,131116,1,0,0:0:0:0:
64,192,131116,1,0,0:0:0:0:
64,192,131232,1,0,0:0:0:0:
192,192,131347,1,0,0:0:0:0:
448,192,131347,1,0,0:0:0:0:
320,192,131463,1,0,0:0:0:0:
192,192,131578,1,0,0:0:0:0:
448,192,131578,1,0,0:0:0:0:
64,192,131578,1,0,0:0:0:0:
320,192,131693,1,0,0:0:0:0:
448,192,131693,1,0,0:0:0:0:
64,192,131809,1,0,0:0:0:0:
192,192,131924,1,0,0:0:0:0:
320,192,132040,1,0,0:0:0:0:
448,192,132040,1,0,0:0:0:0:
192,192,132155,1,0,0:0:0:0:
320,192,132270,1,0,0:0:0:0:
64,192,132270,1,0,0:0:0:0:
448,192,132386,1,0,0:0:0:0:
320,192,132501,1,0,0:0:0:0:
192,192,132501,1,0,0:0:0:0:
64,192,132501,1,0,0:0:0:0:
192,192,132616,1,0,0:0:0:0:
448,192,132616,1,0,0:0:0:0:
320,192,132732,1,0,0:0:0:0:
64,192,132847,1,0,0:0:0:0:
192,192,132963,1,0,0:0:0:0:
448,192,132963,1,0,0:0:0:0:
64,192,132963,1,0,0:0:0:0:
320,192,132963,1,0,0:0:0:0:
448,192,133193,1,0,0:0:0:0:
192,192,133424,1,0,0:0:0:0:
448,192,133540,1,0,0:0:0:0:
192,192,133655,1,0,0:0:0:0:
448,192,133770,1,0,0:0:0:0:
448,192,133886,1,0,0:0:0:0:
320,192,134001,1,0,0:0:0:0:
64,192,134116,1,0,0:0:0:0:
320,192,134232,1,0,0:0:0:0:
192,192,134347,1,0,0:0:0:0:
448,192,134463,1,0,0:0:0:0:
64,192,134578,1,0,0:0:0:0:
320,192,134693,1,0,0:0:0:0:
448,192,134809,1,0,0:0:0:0:
192,192,134809,1,0,0:0:0:0:
448,192,135040,1,0,0:0:0:0:
192,192,135155,1,0,0:0:0:0:
320,192,135270,1,0,0:0:0:0:
448,192,135386,1,0,0:0:0:0:
448,192,135732,1,0,0:0:0:0:
64,192,135732,1,0,0:0:0:0:
192,192,135847,1,0,0:0:0:0:
448,192,135963,1,0,0:0:0:0:
64,192,136078,1,0,0:0:0:0:
320,192,136193,1,0,0:0:0:0:
192,192,136424,1,0,0:0:0:0:
64,192,136540,1,0,0:0:0:0:
448,192,136655,1,0,0:0:0:0:
320,192,136655,1,0,0:0:0:0:
448,192,136886,1,0,0:0:0:0:
320,192,137001,1,0,0:0:0:0:
192,192,137116,1,0,0:0:0:0:
448,192,137232,1,0,0:0:0:0:
448,192,137578,1,0,0:0:0:0:
192,192,137693,1,0,0:0:0:0:
448,192,137809,1,0,0:0:0:0:
192,192,137924,1,0,0:0:0:0:
64,192,138040,1,0,0:0:0:0:
448,192,138155,1,0,0:0:0:0:
320,192,138270,1,0,0:0:0:0:
64,192,138386,1,0,0:0:0:0:
448,192,138501,1,0,0:0:0:0:
192,192,138501,1,0,0:0:0:0:
448,192,138732,1,0,0:0:0:0:
192,192,138847,1,0,0:0:0:0:
320,192,138963,1,0,0:0:0:0:
448,192,139078,1,0,0:0:0:0:
448,192,139424,1,0,0:0:0:0:
192,192,139540,1,0,0:0:0:0:
448,192,139655,1,0,0:0:0:0:
64,192,139655,1,0,0:0:0:0:
320,192,139770,1,0,0:0:0:0:
64,192,139886,1,0,0:0:0:0:
448,192,140001,1,0,0:0:0:0:
192,192,140001,1,0,0:0:0:0:
448,192,140347,1,0,0:0:0:0:
64,192,140347,1,0,0:0:0:0:
448,192,140578,1,0,0:0:0:0:
192,192,140693,1,0,0:0:0:0:
320,192,140809,1,0,0:0:0:0:
448,192,140924,1,0,0:0:0:0:
448,192,141270,1,0,0:0:0:0:
320,192,141386,1,0,0:0:0:0:
448,192,141501,1,0,0:0:0:0:
192,192,141616,1,0,0:0:0:0:
320,192,141732,1,0,0:0:0:0:
448,192,141847,1,0,0:0:0:0:
192,192,141963,1,0,0:0:0:0:
64,192,142078,1,0,0:0:0:0:
448,192,142193,1,0,0:0:0:0:
448,192,142424,1,0,0:0:0:0:
192,192,142540,1,0,0:0:0:0:
320,192,142655,1,0,0:0:0:0:
448,192,142770,1,0,0:0:0:0:
448,192,143116,1,0,0:0:0:0:
64,192,143116,1,0,0:0:0:0:
192,192,143232,1,0,0:0:0:0:
448,192,143347,1,0,0:0:0:0:
192,192,143463,1,0,0:0:0:0:
320,192,143578,1,0,0:0:0:0:
448,192,143693,1,0,0:0:0:0:
64,192,143809,1,0,0:0:0:0:
320,192,143924,1,0,0:0:0:0:
448,192,144040,1,0,0:0:0:0:
192,192,144040,1,0,0:0:0:0:
64,192,144155,1,0,0:0:0:0:
448,192,144270,1,0,0:0:0:0:
320,192,144386,1,0,0:0:0:0:
192,192,144501,1,0,0:0:0:0:
448,192,144616,1,0,0:0:0:0:
448,192,144963,1,0,0:0:0:0:
192,192,145078,1,0,0:0:0:0:
448,192,145193,1,0,0:0:0:0:
320,192,145309,1,0,0:0:0:0:
64,192,145424,1,0,0:0:0:0:
192,192,145655,1,0,0:0:0:0:
320,192,145770,1,0,0:0:0:0:
448,192,145886,128,0,147732:0:0:0:0:
64,192,146116,1,0,0:0:0:0:
192,192,146232,1,0,0:0:0:0:
320,192,146347,1,0,0:0:0:0:
64,192,147732,128,0,154347:0:0:0:0:
192,192,147732,128,0,149424:0:0:0:0:
320,192,147732,128,0,151270:0:0:0:0:
192,192,149578,128,0,153116:0:0:0:0:
448,192,150501,128,0,154963:0:0:0:0:
320,192,151424,128,0,154655:0:0:0:0:
192,192,153270,128,0,158655:0:0:0:0:
64,192,154501,128,0,160501:0:0:0:0:
320,192,154809,128,0,157732:0:0:0:0:
448,192,155116,128,0,162193:0:0:0:0:
320,192,157886,128,0,162347:0:0:0:0:
192,192,158809,128,0,162347:0:0:0:0:
64,192,160655,128,0,162347:0:0:0:0:
448,192,162347,1,0,0:0:0:0:
320,192,162501,1,0,0:0:0:0:
64,192,162501,1,0,0:0:0:0:
192,192,162501,1,0,0:0:0:0:
64,192,162809,1,0,0:0:0:0:
64,192,163116,1,0,0:0:0:0:
64,192,163424,1,0,0:0:0:0:
64,192,163732,1,0,0:0:0:0:
64,192,164040,1,0,0:0:0:0:
64,192,164347,1,0,0:0:0:0:
64,192,164655,1,0,0:0:0:0:
64,192,164963,1,0,0:0:0:0:
64,192,165270,1,0,0:0:0:0:
64,192,165578,1,0,0:0:0:0:
64,192,165886,1,0,0:0:0:0:
192,192,166040,1,0,0:0:0:0:
320,192,166116,1,0,0:0:0:0:
448,192,166193,1,0,0:0:0:0:
448,192,166501,1,0,0:0:0:0:
448,192,166809,1,0,0:0:0:0:
448,192,167116,1,0,0:0:0:0:
448,192,167424,1,0,0:0:0:0:
448,192,167732,1,0,0:0:0:0:
448,192,168040,1,0,0:0:0:0:
192,192,168040,1,0,0:0:0:0:
192,192,168347,1,0,0:0:0:0:
192,192,168655,1,0,0:0:0:0:
192,192,168963,1,0,0:0:0:0:
192,192,169270,1,0,0:0:0:0:
448,192,169270,1,0,0:0:0:0:
192,192,169578,1,0,0:0:0:0:
320,192,169578,1,0,0:0:0:0:
64,192,169886,1,0,0:0:0:0:
320,192,169886,1,0,0:0:0:0:
320,192,170193,1,0,0:0:0:0:
320,192,170501,1,0,0:0:0:0:
320,192,170809,1,0,0:0:0:0:
320,192,171116,1,0,0:0:0:0:
320,192,171424,1,0,0:0:0:0:
320,192,171732,1,0,0:0:0:0:
320,192,172040,1,0,0:0:0:0:
320,192,172347,1,0,0:0:0:0:
192,192,172655,1,0,0:0:0:0:
448,192,172655,1,0,0:0:0:0:
192,192,172963,1,0,0:0:0:0:
192,192,173270,1,0,0:0:0:0:
64,192,173578,1,0,0:0:0:0:
320,192,173578,1,0,0:0:0:0:
64,192,173886,1,0,0:0:0:0:
64,192,174193,1,0,0:0:0:0:
64,192,174501,1,0,0:0:0:0:
64,192,174809,1,0,0:0:0:0:
64,192,175116,1,0,0:0:0:0:
192,192,175424,1,0,0:0:0:0:
448,192,175424,1,0,0:0:0:0:
448,192,175732,1,0,0:0:0:0:
448,192,176040,1,0,0:0:0:0:
448,192,176347,1,0,0:0:0:0:
448,192,176655,1,0,0:0:0:0:
448,192,176963,1,0,0:0:0:0:
192,192,177116,1,0,0:0:0:0:
64,192,177270,1,0,0:0:0:0:
192,192,177270,1,0,0:0:0:0:
320,192,177270,1,0,0:0:0:0:
448,192,177270,1,0,0:0:0:0:
64,192,177578,1,0,0:0:0:0:
64,192,177886,1,0,0:0:0:0:
64,192,178193,1,0,0:0:0:0:
64,192,178501,1,0,0:0:0:0:
64,192,178809,1,0,0:0:0:0:
64,192,179116,1,0,0:0:0:0:
320,192,179116,1,0,0:0:0:0:
320,192,179424,1,0,0:0:0:0:
320,192,179732,1,0,0:0:0:0:
64,192,180040,1,0,0:0:0:0:
192,192,180040,1,0,0:0:0:0:
192,192,180347,1,0,0:0:0:0:
192,192,180655,1,0,0:0:0:0:
64,192,180809,1,0,0:0:0:0:
192,192,180886,1,0,0:0:0:0:
448,192,180963,1,0,0:0:0:0:
320,192,180963,1,0,0:0:0:0:
448,192,181270,1,0,0:0:0:0:
448,192,181578,1,0,0:0:0:0:
448,192,181886,1,0,0:0:0:0:
448,192,182193,1,0,0:0:0:0:
448,192,182501,1,0,0:0:0:0:
192,192,182809,1,0,0:0:0:0:
448,192,182809,1,0,0:0:0:0:
192,192,183116,1,0,0:0:0:0:
192,192,183424,1,0,0:0:0:0:
192,192,183732,1,0,0:0:0:0:
448,192,184040,1,0,0:0:0:0:
192,192,184040,1,0,0:0:0:0:
192,192,184347,1,0,0:0:0:0:
320,192,184347,1,0,0:0:0:0:
64,192,184655,1,0,0:0:0:0:
320,192,184655,1,0,0:0:0:0:
320,192,184963,1,0,0:0:0:0:
64,192,184963,1,0,0:0:0:0:
320,192,185270,1,0,0:0:0:0:
64,192,185270,1,0,0:0:0:0:
320,192,185578,1,0,0:0:0:0:
64,192,185578,1,0,0:0:0:0:
320,192,185886,1,0,0:0:0:0:
64,192,185886,1,0,0:0:0:0:
320,192,186193,1,0,0:0:0:0:
64,192,186193,1,0,0:0:0:0:
320,192,186501,1,0,0:0:0:0:
64,192,186501,1,0,0:0:0:0:
320,192,186809,1,0,0:0:0:0:
64,192,186809,1,0,0:0:0:0:
320,192,187116,1,0,0:0:0:0:
64,192,187116,1,0,0:0:0:0:
448,192,187424,1,0,0:0:0:0:
192,192,187424,1,0,0:0:0:0:
192,192,187732,1,0,0:0:0:0:
448,192,187732,1,0,0:0:0:0:
192,192,188040,1,0,0:0:0:0:
448,192,188040,1,0,0:0:0:0:
64,192,188347,1,0,0:0:0:0:
320,192,188347,1,0,0:0:0:0:
192,192,188347,1,0,0:0:0:0:
64,192,188655,1,0,0:0:0:0:
192,192,188655,1,0,0:0:0:0:
320,192,188655,1,0,0:0:0:0:
64,192,188963,1,0,0:0:0:0:
192,192,188963,1,0,0:0:0:0:
320,192,188963,1,0,0:0:0:0:
64,192,189270,1,0,0:0:0:0:
192,192,189270,1,0,0:0:0:0:
320,192,189270,1,0,0:0:0:0:
64,192,189578,1,0,0:0:0:0:
192,192,189578,1,0,0:0:0:0:
320,192,189578,1,0,0:0:0:0:
64,192,189886,1,0,0:0:0:0:
192,192,189886,1,0,0:0:0:0:
320,192,189886,1,0,0:0:0:0:
192,192,190193,1,0,0:0:0:0:
448,192,190193,1,0,0:0:0:0:
320,192,190193,1,0,0:0:0:0:
448,192,190347,1,0,0:0:0:0:
320,192,190347,1,0,0:0:0:0:
192,192,190501,1,0,0:0:0:0:
64,192,190501,1,0,0:0:0:0:
192,192,190655,1,0,0:0:0:0:
320,192,190655,1,0,0:0:0:0:
448,192,190809,1,0,0:0:0:0:
320,192,190809,1,0,0:0:0:0:
64,192,190963,1,0,0:0:0:0:
192,192,190963,1,0,0:0:0:0:
192,192,191116,1,0,0:0:0:0:
320,192,191116,1,0,0:0:0:0:
448,192,191578,1,0,0:0:0:0:
320,192,191655,1,0,0:0:0:0:
192,192,191732,1,0,0:0:0:0:
64,192,191809,1,0,0:0:0:0:
192,192,191886,1,0,0:0:0:0:
320,192,191963,1,0,0:0:0:0:
192,192,192040,1,0,0:0:0:0:
64,192,192040,1,0,0:0:0:0:
448,192,192040,1,0,0:0:0:0:
320,192,192193,1,0,0:0:0:0:
64,192,192193,1,0,0:0:0:0:
192,192,192347,1,0,0:0:0:0:
320,192,192347,1,0,0:0:0:0:
64,192,192501,1,0,0:0:0:0:
320,192,192501,1,0,0:0:0:0:
448,192,192501,1,0,0:0:0:0:
192,192,192655,1,0,0:0:0:0:
64,192,192655,1,0,0:0:0:0:
64,192,192809,1,0,0:0:0:0:
448,192,192809,1,0,0:0:0:0:
320,192,192963,1,0,0:0:0:0:
448,192,192963,1,0,0:0:0:0:
192,192,192963,1,0,0:0:0:0:
320,192,193116,1,0,0:0:0:0:
64,192,193193,1,0,0:0:0:0:
192,192,193270,1,0,0:0:0:0:
320,192,193347,1,0,0:0:0:0:
448,192,193424,1,0,0:0:0:0:
192,192,193424,128,0,193578:0:0:0:0:
64,192,193424,128,0,193578:0:0:0:0:
320,192,193578,1,0,0:0:0:0:
448,192,193578,1,0,0:0:0:0:
64,192,193732,1,0,0:0:0:0:
320,192,193732,1,0,0:0:0:0:
192,192,193886,1,0,0:0:0:0:
448,192,193886,1,0,0:0:0:0:
64,192,193886,1,0,0:0:0:0:
320,192,193886,1,0,0:0:0:0:
64,192,194040,1,0,0:0:0:0:
192,192,194040,1,0,0:0:0:0:
320,192,194193,1,0,0:0:0:0:
448,192,194193,1,0,0:0:0:0:
64,192,194347,1,0,0:0:0:0:
192,192,194347,1,0,0:0:0:0:
320,192,194347,1,0,0:0:0:0:
64,192,194501,1,0,0:0:0:0:
192,192,194501,1,0,0:0:0:0:
320,192,194501,1,0,0:0:0:0:
64,192,194655,1,0,0:0:0:0:
192,192,194655,1,0,0:0:0:0:
448,192,194655,1,0,0:0:0:0:
64,192,194809,1,0,0:0:0:0:
448,192,194809,1,0,0:0:0:0:
192,192,194809,1,0,0:0:0:0:
320,192,194809,1,0,0:0:0:0:
320,192,194963,1,0,0:0:0:0:
192,192,194963,1,0,0:0:0:0:
64,192,195116,1,0,0:0:0:0:
448,192,195116,1,0,0:0:0:0:
192,192,195270,1,0,0:0:0:0:
448,192,195270,1,0,0:0:0:0:
320,192,195270,1,0,0:0:0:0:
64,192,195424,1,0,0:0:0:0:
320,192,195424,1,0,0:0:0:0:
192,192,195578,1,0,0:0:0:0:
320,192,195655,1,0,0:0:0:0:
448,192,195732,1,0,0:0:0:0:
64,192,195732,1,0,0:0:0:0:
192,192,195732,1,0,0:0:0:0:
320,192,195886,1,0,0:0:0:0:
192,192,195886,1,0,0:0:0:0:
64,192,196040,1,0,0:0:0:0:
320,192,196040,1,0,0:0:0:0:
192,192,196193,1,0,0:0:0:0:
448,192,196193,1,0,0:0:0:0:
64,192,196193,1,0,0:0:0:0:
320,192,196347,1,0,0:0:0:0:
192,192,196347,1,0,0:0:0:0:
64,192,196501,1,0,0:0:0:0:
448,192,196501,1,0,0:0:0:0:
320,192,196655,1,0,0:0:0:0:
64,192,196655,1,0,0:0:0:0:
192,192,196655,1,0,0:0:0:0:
192,192,196809,1,0,0:0:0:0:
448,192,196809,1,0,0:0:0:0:
320,192,196886,1,0,0:0:0:0:
64,192,196963,1,0,0:0:0:0:
192,192,197040,1,0,0:0:0:0:
320,192,197116,1,0,0:0:0:0:
448,192,197116,1,0,0:0:0:0:
64,192,197116,1,0,0:0:0:0:
192,192,197270,1,0,0:0:0:0:
64,192,197270,1,0,0:0:0:0:
192,192,197424,1,0,0:0:0:0:
448,192,197424,1,0,0:0:0:0:
320,192,197578,1,0,0:0:0:0:
64,192,197578,1,0,0:0:0:0:
448,192,197578,1,0,0:0:0:0:
192,192,197578,1,0,0:0:0:0:
192,192,197732,1,0,0:0:0:0:
64,192,197732,1,0,0:0:0:0:
320,192,197886,1,0,0:0:0:0:
448,192,197886,1,0,0:0:0:0:
192,192,198040,1,0,0:0:0:0:
64,192,198040,1,0,0:0:0:0:
320,192,198116,1,0,0:0:0:0:
448,192,198193,1,0,0:0:0:0:
192,192,198193,1,0,0:0:0:0:
64,192,198347,1,0,0:0:0:0:
320,192,198347,1,0,0:0:0:0:
448,192,198501,1,0,0:0:0:0:
192,192,198501,128,0,198963:0:0:0:0:
64,192,198501,128,0,198963:0:0:0:0:
320,192,198809,1,0,0:0:0:0:
448,192,198809,128,0,199116:0:0:0:0:
192,192,199116,1,0,0:0:0:0:
320,192,199116,128,0,199424:0:0:0:0:
64,192,199424,1,0,0:0:0:0:
192,192,199424,1,0,0:0:0:0:
448,192,199424,1,0,0:0:0:0:
192,192,199578,1,0,0:0:0:0:
64,192,199578,1,0,0:0:0:0:
320,192,199732,1,0,0:0:0:0:
448,192,199732,1,0,0:0:0:0:
192,192,199886,1,0,0:0:0:0:
64,192,199886,1,0,0:0:0:0:
320,192,199886,1,0,0:0:0:0:
448,192,200040,1,0,0:0:0:0:
192,192,200040,1,0,0:0:0:0:
320,192,200193,1,0,0:0:0:0:
64,192,200193,1,0,0:0:0:0:
64,192,200347,1,0,0:0:0:0:
192,192,200347,1,0,0:0:0:0:
448,192,200347,1,0,0:0:0:0:
320,192,200501,1,0,0:0:0:0:
448,192,200501,1,0,0:0:0:0:
192,192,200578,1,0,0:0:0:0:
64,192,200655,1,0,0:0:0:0:
320,192,200655,1,0,0:0:0:0:
448,192,200732,1,0,0:0:0:0:
192,192,200809,1,0,0:0:0:0:
64,192,200809,1,0,0:0:0:0:
320,192,200809,1,0,0:0:0:0:
448,192,200963,1,0,0:0:0:0:
192,192,200963,1,0,0:0:0:0:
320,192,201116,1,0,0:0:0:0:
64,192,201116,1,0,0:0:0:0:
64,192,201270,1,0,0:0:0:0:
192,192,201270,1,0,0:0:0:0:
448,192,201270,1,0,0:0:0:0:
320,192,201347,1,0,0:0:0:0:
192,192,201424,1,0,0:0:0:0:
320,192,201501,1,0,0:0:0:0:
64,192,201501,1,0,0:0:0:0:
448,192,201578,1,0,0:0:0:0:
192,192,201655,1,0,0:0:0:0:
320,192,201732,1,0,0:0:0:0:
448,192,201732,1,0,0:0:0:0:
64,192,201732,1,0,0:0:0:0:
320,192,201886,1,0,0:0:0:0:
448,192,201886,1,0,0:0:0:0:
64,192,201886,1,0,0:0:0:0:
448,192,202040,1,0,0:0:0:0:
320,192,202040,1,0,0:0:0:0:
192,192,202040,1,0,0:0:0:0:
320,192,202193,1,0,0:0:0:0:
448,192,202193,1,0,0:0:0:0:
64,192,202193,1,0,0:0:0:0:
192,192,202193,1,0,0:0:0:0:
64,192,202347,1,0,0:0:0:0:
192,192,202424,1,0,0:0:0:0:
320,192,202501,1,0,0:0:0:0:
448,192,202501,1,0,0:0:0:0:
192,192,202655,1,0,0:0:0:0:
64,192,202655,1,0,0:0:0:0:
448,192,202655,1,0,0:0:0:0:
320,192,202809,1,0,0:0:0:0:
192,192,202809,1,0,0:0:0:0:
64,192,202963,1,0,0:0:0:0:
320,192,202963,1,0,0:0:0:0:
192,192,203116,1,0,0:0:0:0:
64,192,203116,1,0,0:0:0:0:
448,192,203116,1,0,0:0:0:0:
320,192,203270,1,0,0:0:0:0:
448,192,203270,1,0,0:0:0:0:
192,192,203424,1,0,0:0:0:0:
64,192,203424,1,0,0:0:0:0:
192,192,203578,1,0,0:0:0:0:
448,192,203578,1,0,0:0:0:0:
320,192,203578,1,0,0:0:0:0:
64,192,203732,1,0,0:0:0:0:
320,192,203732,1,0,0:0:0:0:
192,192,203886,1,0,0:0:0:0:
448,192,203886,1,0,0:0:0:0:
64,192,204040,1,0,0:0:0:0:
192,192,204040,1,0,0:0:0:0:
448,192,204116,1,0,0:0:0:0:
320,192,204193,1,0,0:0:0:0:
64,192,204270,1,0,0:0:0:0:
192,192,204270,1,0,0:0:0:0:
320,192,204347,1,0,0:0:0:0:
448,192,204424,1,0,0:0:0:0:
64,192,204501,1,0,0:0:0:0:
192,192,204501,1,0,0:0:0:0:
320,192,204501,1,0,0:0:0:0:
320,192,204655,1,0,0:0:0:0:
64,192,204655,1,0,0:0:0:0:
192,192,204809,1,0,0:0:0:0:
448,192,204809,1,0,0:0:0:0:
64,192,204963,1,0,0:0:0:0:
192,192,204963,1,0,0:0:0:0:
320,192,204963,1,0,0:0:0:0:
448,192,204963,1,0,0:0:0:0:
64,192,205116,1,0,0:0:0:0:
192,192,205193,1,0,0:0:0:0:
320,192,205270,1,0,0:0:0:0:
192,192,205347,1,0,0:0:0:0:
320,192,205424,1,0,0:0:0:0:
448,192,205424,1,0,0:0:0:0:
64,192,205424,1,0,0:0:0:0:
192,192,205501,1,0,0:0:0:0:
320,192,205578,1,0,0:0:0:0:
448,192,205655,1,0,0:0:0:0:
64,192,205886,1,0,0:0:0:0:
320,192,205886,128,0,206347:0:0:0:0:
192,192,205886,128,0,206193:0:0:0:0:
64,192,206193,1,0,0:0:0:0:
448,192,206347,1,0,0:0:0:0:
192,192,206347,1,0,0:0:0:0:
320,192,206501,1,0,0:0:0:0:
448,192,206578,1,0,0:0:0:0:
192,192,206655,1,0,0:0:0:0:
320,192,206732,1,0,0:0:0:0:
192,192,206809,1,0,0:0:0:0:
64,192,206809,1,0,0:0:0:0:
448,192,206809,1,0,0:0:0:0:
448,192,206963,1,0,0:0:0:0:
192,192,206963,1,0,0:0:0:0:
320,192,207116,1,0,0:0:0:0:
192,192,207116,1,0,0:0:0:0:
192,192,207270,1,0,0:0:0:0:
64,192,207270,1,0,0:0:0:0:
448,192,207270,1,0,0:0:0:0:
448,192,207424,1,0,0:0:0:0:
320,192,207424,1,0,0:0:0:0:
448,192,207578,1,0,0:0:0:0:
64,192,207578,1,0,0:0:0:0:
192,192,207732,1,0,0:0:0:0:
320,192,207732,1,0,0:0:0:0:
64,192,207732,1,0,0:0:0:0:
192,192,207886,1,0,0:0:0:0:
448,192,207963,1,0,0:0:0:0:
320,192,208040,1,0,0:0:0:0:
192,192,208116,1,0,0:0:0:0:
448,192,208193,128,0,208347:0:0:0:0:
320,192,208193,128,0,208347:0:0:0:0:
64,192,208193,1,0,0:0:0:0:
192,192,208347,1,0,0:0:0:0:
64,192,208347,1,0,0:0:0:0:
448,192,208501,1,0,0:0:0:0:
192,192,208501,1,0,0:0:0:0:
192,192,208655,1,0,0:0:0:0:
64,192,208655,1,0,0:0:0:0:
448,192,208655,1,0,0:0:0:0:
320,192,208655,1,0,0:0:0:0:
448,192,208809,1,0,0:0:0:0:
320,192,208809,1,0,0:0:0:0:
192,192,208963,1,0,0:0:0:0:
64,192,208963,1,0,0:0:0:0:
448,192,209116,1,0,0:0:0:0:
192,192,209116,1,0,0:0:0:0:
320,192,209116,1,0,0:0:0:0:
192,192,209270,1,0,0:0:0:0:
448,192,209270,1,0,0:0:0:0:
320,192,209270,1,0,0:0:0:0:
448,192,209424,1,0,0:0:0:0:
320,192,209424,1,0,0:0:0:0:
64,192,209424,1,0,0:0:0:0:
448,192,209578,1,0,0:0:0:0:
64,192,209578,1,0,0:0:0:0:
320,192,209578,1,0,0:0:0:0:
192,192,209578,1,0,0:0:0:0:
192,192,209732,1,0,0:0:0:0:
320,192,209732,1,0,0:0:0:0:
64,192,209886,1,0,0:0:0:0:
448,192,209886,1,0,0:0:0:0:
320,192,210040,1,0,0:0:0:0:
64,192,210040,1,0,0:0:0:0:
192,192,210040,1,0,0:0:0:0:
192,192,210193,1,0,0:0:0:0:
448,192,210193,1,0,0:0:0:0:
320,192,210347,1,0,0:0:0:0:
192,192,210424,1,0,0:0:0:0:
64,192,210501,1,0,0:0:0:0:
320,192,210501,1,0,0:0:0:0:
448,192,210501,1,0,0:0:0:0:
320,192,210655,1,0,0:0:0:0:
192,192,210655,1,0,0:0:0:0:
448,192,210809,1,0,0:0:0:0:
192,192,210809,1,0,0:0:0:0:
64,192,210963,1,0,0:0:0:0:
320,192,210963,1,0,0:0:0:0:
448,192,210963,1,0,0:0:0:0:
320,192,211116,1,0,0:0:0:0:
192,192,211116,1,0,0:0:0:0:
64,192,211270,1,0,0:0:0:0:
448,192,211270,1,0,0:0:0:0:
192,192,211424,1,0,0:0:0:0:
320,192,211424,1,0,0:0:0:0:
448,192,211424,1,0,0:0:0:0:
320,192,211578,1,0,0:0:0:0:
64,192,211578,1,0,0:0:0:0:
192,192,211655,1,0,0:0:0:0:
448,192,211732,1,0,0:0:0:0:
320,192,211809,1,0,0:0:0:0:
448,192,211886,1,0,0:0:0:0:
192,192,211886,1,0,0:0:0:0:
64,192,211886,1,0,0:0:0:0:
448,192,212040,1,0,0:0:0:0:
320,192,212040,1,0,0:0:0:0:
64,192,212193,1,0,0:0:0:0:
320,192,212193,1,0,0:0:0:0:
64,192,212347,1,0,0:0:0:0:
448,192,212347,1,0,0:0:0:0:
192,192,212347,1,0,0:0:0:0:
320,192,212347,1,0,0:0:0:0:
448,192,212501,1,0,0:0:0:0:
320,192,212501,1,0,0:0:0:0:
64,192,212655,1,0,0:0:0:0:
192,192,212655,1,0,0:0:0:0:
320,192,212809,1,0,0:0:0:0:
448,192,212809,1,0,0:0:0:0:
192,192,212886,1,0,0:0:0:0:
64,192,212963,1,0,0:0:0:0:
320,192,212963,1,0,0:0:0:0:
192,192,213116,1,0,0:0:0:0:
448,192,213116,1,0,0:0:0:0:
64,192,213270,1,0,0:0:0:0:
320,192,213270,128,0,213732:0:0:0:0:
448,192,213270,128,0,213732:0:0:0:0:
64,192,213578,128,0,213886:0:0:0:0:
192,192,213578,1,0,0:0:0:0:
320,192,213886,1,0,0:0:0:0:
192,192,213886,128,0,214193:0:0:0:0:
448,192,214193,1,0,0:0:0:0:
64,192,214193,1,0,0:0:0:0:
320,192,214193,1,0,0:0:0:0:
320,192,214347,1,0,0:0:0:0:
448,192,214347,1,0,0:0:0:0:
64,192,214501,1,0,0:0:0:0:
192,192,214501,1,0,0:0:0:0:
448,192,214655,1,0,0:0:0:0:
192,192,214655,1,0,0:0:0:0:
320,192,214655,1,0,0:0:0:0:
320,192,214809,1,0,0:0:0:0:
64,192,214809,1,0,0:0:0:0:
448,192,214963,1,0,0:0:0:0:
192,192,214963,1,0,0:0:0:0:
320,192,215116,1,0,0:0:0:0:
64,192,215116,1,0,0:0:0:0:
448,192,215116,1,0,0:0:0:0:
192,192,215270,1,0,0:0:0:0:
64,192,215270,1,0,0:0:0:0:
320,192,215347,1,0,0:0:0:0:
448,192,215424,1,0,0:0:0:0:
192,192,215424,1,0,0:0:0:0:
64,192,215501,1,0,0:0:0:0:
320,192,215578,1,0,0:0:0:0:
448,192,215578,1,0,0:0:0:0:
192,192,215578,1,0,0:0:0:0:
320,192,215732,1,0,0:0:0:0:
64,192,215732,1,0,0:0:0:0:
448,192,215886,1,0,0:0:0:0:
192,192,215886,1,0,0:0:0:0:
64,192,216040,1,0,0:0:0:0:
320,192,216040,1,0,0:0:0:0:
448,192,216040,1,0,0:0:0:0:
192,192,216116,1,0,0:0:0:0:
320,192,216193,1,0,0:0:0:0:
192,192,216270,1,0,0:0:0:0:
448,192,216270,1,0,0:0:0:0:
64,192,216347,1,0,0:0:0:0:
320,192,216424,1,0,0:0:0:0:
192,192,216501,1,0,0:0:0:0:
64,192,216501,1,0,0:0:0:0:
448,192,216501,1,0,0:0:0:0:
64,192,216655,1,0,0:0:0:0:
192,192,216655,1,0,0:0:0:0:
448,192,216655,1,0,0:0:0:0:
192,192,216809,1,0,0:0:0:0:
320,192,216809,1,0,0:0:0:0:
64,192,216809,1,0,0:0:0:0:
192,192,216963,1,0,0:0:0:0:
320,192,216963,1,0,0:0:0:0:
64,192,216963,1,0,0:0:0:0:
448,192,216963,1,0,0:0:0:0:
448,192,217116,1,0,0:0:0:0:
320,192,217193,1,0,0:0:0:0:
192,192,217270,1,0,0:0:0:0:
64,192,217270,1,0,0:0:0:0:
64,192,217424,1,0,0:0:0:0:
320,192,217424,1,0,0:0:0:0:
448,192,217424,1,0,0:0:0:0:
192,192,217578,1,0,0:0:0:0:
320,192,217578,1,0,0:0:0:0:
192,192,217732,1,0,0:0:0:0:
448,192,217732,1,0,0:0:0:0:
320,192,217886,1,0,0:0:0:0:
448,192,217886,1,0,0:0:0:0:
64,192,217886,1,0,0:0:0:0:
64,192,218040,1,0,0:0:0:0:
192,192,218040,1,0,0:0:0:0:
320,192,218193,1,0,0:0:0:0:
448,192,218193,1,0,0:0:0:0:
64,192,218347,1,0,0:0:0:0:
192,192,218347,1,0,0:0:0:0:
320,192,218347,1,0,0:0:0:0:
448,192,218501,1,0,0:0:0:0:
192,192,218501,1,0,0:0:0:0:
64,192,218655,1,0,0:0:0:0:
320,192,218655,1,0,0:0:0:0:
320,192,218809,1,0,0:0:0:0:
448,192,218809,1,0,0:0:0:0:
64,192,218886,1,0,0:0:0:0:
192,192,218963,1,0,0:0:0:0:
448,192,219040,1,0,0:0:0:0:
320,192,219040,1,0,0:0:0:0:
192,192,219116,1,0,0:0:0:0:
64,192,219193,1,0,0:0:0:0:
192,192,219270,1,0,0:0:0:0:
448,192,219270,1,0,0:0:0:0:
320,192,219270,1,0,0:0:0:0:
448,192,219424,1,0,0:0:0:0:
192,192,219424,1,0,0:0:0:0:
320,192,219578,1,0,0:0:0:0:
64,192,219578,1,0,0:0:0:0:
64,192,219732,1,0,0:0:0:0:
448,192,219732,1,0,0:0:0:0:
192,192,219732,1,0,0:0:0:0:
320,192,219732,1,0,0:0:0:0:
448,192,219886,1,0,0:0:0:0:
320,192,219963,1,0,0:0:0:0:
192,192,220040,1,0,0:0:0:0:
320,192,220116,1,0,0:0:0:0:
448,192,220193,1,0,0:0:0:0:
64,192,220193,1,0,0:0:0:0:
192,192,220193,1,0,0:0:0:0:
320,192,220270,1,0,0:0:0:0:
192,192,220347,1,0,0:0:0:0:
64,192,220424,1,0,0:0:0:0:
320,192,220655,128,0,220963:0:0:0:0:
192,192,220655,128,0,221116:0:0:0:0:
448,192,220655,1,0,0:0:0:0:
448,192,220963,1,0,0:0:0:0:
320,192,221116,1,0,0:0:0:0:
64,192,221116,1,0,0:0:0:0:
192,192,221270,1,0,0:0:0:0:
64,192,221347,1,0,0:0:0:0:
320,192,221424,1,0,0:0:0:0:
448,192,221501,1,0,0:0:0:0:
320,192,221578,1,0,0:0:0:0:
192,192,221578,1,0,0:0:0:0:
64,192,221578,1,0,0:0:0:0:
64,192,221732,1,0,0:0:0:0:
320,192,221732,1,0,0:0:0:0:
192,192,221886,1,0,0:0:0:0:
320,192,221886,1,0,0:0:0:0:
320,192,222040,1,0,0:0:0:0:
64,192,222040,1,0,0:0:0:0:
448,192,222040,1,0,0:0:0:0:
192,192,222193,1,0,0:0:0:0:
64,192,222193,1,0,0:0:0:0:
64,192,222347,1,0,0:0:0:0:
448,192,222347,1,0,0:0:0:0:
320,192,222501,1,0,0:0:0:0:
448,192,222501,1,0,0:0:0:0:
192,192,222501,1,0,0:0:0:0:
320,192,222655,1,0,0:0:0:0:
64,192,222732,1,0,0:0:0:0:
192,192,222809,1,0,0:0:0:0:
320,192,222886,1,0,0:0:0:0:
64,192,222963,128,0,223116:0:0:0:0:
192,192,222963,128,0,223116:0:0:0:0:
448,192,222963,1,0,0:0:0:0:
320,192,223116,1,0,0:0:0:0:
448,192,223116,1,0,0:0:0:0:
64,192,223270,1,0,0:0:0:0:
320,192,223270,1,0,0:0:0:0:
64,192,223424,1,0,0:0:0:0:
448,192,223424,1,0,0:0:0:0:
192,192,223424,1,0,0:0:0:0:
320,192,223424,1,0,0:0:0:0:
192,192,223578,1,0,0:0:0:0:
64,192,223578,1,0,0:0:0:0:
320,192,223732,1,0,0:0:0:0:
448,192,223732,1,0,0:0:0:0:
192,192,223886,1,0,0:0:0:0:
320,192,223886,1,0,0:0:0:0:
64,192,223886,1,0,0:0:0:0:
64,192,224040,1,0,0:0:0:0:
320,192,224040,1,0,0:0:0:0:
192,192,224040,1,0,0:0:0:0:
448,192,224193,1,0,0:0:0:0:
192,192,224193,1,0,0:0:0:0:
64,192,224193,1,0,0:0:0:0:
64,192,224347,1,0,0:0:0:0:
320,192,224347,1,0,0:0:0:0:
448,192,224347,1,0,0:0:0:0:
192,192,224347,1,0,0:0:0:0:
320,192,224501,1,0,0:0:0:0:
192,192,224501,1,0,0:0:0:0:
64,192,224655,1,0,0:0:0:0:
448,192,224655,1,0,0:0:0:0:
448,192,224809,1,0,0:0:0:0:
320,192,224809,1,0,0:0:0:0:
192,192,224809,1,0,0:0:0:0:
64,192,224963,1,0,0:0:0:0:
320,192,224963,1,0,0:0:0:0:
192,192,225116,1,0,0:0:0:0:
320,192,225193,1,0,0:0:0:0:
192,192,225270,1,0,0:0:0:0:
448,192,225270,1,0,0:0:0:0:
64,192,225270,1,0,0:0:0:0:
320,192,225424,1,0,0:0:0:0:
192,192,225424,1,0,0:0:0:0:
64,192,225578,1,0,0:0:0:0:
320,192,225578,1,0,0:0:0:0:
64,192,225732,1,0,0:0:0:0:
448,192,225732,1,0,0:0:0:0:
192,192,225732,1,0,0:0:0:0:
320,192,225886,1,0,0:0:0:0:
192,192,225886,1,0,0:0:0:0:
64,192,226040,1,0,0:0:0:0:
448,192,226040,1,0,0:0:0:0:
192,192,226193,1,0,0:0:0:0:
320,192,226193,1,0,0:0:0:0:
64,192,226193,1,0,0:0:0:0:
192,192,226347,1,0,0:0:0:0:
448,192,226347,1,0,0:0:0:0:
320,192,226424,1,0,0:0:0:0:
64,192,226501,1,0,0:0:0:0:
192,192,226578,1,0,0:0:0:0:
320,192,226655,1,0,0:0:0:0:
448,192,226655,1,0,0:0:0:0:
64,192,226655,1,0,0:0:0:0:
192,192,226809,1,0,0:0:0:0:
64,192,226809,1,0,0:0:0:0:
448,192,226963,1,0,0:0:0:0:
192,192,226963,1,0,0:0:0:0:
192,192,227116,1,0,0:0:0:0:
320,192,227116,1,0,0:0:0:0:
448,192,227116,1,0,0:0:0:0:
64,192,227116,1,0,0:0:0:0:
64,192,227270,1,0,0:0:0:0:
192,192,227270,1,0,0:0:0:0:
320,192,227424,1,0,0:0:0:0:
448,192,227424,1,0,0:0:0:0:
192,192,227578,1,0,0:0:0:0:
64,192,227578,1,0,0:0:0:0:
320,192,227655,1,0,0:0:0:0:
448,192,227732,1,0,0:0:0:0:
192,192,227732,1,0,0:0:0:0:
320,192,227886,1,0,0:0:0:0:
64,192,227886,1,0,0:0:0:0:
192,192,228040,128,0,228501:0:0:0:0:
448,192,228040,1,0,0:0:0:0:
64,192,228040,128,0,228501:0:0:0:0:
448,192,228347,128,0,228655:0:0:0:0:
320,192,228347,1,0,0:0:0:0:
320,192,228655,128,0,228963:0:0:0:0:
192,192,228655,1,0,0:0:0:0:
64,192,228963,1,0,0:0:0:0:
192,192,228963,1,0,0:0:0:0:
448,192,228963,1,0,0:0:0:0:
192,192,229116,1,0,0:0:0:0:
64,192,229116,1,0,0:0:0:0:
320,192,229270,1,0,0:0:0:0:
448,192,229270,1,0,0:0:0:0:
64,192,229424,1,0,0:0:0:0:
320,192,229424,1,0,0:0:0:0:
192,192,229424,1,0,0:0:0:0:
448,192,229578,1,0,0:0:0:0:
192,192,229578,1,0,0:0:0:0:
320,192,229732,1,0,0:0:0:0:
64,192,229732,1,0,0:0:0:0:
64,192,229886,1,0,0:0:0:0:
192,192,229886,1,0,0:0:0:0:
448,192,229886,1,0,0:0:0:0:
320,192,230040,1,0,0:0:0:0:
448,192,230040,1,0,0:0:0:0:
192,192,230116,1,0,0:0:0:0:
320,192,230193,1,0,0:0:0:0:
64,192,230193,1,0,0:0:0:0:
448,192,230270,1,0,0:0:0:0:
192,192,230347,1,0,0:0:0:0:
64,192,230347,1,0,0:0:0:0:
320,192,230347,1,0,0:0:0:0:
192,192,230501,1,0,0:0:0:0:
448,192,230501,1,0,0:0:0:0:
64,192,230655,1,0,0:0:0:0:
320,192,230655,1,0,0:0:0:0:
192,192,230809,1,0,0:0:0:0:
64,192,230809,1,0,0:0:0:0:
448,192,230809,1,0,0:0:0:0:
320,192,230886,1,0,0:0:0:0:
192,192,230963,1,0,0:0:0:0:
320,192,231040,1,0,0:0:0:0:
64,192,231040,1,0,0:0:0:0:
448,192,231116,1,0,0:0:0:0:
192,192,231193,1,0,0:0:0:0:
448,192,231270,1,0,0:0:0:0:
320,192,231270,1,0,0:0:0:0:
64,192,231270,1,0,0:0:0:0:
448,192,231424,1,0,0:0:0:0:
320,192,231424,1,0,0:0:0:0:
64,192,231424,1,0,0:0:0:0:
448,192,231578,1,0,0:0:0:0:
192,192,231578,1,0,0:0:0:0:
320,192,231578,1,0,0:0:0:0:
320,192,231732,1,0,0:0:0:0:
448,192,231732,1,0,0:0:0:0:
64,192,231732,1,0,0:0:0:0:
192,192,231732,1,0,0:0:0:0:
64,192,231886,1,0,0:0:0:0:
192,192,231963,1,0,0:0:0:0:
320,192,232040,1,0,0:0:0:0:
448,192,232040,1,0,0:0:0:0:
192,192,232193,1,0,0:0:0:0:
64,192,232193,1,0,0:0:0:0:
448,192,232193,1,0,0:0:0:0:
192,192,232347,1,0,0:0:0:0:
320,192,232347,1,0,0:0:0:0:
64,192,232501,1,0,0:0:0:0:
320,192,232501,1,0,0:0:0:0:
192,192,232655,1,0,0:0:0:0:
448,192,232655,1,0,0:0:0:0:
64,192,232655,1,0,0:0:0:0:
320,192,232655,1,0,0:0:0:0:
448,192,232809,1,0,0:0:0:0:
320,192,232809,1,0,0:0:0:0:
192,192,232963,1,0,0:0:0:0:
64,192,232963,1,0,0:0:0:0:
320,192,233116,1,0,0:0:0:0:
448,192,233116,1,0,0:0:0:0:
192,192,233116,1,0,0:0:0:0:
320,192,233270,1,0,0:0:0:0:
64,192,233270,1,0,0:0:0:0:
448,192,233424,1,0,0:0:0:0:
192,192,233424,1,0,0:0:0:0:
192,192,233578,1,0,0:0:0:0:
64,192,233578,1,0,0:0:0:0:
448,192,233655,1,0,0:0:0:0:
320,192,233732,1,0,0:0:0:0:
192,192,233809,1,0,0:0:0:0:
64,192,233809,1,0,0:0:0:0:
320,192,233886,1,0,0:0:0:0:
448,192,233963,1,0,0:0:0:0:
64,192,234040,1,0,0:0:0:0:
320,192,234040,1,0,0:0:0:0:
192,192,234040,1,0,0:0:0:0:
64,192,234193,1,0,0:0:0:0:
320,192,234193,1,0,0:0:0:0:
448,192,234347,1,0,0:0:0:0:
192,192,234347,1,0,0:0:0:0:
448,192,234501,1,0,0:0:0:0:
192,192,234501,1,0,0:0:0:0:
64,192,234501,1,0,0:0:0:0:
320,192,234501,1,0,0:0:0:0:
64,192,234655,1,0,0:0:0:0:
192,192,234732,1,0,0:0:0:0:
320,192,234809,1,0,0:0:0:0:
192,192,234886,1,0,0:0:0:0:
64,192,234963,1,0,0:0:0:0:
320,192,234963,1,0,0:0:0:0:
448,192,234963,1,0,0:0:0:0:
192,192,235040,1,0,0:0:0:0:
320,192,235116,1,0,0:0:0:0:
448,192,235193,1,0,0:0:0:0:
320,192,235424,128,0,235886:0:0:0:0:
192,192,235424,128,0,235732:0:0:0:0:
64,192,235424,1,0,0:0:0:0:
64,192,235732,1,0,0:0:0:0:
448,192,235886,1,0,0:0:0:0:
192,192,235886,1,0,0:0:0:0:
320,192,236040,1,0,0:0:0:0:
448,192,236116,1,0,0:0:0:0:
192,192,236193,1,0,0:0:0:0:
320,192,236270,1,0,0:0:0:0:
448,192,236347,1,0,0:0:0:0:
64,192,236347,1,0,0:0:0:0:
192,192,236347,1,0,0:0:0:0:
192,192,236501,1,0,0:0:0:0:
448,192,236501,1,0,0:0:0:0:
192,192,236655,1,0,0:0:0:0:
320,192,236655,1,0,0:0:0:0:
448,192,236809,1,0,0:0:0:0:
64,192,236809,1,0,0:0:0:0:
192,192,236809,1,0,0:0:0:0:
320,192,236963,1,0,0:0:0:0:
448,192,236963,1,0,0:0:0:0:
64,192,237116,1,0,0:0:0:0:
448,192,237116,1,0,0:0:0:0:
64,192,237270,1,0,0:0:0:0:
320,192,237270,1,0,0:0:0:0:
192,192,237270,1,0,0:0:0:0:
192,192,237424,1,0,0:0:0:0:
448,192,237501,1,0,0:0:0:0:
320,192,237578,1,0,0:0:0:0:
192,192,237655,1,0,0:0:0:0:
64,192,237732,1,0,0:0:0:0:
320,192,237732,128,0,237886:0:0:0:0:
448,192,237732,128,0,237886:0:0:0:0:
64,192,237886,1,0,0:0:0:0:
192,192,237886,1,0,0:0:0:0:
192,192,238040,1,0,0:0:0:0:
448,192,238040,1,0,0:0:0:0:
448,192,238193,1,0,0:0:0:0:
320,192,238193,1,0,0:0:0:0:
192,192,238193,1,0,0:0:0:0:
64,192,238193,1,0,0:0:0:0:
320,192,238347,1,0,0:0:0:0:
448,192,238347,1,0,0:0:0:0:
64,192,238501,1,0,0:0:0:0:
192,192,238501,1,0,0:0:0:0:
320,192,238655,1,0,0:0:0:0:
192,192,238655,1,0,0:0:0:0:
448,192,238655,1,0,0:0:0:0:
320,192,238809,1,0,0:0:0:0:
448,192,238809,1,0,0:0:0:0:
192,192,238809,1,0,0:0:0:0:
64,192,238963,1,0,0:0:0:0:
320,192,238963,1,0,0:0:0:0:
448,192,238963,1,0,0:0:0:0:
320,192,239116,1,0,0:0:0:0:
192,192,239116,1,0,0:0:0:0:
448,192,239116,1,0,0:0:0:0:
64,192,239116,1,0,0:0:0:0:
320,192,239270,1,0,0:0:0:0:
192,192,239270,1,0,0:0:0:0:
448,192,239424,1,0,0:0:0:0:
64,192,239424,1,0,0:0:0:0:
192,192,239578,1,0,0:0:0:0:
64,192,239578,1,0,0:0:0:0:
320,192,239578,1,0,0:0:0:0:
448,192,239732,1,0,0:0:0:0:
192,192,239732,1,0,0:0:0:0:
320,192,239886,1,0,0:0:0:0:
192,192,239963,1,0,0:0:0:0:
448,192,240040,1,0,0:0:0:0:
320,192,240040,1,0,0:0:0:0:
64,192,240040,1,0,0:0:0:0:
192,192,240193,1,0,0:0:0:0:
320,192,240193,1,0,0:0:0:0:
192,192,240347,1,0,0:0:0:0:
448,192,240347,1,0,0:0:0:0:
448,192,240501,1,0,0:0:0:0:
320,192,240501,1,0,0:0:0:0:
64,192,240501,1,0,0:0:0:0:
192,192,240655,1,0,0:0:0:0:
320,192,240655,1,0,0:0:0:0:
448,192,240809,1,0,0:0:0:0:
64,192,240809,1,0,0:0:0:0:
448,192,240963,1,0,0:0:0:0:
320,192,240963,1,0,0:0:0:0:
192,192,240963,1,0,0:0:0:0:
64,192,241116,1,0,0:0:0:0:
320,192,241116,1,0,0:0:0:0:
192,192,241193,1,0,0:0:0:0:
448,192,241270,1,0,0:0:0:0:
320,192,241347,1,0,0:0:0:0:
64,192,241424,1,0,0:0:0:0:
192,192,241424,1,0,0:0:0:0:
448,192,241424,1,0,0:0:0:0:
320,192,241578,1,0,0:0:0:0:
448,192,241578,1,0,0:0:0:0:
320,192,241732,1,0,0:0:0:0:
64,192,241732,1,0,0:0:0:0:
192,192,241886,1,0,0:0:0:0:
320,192,241886,1,0,0:0:0:0:
64,192,241886,1,0,0:0:0:0:
448,192,241886,1,0,0:0:0:0:
320,192,242040,1,0,0:0:0:0:
448,192,242040,1,0,0:0:0:0:
192,192,242193,1,0,0:0:0:0:
64,192,242193,1,0,0:0:0:0:
448,192,242347,1,0,0:0:0:0:
320,192,242347,1,0,0:0:0:0:
192,192,242424,1,0,0:0:0:0:
320,192,242501,1,0,0:0:0:0:
64,192,242501,1,0,0:0:0:0:
448,192,242655,1,0,0:0:0:0:
192,192,242655,1,0,0:0:0:0:
448,192,242809,128,0,243270:0:0:0:0:
320,192,242809,128,0,243270:0:0:0:0:
64,192,242809,1,0,0:0:0:0:
192,192,243116,1,0,0:0:0:0:
64,192,243116,128,0,243424:0:0:0:0:
192,192,243424,128,0,243732:0:0:0:0:
320,192,243424,1,0,0:0:0:0:
320,192,243732,1,0,0:0:0:0:
64,192,243732,1,0,0:0:0:0:
448,192,243732,1,0,0:0:0:0:
448,192,243886,1,0,0:0:0:0:
320,192,243886,1,0,0:0:0:0:
192,192,244040,1,0,0:0:0:0:
64,192,244040,1,0,0:0:0:0:
320,192,244193,1,0,0:0:0:0:
192,192,244193,1,0,0:0:0:0:
448,192,244193,1,0,0:0:0:0:
64,192,244347,1,0,0:0:0:0:
320,192,244347,1,0,0:0:0:0:
192,192,244501,1,0,0:0:0:0:
448,192,244501,1,0,0:0:0:0:
448,192,244655,1,0,0:0:0:0:
64,192,244655,1,0,0:0:0:0:
320,192,244655,1,0,0:0:0:0:
64,192,244809,1,0,0:0:0:0:
192,192,244809,1,0,0:0:0:0:
320,192,244886,1,0,0:0:0:0:
192,192,244963,1,0,0:0:0:0:
448,192,244963,1,0,0:0:0:0:
64,192,245040,1,0,0:0:0:0:
192,192,245116,1,0,0:0:0:0:
448,192,245116,1,0,0:0:0:0:
320,192,245116,1,0,0:0:0:0:
64,192,245270,1,0,0:0:0:0:
320,192,245270,1,0,0:0:0:0:
192,192,245424,1,0,0:0:0:0:
448,192,245424,1,0,0:0:0:0:
448,192,245578,1,0,0:0:0:0:
320,192,245578,1,0,0:0:0:0:
64,192,245578,1,0,0:0:0:0:
192,192,245655,1,0,0:0:0:0:
320,192,245732,1,0,0:0:0:0:
448,192,245809,1,0,0:0:0:0:
192,192,245809,1,0,0:0:0:0:
64,192,245886,1,0,0:0:0:0:
320,192,245963,1,0,0:0:0:0:
448,192,246040,1,0,0:0:0:0:
64,192,246040,1,0,0:0:0:0:
192,192,246040,1,0,0:0:0:0:
448,192,246193,1,0,0:0:0:0:
192,192,246193,1,0,0:0:0:0:
64,192,246193,1,0,0:0:0:0:
64,192,246347,1,0,0:0:0:0:
320,192,246347,1,0,0:0:0:0:
192,192,246347,1,0,0:0:0:0:
64,192,246501,1,0,0:0:0:0:
448,192,246501,1,0,0:0:0:0:
192,192,246501,1,0,0:0:0:0:
320,192,246501,1,0,0:0:0:0:
448,192,246655,1,0,0:0:0:0:
320,192,246732,1,0,0:0:0:0:
64,192,246809,1,0,0:0:0:0:
192,192,246809,1,0,0:0:0:0:
448,192,246963,1,0,0:0:0:0:
320,192,246963,1,0,0:0:0:0:
64,192,246963,1,0,0:0:0:0:
320,192,247116,1,0,0:0:0:0:
192,192,247116,1,0,0:0:0:0:
448,192,247270,1,0,0:0:0:0:
192,192,247270,1,0,0:0:0:0:
64,192,247424,1,0,0:0:0:0:
448,192,247424,1,0,0:0:0:0:
320,192,247424,1,0,0:0:0:0:
192,192,247578,1,0,0:0:0:0:
64,192,247578,1,0,0:0:0:0:
448,192,247732,1,0,0:0:0:0:
320,192,247732,1,0,0:0:0:0:
320,192,247886,1,0,0:0:0:0:
192,192,247886,1,0,0:0:0:0:
64,192,247886,1,0,0:0:0:0:
192,192,248040,1,0,0:0:0:0:
448,192,248040,1,0,0:0:0:0:
320,192,248193,1,0,0:0:0:0:
64,192,248193,1,0,0:0:0:0:
448,192,248347,1,0,0:0:0:0:
320,192,248347,1,0,0:0:0:0:
64,192,248424,1,0,0:0:0:0:
192,192,248501,1,0,0:0:0:0:
320,192,248578,1,0,0:0:0:0:
448,192,248578,1,0,0:0:0:0:
192,192,248655,1,0,0:0:0:0:
64,192,248732,1,0,0:0:0:0:
320,192,248809,1,0,0:0:0:0:
448,192,248809,1,0,0:0:0:0:
192,192,248809,1,0,0:0:0:0:
192,192,248963,1,0,0:0:0:0:
448,192,248963,1,0,0:0:0:0:
64,192,249116,1,0,0:0:0:0:
320,192,249116,1,0,0:0:0:0:
192,192,249270,1,0,0:0:0:0:
320,192,249270,1,0,0:0:0:0:
64,192,249270,1,0,0:0:0:0:
448,192,249270,1,0,0:0:0:0:
448,192,249424,1,0,0:0:0:0:
320,192,249501,1,0,0:0:0:0:
192,192,249578,1,0,0:0:0:0:
320,192,249655,1,0,0:0:0:0:
192,192,249732,1,0,0:0:0:0:
64,192,249732,1,0,0:0:0:0:
448,192,249732,1,0,0:0:0:0:
320,192,249809,1,0,0:0:0:0:
192,192,249886,1,0,0:0:0:0:
64,192,249963,1,0,0:0:0:0:
448,192,250193,1,0,0:0:0:0:
192,192,250193,128,0,250655:0:0:0:0:
320,192,250193,128,0,250501:0:0:0:0:
448,192,250501,1,0,0:0:0:0:
64,192,250655,1,0,0:0:0:0:
320,192,250655,1,0,0:0:0:0:
192,192,250809,1,0,0:0:0:0:
64,192,250886,1,0,0:0:0:0:
192,192,250963,1,0,0:0:0:0:
320,192,251040,1,0,0:0:0:0:
64,192,251116,1,0,0:0:0:0:
192,192,251116,1,0,0:0:0:0:
448,192,251116,1,0,0:0:0:0:
64,192,252963,1,0,0:0:0:0:
192,192,252963,1,0,0:0:0:0:
320,192,252963,1,0,0:0:0:0:
448,192,252963,1,0,0:0:0:0:
