osu file format v12

[General]
AudioFilename: jubeat saucerMynarcoSound Only.mp3
AudioLeadIn: 3000
PreviewTime: -1
Countdown: 1
SampleSet: Soft
StackLeniency: 0.7
Mode: 3
LetterboxInBreaks: 1

[Editor]
DistanceSpacing: 1.5
BeatDivisor: 4
GridSize: 8

[Metadata]
Title:Mynarco
TitleUnicode:Mynarco
Artist:positive MAD-crew
ArtistUnicode:positive MAD-crew
Creator:loveFantasy
Version:7K HD
Source:jubeat saucer
Tags:
BeatmapID:251773
BeatmapSetID:93281

[Difficulty]
HPDrainRate:5
CircleSize:7
OverallDifficulty:5
ApproachRate:5
SliderMultiplier:1.4
SliderTickRate:1

[Events]
//Background and Video events
//Break Periods
//Storyboard Layer 0 (Background)
//Storyboard Layer 1 (Fail)
//Storyboard Layer 2 (Pass)
//Storyboard Layer 3 (Foreground)
//Storyboard Sound Samples
//Background Colour Transformations
3,100,163,162,255

[TimingPoints]
839,331.491712707182,4,2,0,5,1,0

[HitObjects]
256,192,839,1,0,0:0:0:0:
475,192,839,1,0,0:0:0:0:
109,192,1170,1,0,0:0:0:0:
475,192,1336,1,0,0:0:0:0:
182,192,1501,128,0,1833:0:0:0:0:
475,192,1833,1,0,0:0:0:0:
402,192,1999,128,0,2330:0:0:0:0:
256,192,2164,1,0,0:0:0:0:
475,192,2330,1,0,0:0:0:0:
182,192,2496,1,0,0:0:0:0:
402,192,2662,1,0,0:0:0:0:
109,192,2827,1,0,0:0:0:0:
329,192,2993,1,0,0:0:0:0:
475,192,3159,128,0,3490:0:0:0:0:
36,192,3490,1,0,0:0:0:0:
256,192,3490,1,0,0:0:0:0:
475,192,3822,1,0,0:0:0:0:
329,192,3822,1,0,0:0:0:0:
109,192,3988,1,0,0:0:0:0:
182,192,4153,128,0,4485:0:0:0:0:
36,192,4319,1,0,0:0:0:0:
329,192,4485,1,0,0:0:0:0:
109,192,4651,128,0,4982:0:0:0:0:
475,192,4816,1,0,0:0:0:0:
402,192,4899,1,0,0:0:0:0:
475,192,4982,1,0,0:0:0:0:
182,192,4982,1,0,0:0:0:0:
402,192,5065,1,0,0:0:0:0:
475,192,5148,1,0,0:0:0:0:
256,192,5148,1,0,0:0:0:0:
402,192,5231,1,0,0:0:0:0:
475,192,5314,1,0,0:0:0:0:
182,192,5314,1,0,0:0:0:0:
402,192,5397,1,0,0:0:0:0:
36,192,5479,1,0,0:0:0:0:
329,192,5479,1,0,0:0:0:0:
36,192,5645,1,0,0:0:0:0:
182,192,5645,1,0,0:0:0:0:
36,192,5811,1,0,0:0:0:0:
329,192,5811,128,0,6142:0:0:0:0:
109,192,5894,1,0,0:0:0:0:
36,192,5977,1,0,0:0:0:0:
109,192,6059,1,0,0:0:0:0:
36,192,6142,1,0,0:0:0:0:
256,192,6142,1,0,0:0:0:0:
475,192,6474,1,0,0:0:0:0:
109,192,6640,1,0,0:0:0:0:
329,192,6805,128,0,7137:0:0:0:0:
36,192,6805,1,0,0:0:0:0:
36,192,6971,1,0,0:0:0:0:
475,192,7137,1,0,0:0:0:0:
402,192,7303,128,0,7634:0:0:0:0:
36,192,7468,1,0,0:0:0:0:
36,192,7634,1,0,0:0:0:0:
109,192,7800,1,0,0:0:0:0:
329,192,7800,1,0,0:0:0:0:
475,192,7966,1,0,0:0:0:0:
36,192,8131,1,0,0:0:0:0:
329,192,8131,1,0,0:0:0:0:
36,192,8297,1,0,0:0:0:0:
256,192,8297,1,0,0:0:0:0:
109,192,8463,1,0,0:0:0:0:
402,192,8463,128,0,8794:0:0:0:0:
36,192,8794,1,0,0:0:0:0:
256,192,8794,1,0,0:0:0:0:
475,192,8794,1,0,0:0:0:0:
256,192,9126,1,0,0:0:0:0:
109,192,9126,1,0,0:0:0:0:
402,192,9292,1,0,0:0:0:0:
256,192,9374,1,0,0:0:0:0:
109,192,9457,128,0,9789:0:0:0:0:
256,192,9623,1,0,0:0:0:0:
256,192,9789,1,0,0:0:0:0:
402,192,9955,1,0,0:0:0:0:
256,192,10037,1,0,0:0:0:0:
182,192,10120,1,0,0:0:0:0:
475,192,10120,128,0,10618:0:0:0:0:
36,192,10203,1,0,0:0:0:0:
182,192,10286,1,0,0:0:0:0:
36,192,10369,1,0,0:0:0:0:
182,192,10452,1,0,0:0:0:0:
36,192,10535,1,0,0:0:0:0:
182,192,10618,1,0,0:0:0:0:
36,192,10700,1,0,0:0:0:0:
475,192,10783,1,0,0:0:0:0:
109,192,10783,128,0,11280:0:0:0:0:
475,192,10949,1,0,0:0:0:0:
475,192,11115,1,0,0:0:0:0:
329,192,11198,1,0,0:0:0:0:
475,192,11280,1,0,0:0:0:0:
329,192,11363,1,0,0:0:0:0:
475,192,11446,1,0,0:0:0:0:
182,192,11446,128,0,11943:0:0:0:0:
36,192,11778,1,0,0:0:0:0:
256,192,11778,1,0,0:0:0:0:
109,192,11943,128,0,12441:0:0:0:0:
329,192,12109,1,0,0:0:0:0:
475,192,12275,1,0,0:0:0:0:
36,192,12441,1,0,0:0:0:0:
256,192,12441,1,0,0:0:0:0:
256,192,12772,128,0,13104:0:0:0:0:
329,192,12772,1,0,0:0:0:0:
36,192,13104,1,0,0:0:0:0:
475,192,13104,1,0,0:0:0:0:
182,192,13269,128,0,13767:0:0:0:0:
329,192,13269,1,0,0:0:0:0:
402,192,13601,1,0,0:0:0:0:
475,192,13767,1,0,0:0:0:0:
256,192,13767,1,0,0:0:0:0:
182,192,13932,1,0,0:0:0:0:
329,192,14098,128,0,14595:0:0:0:0:
109,192,14098,1,0,0:0:0:0:
256,192,14430,1,0,0:0:0:0:
475,192,14595,128,0,15093:0:0:0:0:
109,192,14761,1,0,0:0:0:0:
182,192,14927,1,0,0:0:0:0:
256,192,15093,1,0,0:0:0:0:
402,192,15424,128,0,15921:0:0:0:0:
256,192,15424,1,0,0:0:0:0:
256,192,15590,1,0,0:0:0:0:
256,192,15756,1,0,0:0:0:0:
329,192,15921,128,0,16419:0:0:0:0:
256,192,15921,1,0,0:0:0:0:
256,192,16087,1,0,0:0:0:0:
256,192,16253,1,0,0:0:0:0:
182,192,16419,1,0,0:0:0:0:
109,192,16501,1,0,0:0:0:0:
182,192,16584,1,0,0:0:0:0:
109,192,16667,1,0,0:0:0:0:
182,192,16750,1,0,0:0:0:0:
256,192,16750,128,0,17247:0:0:0:0:
475,192,16750,1,0,0:0:0:0:
36,192,17082,1,0,0:0:0:0:
329,192,17082,1,0,0:0:0:0:
109,192,17247,128,0,17745:0:0:0:0:
475,192,17413,1,0,0:0:0:0:
402,192,17579,1,0,0:0:0:0:
36,192,17745,1,0,0:0:0:0:
329,192,17745,1,0,0:0:0:0:
329,192,18076,128,0,18573:0:0:0:0:
182,192,18076,1,0,0:0:0:0:
36,192,18408,1,0,0:0:0:0:
256,192,18408,1,0,0:0:0:0:
402,192,18573,128,0,19071:0:0:0:0:
182,192,18573,1,0,0:0:0:0:
182,192,18905,1,0,0:0:0:0:
256,192,19071,1,0,0:0:0:0:
109,192,19153,1,0,0:0:0:0:
182,192,19236,1,0,0:0:0:0:
109,192,19319,1,0,0:0:0:0:
182,192,19402,1,0,0:0:0:0:
475,192,19402,128,0,19899:0:0:0:0:
182,192,19568,1,0,0:0:0:0:
256,192,19734,1,0,0:0:0:0:
182,192,19899,1,0,0:0:0:0:
36,192,19899,128,0,20397:0:0:0:0:
329,192,19982,1,0,0:0:0:0:
182,192,20065,1,0,0:0:0:0:
182,192,20231,1,0,0:0:0:0:
256,192,20397,1,0,0:0:0:0:
182,192,20562,1,0,0:0:0:0:
109,192,20645,1,0,0:0:0:0:
182,192,20728,1,0,0:0:0:0:
475,192,20728,128,0,21225:0:0:0:0:
109,192,20811,1,0,0:0:0:0:
182,192,20894,1,0,0:0:0:0:
256,192,20977,1,0,0:0:0:0:
182,192,21059,1,0,0:0:0:0:
109,192,21142,1,0,0:0:0:0:
182,192,21225,1,0,0:0:0:0:
329,192,21225,128,0,21722:0:0:0:0:
256,192,21308,1,0,0:0:0:0:
182,192,21391,1,0,0:0:0:0:
475,192,21474,1,0,0:0:0:0:
182,192,21557,1,0,0:0:0:0:
475,192,21640,1,0,0:0:0:0:
256,192,21722,1,0,0:0:0:0:
109,192,21722,1,0,0:0:0:0:
475,192,21805,1,0,0:0:0:0:
256,192,21888,1,0,0:0:0:0:
475,192,21971,1,0,0:0:0:0:
256,192,22054,1,0,0:0:0:0:
36,192,22054,1,0,0:0:0:0:
109,192,22385,1,0,0:0:0:0:
402,192,22385,1,0,0:0:0:0:
36,192,22634,1,0,0:0:0:0:
329,192,22717,1,0,0:0:0:0:
475,192,22883,1,0,0:0:0:0:
109,192,23048,1,0,0:0:0:0:
256,192,23048,1,0,0:0:0:0:
402,192,23048,1,0,0:0:0:0:
36,192,23214,1,0,0:0:0:0:
256,192,23380,1,0,0:0:0:0:
402,192,23380,1,0,0:0:0:0:
109,192,23711,1,0,0:0:0:0:
402,192,23711,1,0,0:0:0:0:
256,192,23877,1,0,0:0:0:0:
475,192,23877,1,0,0:0:0:0:
109,192,23877,128,0,24209:0:0:0:0:
36,192,24209,1,0,0:0:0:0:
402,192,24209,1,0,0:0:0:0:
109,192,24374,1,0,0:0:0:0:
256,192,24374,1,0,0:0:0:0:
329,192,24374,1,0,0:0:0:0:
182,192,24540,1,0,0:0:0:0:
182,192,24706,1,0,0:0:0:0:
256,192,24706,1,0,0:0:0:0:
475,192,24706,1,0,0:0:0:0:
109,192,24872,1,0,0:0:0:0:
256,192,25037,1,0,0:0:0:0:
402,192,25037,1,0,0:0:0:0:
182,192,25203,1,0,0:0:0:0:
256,192,25203,1,0,0:0:0:0:
329,192,25203,1,0,0:0:0:0:
36,192,25286,1,0,0:0:0:0:
402,192,25535,1,0,0:0:0:0:
36,192,25700,1,0,0:0:0:0:
256,192,25700,1,0,0:0:0:0:
329,192,25700,1,0,0:0:0:0:
109,192,25866,1,0,0:0:0:0:
256,192,26032,1,0,0:0:0:0:
329,192,26032,1,0,0:0:0:0:
402,192,26115,1,0,0:0:0:0:
475,192,26198,1,0,0:0:0:0:
329,192,26280,1,0,0:0:0:0:
402,192,26363,1,0,0:0:0:0:
475,192,26446,1,0,0:0:0:0:
256,192,26529,1,0,0:0:0:0:
36,192,26529,1,0,0:0:0:0:
109,192,26612,1,0,0:0:0:0:
182,192,26695,1,0,0:0:0:0:
402,192,26695,128,0,26861:0:0:0:0:
182,192,26861,1,0,0:0:0:0:
256,192,27026,1,0,0:0:0:0:
402,192,27026,1,0,0:0:0:0:
475,192,27109,1,0,0:0:0:0:
402,192,27192,1,0,0:0:0:0:
475,192,27275,1,0,0:0:0:0:
402,192,27358,1,0,0:0:0:0:
182,192,27358,1,0,0:0:0:0:
256,192,27358,128,0,27855:0:0:0:0:
36,192,27689,1,0,0:0:0:0:
475,192,27689,1,0,0:0:0:0:
329,192,27855,128,0,28352:0:0:0:0:
182,192,27938,1,0,0:0:0:0:
402,192,28187,1,0,0:0:0:0:
109,192,28352,1,0,0:0:0:0:
475,192,28352,1,0,0:0:0:0:
109,192,28518,1,0,0:0:0:0:
36,192,28684,1,0,0:0:0:0:
475,192,28684,128,0,29181:0:0:0:0:
329,192,28684,1,0,0:0:0:0:
182,192,29015,1,0,0:0:0:0:
329,192,29015,1,0,0:0:0:0:
109,192,29181,1,0,0:0:0:0:
402,192,29181,128,0,29678:0:0:0:0:
256,192,29181,1,0,0:0:0:0:
182,192,29347,1,0,0:0:0:0:
329,192,29347,1,0,0:0:0:0:
36,192,29513,1,0,0:0:0:0:
256,192,29513,1,0,0:0:0:0:
109,192,29678,1,0,0:0:0:0:
329,192,29678,1,0,0:0:0:0:
182,192,29844,1,0,0:0:0:0:
256,192,30010,128,0,30507:0:0:0:0:
36,192,30010,1,0,0:0:0:0:
109,192,30093,1,0,0:0:0:0:
36,192,30176,1,0,0:0:0:0:
109,192,30258,1,0,0:0:0:0:
36,192,30341,1,0,0:0:0:0:
109,192,30424,1,0,0:0:0:0:
402,192,30507,128,0,31004:0:0:0:0:
36,192,30507,1,0,0:0:0:0:
182,192,30673,1,0,0:0:0:0:
182,192,30838,1,0,0:0:0:0:
329,192,31004,1,0,0:0:0:0:
475,192,31087,1,0,0:0:0:0:
329,192,31170,1,0,0:0:0:0:
475,192,31253,1,0,0:0:0:0:
402,192,31336,1,0,0:0:0:0:
256,192,31336,128,0,31999:0:0:0:0:
109,192,31419,1,0,0:0:0:0:
402,192,31501,1,0,0:0:0:0:
109,192,31584,1,0,0:0:0:0:
402,192,31667,1,0,0:0:0:0:
109,192,31750,1,0,0:0:0:0:
402,192,31833,1,0,0:0:0:0:
109,192,31916,1,0,0:0:0:0:
329,192,31999,1,0,0:0:0:0:
182,192,31999,1,0,0:0:0:0:
36,192,32082,1,0,0:0:0:0:
402,192,32164,1,0,0:0:0:0:
109,192,32247,1,0,0:0:0:0:
475,192,32330,1,0,0:0:0:0:
36,192,32413,1,0,0:0:0:0:
402,192,32496,1,0,0:0:0:0:
109,192,32579,1,0,0:0:0:0:
475,192,32662,128,0,33325:0:0:0:0:
256,192,32662,1,0,0:0:0:0:
182,192,32827,1,0,0:0:0:0:
36,192,32993,1,0,0:0:0:0:
329,192,32993,1,0,0:0:0:0:
256,192,33159,1,0,0:0:0:0:
402,192,33325,128,0,33656:0:0:0:0:
182,192,33325,1,0,0:0:0:0:
109,192,33490,1,0,0:0:0:0:
256,192,33656,1,0,0:0:0:0:
36,192,33656,1,0,0:0:0:0:
182,192,33822,1,0,0:0:0:0:
182,192,33988,128,0,34982:0:0:0:0:
329,192,33988,1,0,0:0:0:0:
475,192,34153,1,0,0:0:0:0:
256,192,34319,1,0,0:0:0:0:
36,192,34319,1,0,0:0:0:0:
402,192,34485,1,0,0:0:0:0:
109,192,34651,1,0,0:0:0:0:
329,192,34816,1,0,0:0:0:0:
402,192,34982,128,0,35314:0:0:0:0:
475,192,34982,1,0,0:0:0:0:
36,192,34982,1,0,0:0:0:0:
329,192,35148,1,0,0:0:0:0:
475,192,35314,128,0,35977:0:0:0:0:
109,192,35314,1,0,0:0:0:0:
256,192,35479,1,0,0:0:0:0:
329,192,35645,1,0,0:0:0:0:
36,192,35645,1,0,0:0:0:0:
256,192,35811,1,0,0:0:0:0:
256,192,35977,128,0,36308:0:0:0:0:
182,192,35977,1,0,0:0:0:0:
402,192,36142,1,0,0:0:0:0:
182,192,36308,1,0,0:0:0:0:
36,192,36308,1,0,0:0:0:0:
109,192,36474,1,0,0:0:0:0:
36,192,36640,128,0,37966:0:0:0:0:
256,192,36640,1,0,0:0:0:0:
182,192,36722,1,0,0:0:0:0:
256,192,36805,1,0,0:0:0:0:
329,192,36888,1,0,0:0:0:0:
402,192,36971,1,0,0:0:0:0:
329,192,37054,1,0,0:0:0:0:
256,192,37137,1,0,0:0:0:0:
182,192,37220,1,0,0:0:0:0:
256,192,37303,1,0,0:0:0:0:
329,192,37385,1,0,0:0:0:0:
402,192,37468,1,0,0:0:0:0:
475,192,37551,1,0,0:0:0:0:
109,192,37634,1,0,0:0:0:0:
182,192,37966,128,0,38629:0:0:0:0:
402,192,37966,1,0,0:0:0:0:
475,192,38131,1,0,0:0:0:0:
402,192,38297,1,0,0:0:0:0:
36,192,38297,1,0,0:0:0:0:
256,192,38463,1,0,0:0:0:0:
109,192,38629,128,0,38960:0:0:0:0:
402,192,38629,1,0,0:0:0:0:
256,192,38794,1,0,0:0:0:0:
36,192,38960,1,0,0:0:0:0:
475,192,38960,1,0,0:0:0:0:
329,192,39126,1,0,0:0:0:0:
36,192,39292,128,0,40286:0:0:0:0:
256,192,39292,1,0,0:0:0:0:
182,192,39457,1,0,0:0:0:0:
329,192,39623,1,0,0:0:0:0:
109,192,39623,1,0,0:0:0:0:
256,192,39789,1,0,0:0:0:0:
402,192,39955,1,0,0:0:0:0:
475,192,40120,1,0,0:0:0:0:
109,192,40286,128,0,40618:0:0:0:0:
402,192,40286,1,0,0:0:0:0:
182,192,40286,1,0,0:0:0:0:
329,192,40452,1,0,0:0:0:0:
256,192,40618,128,0,41280:0:0:0:0:
475,192,40618,1,0,0:0:0:0:
329,192,40783,1,0,0:0:0:0:
36,192,40949,1,0,0:0:0:0:
402,192,40949,1,0,0:0:0:0:
182,192,41115,1,0,0:0:0:0:
329,192,41280,128,0,41943:0:0:0:0:
475,192,41280,1,0,0:0:0:0:
256,192,41446,1,0,0:0:0:0:
36,192,41612,1,0,0:0:0:0:
182,192,41612,1,0,0:0:0:0:
256,192,41778,1,0,0:0:0:0:
402,192,41943,128,0,42606:0:0:0:0:
109,192,41943,1,0,0:0:0:0:
256,192,41943,1,0,0:0:0:0:
36,192,41943,1,0,0:0:0:0:
109,192,42275,1,0,0:0:0:0:
256,192,42275,1,0,0:0:0:0:
36,192,42275,1,0,0:0:0:0:
475,192,42606,128,0,42938:0:0:0:0:
109,192,42606,1,0,0:0:0:0:
256,192,42606,1,0,0:0:0:0:
36,192,42606,1,0,0:0:0:0:
402,192,42938,128,0,43269:0:0:0:0:
109,192,42938,1,0,0:0:0:0:
256,192,42938,1,0,0:0:0:0:
36,192,42938,1,0,0:0:0:0:
475,192,43269,128,0,43932:0:0:0:0:
182,192,43269,1,0,0:0:0:0:
256,192,43435,1,0,0:0:0:0:
329,192,43601,1,0,0:0:0:0:
109,192,43601,1,0,0:0:0:0:
36,192,43767,1,0,0:0:0:0:
329,192,43932,128,0,44264:0:0:0:0:
109,192,43932,1,0,0:0:0:0:
182,192,44098,1,0,0:0:0:0:
256,192,44264,1,0,0:0:0:0:
475,192,44264,1,0,0:0:0:0:
402,192,44430,1,0,0:0:0:0:
182,192,44595,128,0,45258:0:0:0:0:
36,192,44595,1,0,0:0:0:0:
475,192,44761,1,0,0:0:0:0:
36,192,44927,1,0,0:0:0:0:
329,192,44927,1,0,0:0:0:0:
475,192,45093,1,0,0:0:0:0:
109,192,45258,1,0,0:0:0:0:
402,192,45424,1,0,0:0:0:0:
329,192,45590,128,0,45921:0:0:0:0:
109,192,45590,1,0,0:0:0:0:
256,192,45590,1,0,0:0:0:0:
402,192,45756,1,0,0:0:0:0:
109,192,45921,128,0,46584:0:0:0:0:
182,192,45921,1,0,0:0:0:0:
329,192,46087,1,0,0:0:0:0:
402,192,46253,1,0,0:0:0:0:
475,192,46253,1,0,0:0:0:0:
256,192,46419,1,0,0:0:0:0:
36,192,46584,128,0,46916:0:0:0:0:
256,192,46584,1,0,0:0:0:0:
329,192,46750,1,0,0:0:0:0:
109,192,46916,128,0,47247:0:0:0:0:
402,192,46916,1,0,0:0:0:0:
475,192,46916,1,0,0:0:0:0:
256,192,47082,1,0,0:0:0:0:
256,192,47247,128,0,48573:0:0:0:0:
329,192,47247,1,0,0:0:0:0:
402,192,47330,1,0,0:0:0:0:
475,192,47413,1,0,0:0:0:0:
36,192,47496,1,0,0:0:0:0:
109,192,47579,1,0,0:0:0:0:
36,192,47662,1,0,0:0:0:0:
475,192,47745,1,0,0:0:0:0:
402,192,47827,1,0,0:0:0:0:
475,192,47910,1,0,0:0:0:0:
109,192,47993,1,0,0:0:0:0:
182,192,48076,1,0,0:0:0:0:
329,192,48159,1,0,0:0:0:0:
402,192,48242,1,0,0:0:0:0:
329,192,48325,1,0,0:0:0:0:
182,192,48408,1,0,0:0:0:0:
109,192,48490,1,0,0:0:0:0:
36,192,48573,128,0,49236:0:0:0:0:
402,192,48573,1,0,0:0:0:0:
329,192,48739,1,0,0:0:0:0:
182,192,48905,1,0,0:0:0:0:
402,192,48905,1,0,0:0:0:0:
329,192,49071,1,0,0:0:0:0:
256,192,49236,128,0,49568:0:0:0:0:
475,192,49236,1,0,0:0:0:0:
329,192,49402,1,0,0:0:0:0:
329,192,49568,128,0,49899:0:0:0:0:
36,192,49568,1,0,0:0:0:0:
182,192,49568,1,0,0:0:0:0:
256,192,49734,1,0,0:0:0:0:
475,192,49899,128,0,50562:0:0:0:0:
109,192,49899,1,0,0:0:0:0:
256,192,50065,1,0,0:0:0:0:
109,192,50231,1,0,0:0:0:0:
402,192,50231,1,0,0:0:0:0:
182,192,50397,1,0,0:0:0:0:
256,192,50562,128,0,50894:0:0:0:0:
109,192,50562,1,0,0:0:0:0:
402,192,50728,1,0,0:0:0:0:
182,192,50894,128,0,51225:0:0:0:0:
36,192,50894,1,0,0:0:0:0:
329,192,50894,1,0,0:0:0:0:
402,192,51059,1,0,0:0:0:0:
475,192,51225,128,0,51888:0:0:0:0:
36,192,51225,1,0,0:0:0:0:
109,192,51308,1,0,0:0:0:0:
182,192,51391,1,0,0:0:0:0:
256,192,51474,1,0,0:0:0:0:
329,192,51557,1,0,0:0:0:0:
256,192,51640,1,0,0:0:0:0:
182,192,51722,1,0,0:0:0:0:
109,192,51805,1,0,0:0:0:0:
402,192,51888,128,0,52220:0:0:0:0:
109,192,51888,1,0,0:0:0:0:
182,192,51971,1,0,0:0:0:0:
256,192,52054,1,0,0:0:0:0:
329,192,52137,1,0,0:0:0:0:
475,192,52220,1,0,0:0:0:0:
329,192,52303,1,0,0:0:0:0:
256,192,52385,1,0,0:0:0:0:
182,192,52468,1,0,0:0:0:0:
36,192,52551,128,0,53214:0:0:0:0:
256,192,52551,1,0,0:0:0:0:
182,192,52634,1,0,0:0:0:0:
256,192,52717,1,0,0:0:0:0:
329,192,52800,1,0,0:0:0:0:
402,192,52883,1,0,0:0:0:0:
329,192,52966,1,0,0:0:0:0:
256,192,53048,1,0,0:0:0:0:
182,192,53131,1,0,0:0:0:0:
109,192,53214,128,0,53546:0:0:0:0:
329,192,53214,1,0,0:0:0:0:
402,192,53214,1,0,0:0:0:0:
329,192,53380,1,0,0:0:0:0:
402,192,53380,1,0,0:0:0:0:
182,192,53546,128,0,53877:0:0:0:0:
329,192,53546,1,0,0:0:0:0:
402,192,53546,1,0,0:0:0:0:
329,192,53711,1,0,0:0:0:0:
402,192,53711,1,0,0:0:0:0:
109,192,53877,1,0,0:0:0:0:
329,192,53877,1,0,0:0:0:0:
182,192,54043,1,0,0:0:0:0:
402,192,54043,1,0,0:0:0:0:
256,192,54209,1,0,0:0:0:0:
475,192,54209,1,0,0:0:0:0:
182,192,54374,1,0,0:0:0:0:
402,192,54374,1,0,0:0:0:0:
475,192,54540,1,0,0:0:0:0:
109,192,54540,1,0,0:0:0:0:
182,192,54623,1,0,0:0:0:0:
402,192,54706,1,0,0:0:0:0:
36,192,54706,1,0,0:0:0:0:
109,192,54789,1,0,0:0:0:0:
329,192,54872,1,0,0:0:0:0:
182,192,54872,1,0,0:0:0:0:
402,192,55037,1,0,0:0:0:0:
182,192,55037,1,0,0:0:0:0:
402,192,55203,1,0,0:0:0:0:
475,192,55286,1,0,0:0:0:0:
329,192,55369,1,0,0:0:0:0:
109,192,55369,1,0,0:0:0:0:
402,192,55452,1,0,0:0:0:0:
36,192,55452,1,0,0:0:0:0:
475,192,55535,1,0,0:0:0:0:
109,192,55535,1,0,0:0:0:0:
36,192,55618,1,0,0:0:0:0:
475,192,55700,1,0,0:0:0:0:
109,192,55700,1,0,0:0:0:0:
36,192,55783,1,0,0:0:0:0:
329,192,55866,1,0,0:0:0:0:
109,192,55866,1,0,0:0:0:0:
36,192,55949,1,0,0:0:0:0:
475,192,56032,1,0,0:0:0:0:
109,192,56032,1,0,0:0:0:0:
402,192,56198,1,0,0:0:0:0:
109,192,56198,1,0,0:0:0:0:
182,192,56198,1,0,0:0:0:0:
475,192,56363,1,0,0:0:0:0:
109,192,56363,1,0,0:0:0:0:
182,192,56363,1,0,0:0:0:0:
109,192,56529,1,0,0:0:0:0:
182,192,56529,1,0,0:0:0:0:
256,192,56529,1,0,0:0:0:0:
329,192,56612,1,0,0:0:0:0:
402,192,56695,1,0,0:0:0:0:
475,192,56778,1,0,0:0:0:0:
256,192,56861,1,0,0:0:0:0:
36,192,56943,1,0,0:0:0:0:
109,192,57026,1,0,0:0:0:0:
182,192,57109,1,0,0:0:0:0:
256,192,57192,1,0,0:0:0:0:
329,192,57275,1,0,0:0:0:0:
402,192,57358,1,0,0:0:0:0:
475,192,57441,1,0,0:0:0:0:
256,192,57524,1,0,0:0:0:0:
36,192,57524,1,0,0:0:0:0:
329,192,57606,1,0,0:0:0:0:
109,192,57606,1,0,0:0:0:0:
402,192,57689,1,0,0:0:0:0:
182,192,57689,1,0,0:0:0:0:
475,192,57772,1,0,0:0:0:0:
256,192,57772,1,0,0:0:0:0:
256,192,57855,1,0,0:0:0:0:
329,192,57855,1,0,0:0:0:0:
402,192,57855,1,0,0:0:0:0:
475,192,57855,1,0,0:0:0:0:
402,192,58021,128,0,58187:0:0:0:0:
256,192,58187,128,0,58352:0:0:0:0:
109,192,58352,128,0,58518:0:0:0:0:
182,192,58518,128,0,58684:0:0:0:0:
256,192,58684,128,0,58850:0:0:0:0:
329,192,58850,128,0,59015:0:0:0:0:
402,192,59015,128,0,59181:0:0:0:0:
109,192,59181,1,0,0:0:0:0:
256,192,59181,1,0,0:0:0:0:
475,192,59181,1,0,0:0:0:0:
36,192,59513,1,0,0:0:0:0:
329,192,59513,1,0,0:0:0:0:
475,192,59513,1,0,0:0:0:0:
256,192,59678,1,0,0:0:0:0:
329,192,59844,1,0,0:0:0:0:
109,192,59844,128,0,60176:0:0:0:0:
402,192,60010,1,0,0:0:0:0:
329,192,60176,1,0,0:0:0:0:
475,192,60176,1,0,0:0:0:0:
36,192,60507,128,0,60838:0:0:0:0:
109,192,60507,1,0,0:0:0:0:
256,192,60507,1,0,0:0:0:0:
182,192,60673,1,0,0:0:0:0:
475,192,60838,1,0,0:0:0:0:
256,192,60838,1,0,0:0:0:0:
402,192,61004,1,0,0:0:0:0:
109,192,61170,128,0,61501:0:0:0:0:
475,192,61170,1,0,0:0:0:0:
329,192,61170,1,0,0:0:0:0:
256,192,61501,1,0,0:0:0:0:
402,192,61501,1,0,0:0:0:0:
182,192,61667,1,0,0:0:0:0:
329,192,61833,128,0,62164:0:0:0:0:
109,192,61833,1,0,0:0:0:0:
256,192,61833,1,0,0:0:0:0:
36,192,61999,1,0,0:0:0:0:
109,192,62164,1,0,0:0:0:0:
475,192,62164,1,0,0:0:0:0:
402,192,62496,128,0,62827:0:0:0:0:
256,192,62496,1,0,0:0:0:0:
182,192,62496,1,0,0:0:0:0:
109,192,62662,1,0,0:0:0:0:
329,192,62827,1,0,0:0:0:0:
256,192,62827,1,0,0:0:0:0:
182,192,62993,1,0,0:0:0:0:
256,192,63159,1,0,0:0:0:0:
475,192,63159,1,0,0:0:0:0:
36,192,63159,1,0,0:0:0:0:
109,192,63242,1,0,0:0:0:0:
36,192,63325,1,0,0:0:0:0:
109,192,63408,1,0,0:0:0:0:
36,192,63490,1,0,0:0:0:0:
402,192,63490,1,0,0:0:0:0:
109,192,63573,1,0,0:0:0:0:
36,192,63656,1,0,0:0:0:0:
329,192,63656,1,0,0:0:0:0:
109,192,63739,1,0,0:0:0:0:
36,192,63822,1,0,0:0:0:0:
402,192,63822,1,0,0:0:0:0:
36,192,63988,1,0,0:0:0:0:
475,192,63988,1,0,0:0:0:0:
182,192,64153,1,0,0:0:0:0:
402,192,64153,1,0,0:0:0:0:
256,192,64236,1,0,0:0:0:0:
329,192,64319,1,0,0:0:0:0:
256,192,64402,1,0,0:0:0:0:
182,192,64485,1,0,0:0:0:0:
36,192,64485,1,0,0:0:0:0:
109,192,64485,1,0,0:0:0:0:
329,192,64816,1,0,0:0:0:0:
109,192,64816,1,0,0:0:0:0:
256,192,64982,1,0,0:0:0:0:
182,192,65148,128,0,65479:0:0:0:0:
36,192,65148,1,0,0:0:0:0:
402,192,65148,1,0,0:0:0:0:
329,192,65314,1,0,0:0:0:0:
109,192,65479,1,0,0:0:0:0:
475,192,65479,1,0,0:0:0:0:
256,192,65811,128,0,66142:0:0:0:0:
329,192,65811,1,0,0:0:0:0:
402,192,65811,1,0,0:0:0:0:
182,192,65977,1,0,0:0:0:0:
36,192,66142,1,0,0:0:0:0:
109,192,66142,1,0,0:0:0:0:
256,192,66308,1,0,0:0:0:0:
329,192,66474,128,0,66805:0:0:0:0:
402,192,66474,1,0,0:0:0:0:
475,192,66474,1,0,0:0:0:0:
256,192,66805,1,0,0:0:0:0:
109,192,66805,1,0,0:0:0:0:
182,192,66971,1,0,0:0:0:0:
256,192,67137,128,0,67468:0:0:0:0:
329,192,67137,1,0,0:0:0:0:
475,192,67137,1,0,0:0:0:0:
402,192,67303,1,0,0:0:0:0:
329,192,67468,1,0,0:0:0:0:
36,192,67468,1,0,0:0:0:0:
256,192,67800,128,0,68131:0:0:0:0:
182,192,67800,1,0,0:0:0:0:
329,192,67800,1,0,0:0:0:0:
109,192,67966,1,0,0:0:0:0:
402,192,67966,1,0,0:0:0:0:
475,192,68131,1,0,0:0:0:0:
36,192,68131,1,0,0:0:0:0:
256,192,68297,1,0,0:0:0:0:
182,192,68463,1,0,0:0:0:0:
329,192,68463,1,0,0:0:0:0:
402,192,68546,1,0,0:0:0:0:
256,192,68629,1,0,0:0:0:0:
402,192,68711,1,0,0:0:0:0:
329,192,68794,1,0,0:0:0:0:
109,192,68794,1,0,0:0:0:0:
475,192,68877,1,0,0:0:0:0:
36,192,68960,1,0,0:0:0:0:
329,192,68960,1,0,0:0:0:0:
402,192,69043,1,0,0:0:0:0:
329,192,69126,1,0,0:0:0:0:
109,192,69126,1,0,0:0:0:0:
402,192,69292,1,0,0:0:0:0:
256,192,69292,1,0,0:0:0:0:
402,192,69457,1,0,0:0:0:0:
109,192,69457,1,0,0:0:0:0:
256,192,69540,1,0,0:0:0:0:
475,192,69623,1,0,0:0:0:0:
329,192,69706,1,0,0:0:0:0:
402,192,69789,1,0,0:0:0:0:
36,192,69789,128,0,70120:0:0:0:0:
256,192,69789,1,0,0:0:0:0:
475,192,70120,128,0,70452:0:0:0:0:
182,192,70120,1,0,0:0:0:0:
329,192,70120,1,0,0:0:0:0:
256,192,70286,1,0,0:0:0:0:
36,192,70452,128,0,70783:0:0:0:0:
109,192,70452,1,0,0:0:0:0:
329,192,70452,1,0,0:0:0:0:
256,192,70618,1,0,0:0:0:0:
109,192,70783,128,0,71115:0:0:0:0:
256,192,70783,1,0,0:0:0:0:
182,192,70783,1,0,0:0:0:0:
36,192,71115,128,0,71446:0:0:0:0:
329,192,71115,1,0,0:0:0:0:
475,192,71115,1,0,0:0:0:0:
402,192,71280,1,0,0:0:0:0:
475,192,71446,128,0,71778:0:0:0:0:
256,192,71446,1,0,0:0:0:0:
329,192,71446,1,0,0:0:0:0:
329,192,71612,1,0,0:0:0:0:
36,192,71778,128,0,72109:0:0:0:0:
329,192,71778,1,0,0:0:0:0:
402,192,71778,1,0,0:0:0:0:
109,192,72109,128,0,72441:0:0:0:0:
182,192,72109,1,0,0:0:0:0:
402,192,72109,1,0,0:0:0:0:
329,192,72275,1,0,0:0:0:0:
475,192,72441,128,0,72772:0:0:0:0:
182,192,72441,1,0,0:0:0:0:
36,192,72441,1,0,0:0:0:0:
256,192,72606,1,0,0:0:0:0:
402,192,72772,128,0,73104:0:0:0:0:
109,192,72772,1,0,0:0:0:0:
182,192,72772,1,0,0:0:0:0:
475,192,73104,128,0,73435:0:0:0:0:
256,192,73104,1,0,0:0:0:0:
329,192,73104,1,0,0:0:0:0:
182,192,73269,1,0,0:0:0:0:
402,192,73435,128,0,73767:0:0:0:0:
109,192,73435,1,0,0:0:0:0:
182,192,73435,1,0,0:0:0:0:
182,192,73601,1,0,0:0:0:0:
36,192,73767,128,0,74098:0:0:0:0:
182,192,73767,1,0,0:0:0:0:
329,192,73767,1,0,0:0:0:0:
256,192,73850,1,0,0:0:0:0:
329,192,73932,1,0,0:0:0:0:
475,192,74098,128,0,74430:0:0:0:0:
109,192,74098,1,0,0:0:0:0:
402,192,74264,1,0,0:0:0:0:
36,192,74430,128,0,74761:0:0:0:0:
109,192,74430,1,0,0:0:0:0:
402,192,74595,1,0,0:0:0:0:
182,192,74761,1,0,0:0:0:0:
256,192,74761,1,0,0:0:0:0:
329,192,74844,1,0,0:0:0:0:
402,192,74927,1,0,0:0:0:0:
475,192,75010,1,0,0:0:0:0:
36,192,75093,128,0,75424:0:0:0:0:
182,192,75093,1,0,0:0:0:0:
109,192,75093,1,0,0:0:0:0:
256,192,75424,128,0,75756:0:0:0:0:
329,192,75424,1,0,0:0:0:0:
475,192,75424,1,0,0:0:0:0:
329,192,75590,1,0,0:0:0:0:
36,192,75756,128,0,76087:0:0:0:0:
182,192,75756,1,0,0:0:0:0:
109,192,75756,1,0,0:0:0:0:
256,192,75921,1,0,0:0:0:0:
256,192,76087,128,0,76419:0:0:0:0:
402,192,76087,1,0,0:0:0:0:
182,192,76087,1,0,0:0:0:0:
475,192,76419,128,0,76750:0:0:0:0:
109,192,76419,1,0,0:0:0:0:
329,192,76419,1,0,0:0:0:0:
182,192,76584,1,0,0:0:0:0:
256,192,76750,128,0,77082:0:0:0:0:
36,192,76750,1,0,0:0:0:0:
182,192,76750,1,0,0:0:0:0:
109,192,76916,1,0,0:0:0:0:
475,192,77082,128,0,77413:0:0:0:0:
329,192,77082,1,0,0:0:0:0:
256,192,77413,128,0,77745:0:0:0:0:
182,192,77413,1,0,0:0:0:0:
329,192,77579,1,0,0:0:0:0:
182,192,77745,128,0,78076:0:0:0:0:
109,192,77745,1,0,0:0:0:0:
402,192,77745,1,0,0:0:0:0:
329,192,77910,1,0,0:0:0:0:
256,192,78076,128,0,78408:0:0:0:0:
402,192,78076,1,0,0:0:0:0:
475,192,78076,1,0,0:0:0:0:
329,192,78408,128,0,78739:0:0:0:0:
36,192,78408,1,0,0:0:0:0:
109,192,78408,1,0,0:0:0:0:
182,192,78573,1,0,0:0:0:0:
256,192,78739,128,0,79071:0:0:0:0:
109,192,78739,1,0,0:0:0:0:
402,192,78739,1,0,0:0:0:0:
329,192,78905,1,0,0:0:0:0:
109,192,79071,128,0,79402:0:0:0:0:
402,192,79071,1,0,0:0:0:0:
475,192,79071,1,0,0:0:0:0:
402,192,79402,128,0,79734:0:0:0:0:
256,192,79402,1,0,0:0:0:0:
329,192,79568,1,0,0:0:0:0:
182,192,79734,128,0,80065:0:0:0:0:
256,192,79734,1,0,0:0:0:0:
329,192,79899,1,0,0:0:0:0:
329,192,80065,128,0,80397:0:0:0:0:
256,192,80065,1,0,0:0:0:0:
36,192,80397,1,0,0:0:0:0:
256,192,80397,1,0,0:0:0:0:
329,192,80562,1,0,0:0:0:0:
36,192,80728,1,0,0:0:0:0:
402,192,80728,1,0,0:0:0:0:
182,192,80894,1,0,0:0:0:0:
475,192,80894,1,0,0:0:0:0:
109,192,80977,1,0,0:0:0:0:
36,192,81059,1,0,0:0:0:0:
329,192,81059,1,0,0:0:0:0:
256,192,81225,1,0,0:0:0:0:
182,192,81391,1,0,0:0:0:0:
402,192,81391,1,0,0:0:0:0:
256,192,81557,1,0,0:0:0:0:
475,192,81557,1,0,0:0:0:0:
182,192,81722,128,0,83048:0:0:0:0:
402,192,81888,128,0,83048:0:0:0:0:
256,192,82054,128,0,83048:0:0:0:0:
109,192,82220,128,0,83048:0:0:0:0:
329,192,82385,128,0,83048:0:0:0:0:
475,192,82551,1,0,0:0:0:0:
36,192,82717,1,0,0:0:0:0:
475,192,82883,1,0,0:0:0:0:
475,192,83048,128,0,83711:0:0:0:0:
36,192,83048,128,0,83711:0:0:0:0:
256,192,83214,1,0,0:0:0:0:
182,192,83380,1,0,0:0:0:0:
256,192,83546,1,0,0:0:0:0:
109,192,83711,128,0,84043:0:0:0:0:
402,192,83711,128,0,84043:0:0:0:0:
329,192,83877,1,0,0:0:0:0:
329,192,84043,128,0,84374:0:0:0:0:
36,192,84043,128,0,84374:0:0:0:0:
182,192,84043,1,0,0:0:0:0:
475,192,84209,1,0,0:0:0:0:
109,192,84374,128,0,85369:0:0:0:0:
402,192,84374,128,0,85369:0:0:0:0:
182,192,84540,1,0,0:0:0:0:
475,192,84706,1,0,0:0:0:0:
256,192,84872,1,0,0:0:0:0:
36,192,85203,1,0,0:0:0:0:
475,192,85369,128,0,85700:0:0:0:0:
182,192,85369,1,0,0:0:0:0:
36,192,85535,1,0,0:0:0:0:
256,192,85700,128,0,86032:0:0:0:0:
109,192,85700,1,0,0:0:0:0:
182,192,85866,1,0,0:0:0:0:
329,192,86032,128,0,86363:0:0:0:0:
475,192,86032,1,0,0:0:0:0:
182,192,86198,1,0,0:0:0:0:
182,192,86363,128,0,86695:0:0:0:0:
475,192,86363,1,0,0:0:0:0:
402,192,86529,1,0,0:0:0:0:
256,192,86695,128,0,87026:0:0:0:0:
109,192,86695,1,0,0:0:0:0:
402,192,86861,1,0,0:0:0:0:
329,192,87026,128,0,88352:0:0:0:0:
36,192,87026,1,0,0:0:0:0:
109,192,87109,1,0,0:0:0:0:
182,192,87192,1,0,0:0:0:0:
256,192,87275,1,0,0:0:0:0:
475,192,87358,1,0,0:0:0:0:
402,192,87441,1,0,0:0:0:0:
256,192,87524,1,0,0:0:0:0:
182,192,87606,1,0,0:0:0:0:
109,192,87689,1,0,0:0:0:0:
182,192,87772,1,0,0:0:0:0:
256,192,87855,1,0,0:0:0:0:
402,192,87938,1,0,0:0:0:0:
475,192,88021,1,0,0:0:0:0:
402,192,88104,1,0,0:0:0:0:
256,192,88187,1,0,0:0:0:0:
182,192,88269,1,0,0:0:0:0:
109,192,88352,128,0,88684:0:0:0:0:
256,192,88684,128,0,89015:0:0:0:0:
182,192,89015,128,0,89347:0:0:0:0:
36,192,89347,128,0,89678:0:0:0:0:
256,192,89678,128,0,90673:0:0:0:0:
475,192,89678,128,0,90673:0:0:0:0:
182,192,90673,128,0,91004:0:0:0:0:
109,192,91004,128,0,91667:0:0:0:0:
402,192,91004,128,0,91667:0:0:0:0:
36,192,91667,128,0,92330:0:0:0:0:
329,192,91667,128,0,92330:0:0:0:0:
256,192,92330,128,0,92993:0:0:0:0:
475,192,92993,128,0,93325:0:0:0:0:
402,192,93325,128,0,93656:0:0:0:0:
