osu file format v12

[General]
AudioFilename: Mynarco.mp3
AudioLeadIn: 0
PreviewTime: 31293
Countdown: 0
SampleSet: Soft
StackLeniency: 0.7
Mode: 0
LetterboxInBreaks: 1
EpilepsyWarning: 1
WidescreenStoryboard: 1

[Editor]
Bookmarks: 11381,32596,36680,43203,53810,59113,82981,93588
DistanceSpacing: 1
BeatDivisor: 2
GridSize: 16

[Metadata]
Title:Mynarco
TitleUnicode:Mynarco
Artist:positive MAD-crew
ArtistUnicode:positive MAD-crew
Creator:Anchor
Version:EXTREME
Source:pop'n music Sunny Park
Tags:nia jubeat saucer Konami MakkuruP DRUM'N COREDUST
BeatmapID:356469
BeatmapSetID:143215

[Difficulty]
HPDrainRate:5
CircleSize:3
OverallDifficulty:6
ApproachRate:6
SliderMultiplier:1.5
SliderTickRate:1

[Events]
//Background and Video events
0,0,"BG_Blue.jpg",0,0
//Break Periods
//Storyboard Layer 0 (Background)
//Storyboard Layer 1 (Fail)
//Storyboard Layer 2 (Pass)
//Storyboard Layer 3 (Foreground)
//Storyboard Sound Samples
//Background Colour Transformations
3,100,163,162,255

[TimingPoints]
11404,331.491712707182,4,1,0,85,1,0
12066,-100,4,1,0,45,0,0
12564,-100,4,1,0,85,0,0
13392,-100,4,1,0,45,0,0
13890,-100,4,1,0,85,0,0
15216,-100,4,1,0,58,0,0
16542,-100,4,1,0,85,0,0
17370,-100,4,1,0,45,0,0
17868,-100,4,1,0,85,0,0
18696,-100,4,1,0,45,0,0
19194,-100,4,1,0,85,0,0
20520,-100,4,1,0,100,0,0
21845,-100,4,1,0,85,0,0
25823,-100,4,1,0,55,0,0
27149,-100,4,1,0,85,0,0
28144,-100,4,1,0,45,0,0
28475,-100,4,1,0,85,0,0
29470,-100,4,1,0,45,0,0
29801,-100,4,1,0,85,0,0
31127,-100,4,1,0,63,0,0
31956,-100,4,1,0,90,0,0
32619,-100,4,2,0,100,0,1
36431,-100,4,2,0,70,0,1
37757,-100,4,2,0,100,0,1
41735,-100,4,2,0,70,0,1
42564,-100,4,2,0,75,0,1
42895,-100,4,2,0,100,0,1
43226,-100,4,2,0,100,0,0
43227,-100,4,2,0,100,0,1
49774,-100,4,2,0,70,0,1
51017,-100,4,2,0,50,0,1
51100,-100,4,2,0,100,0,1
52426,-100,4,2,0,85,0,1
53089,-100,4,2,0,75,0,1
53337,-100,4,2,0,85,0,1
53834,-100,4,2,0,100,0,0
59138,-100,4,2,0,78,0,0
63531,-100,4,2,0,85,0,0
64028,-100,4,2,0,50,0,0
64276,-100,4,2,0,78,0,0
68752,-100,4,2,0,55,0,0
68917,-100,4,2,0,65,0,0
69083,-100,4,2,0,78,0,0
69249,-100,4,2,0,100,0,0
69415,-100,4,2,0,55,0,0
69580,-100,4,2,0,78,0,0
83006,-100,4,2,0,100,0,1
92287,-100,4,2,0,70,0,1
93612,-100,4,2,0,100,0,0
93613,-100,4,2,0,100,0,1
102066,-100,4,2,0,90,0,1
102729,-100,4,2,0,80,0,1
103392,-100,4,2,0,55,0,1
104221,-100,4,2,0,100,0,0

[Colours]
Combo1 : 240,230,98
Combo2 : 41,101,199
Combo3 : 153,249,249
Combo4 : 245,33,38
Combo5 : 112,33,56
Combo6 : 240,240,240
Combo7 : 143,143,143
Combo8 : 73,249,43

[HitObjects]
256,288,32598,1,0,0:0:0:0:
256,288,32619,1,0,0:0:0:0:
248,288,32680,1,0,0:0:0:0:
263,288,32701,1,0,0:0:0:0:
240,288,32763,1,0,0:0:0:0:
271,288,32784,1,0,0:0:0:0:
232,288,32846,1,0,0:0:0:0:
279,288,32867,1,0,0:0:0:0:
224,289,32929,1,0,0:0:0:0:
287,289,32950,1,0,0:0:0:0:
216,289,33012,1,0,0:0:0:0:
295,289,33033,1,0,0:0:0:0:
208,290,33095,1,0,0:0:0:0:
303,290,33116,1,0,0:0:0:0:
201,291,33178,1,0,0:0:0:0:
310,291,33199,1,0,0:0:0:0:
193,292,33260,1,0,0:0:0:0:
318,292,33281,1,0,0:0:0:0:
185,293,33343,1,0,0:0:0:0:
326,293,33364,1,0,0:0:0:0:
177,294,33426,1,0,0:0:0:0:
334,294,33447,1,0,0:0:0:0:
169,295,33509,1,0,0:0:0:0:
342,295,33530,1,0,0:0:0:0:
162,297,33592,1,0,0:0:0:0:
349,297,33613,1,0,0:0:0:0:
154,298,33675,1,0,0:0:0:0:
357,298,33696,1,0,0:0:0:0:
146,300,33758,1,0,0:0:0:0:
365,300,33779,1,0,0:0:0:0:
139,301,33841,1,0,0:0:0:0:
372,301,33862,1,0,0:0:0:0:
131,303,33923,1,0,0:0:0:0:
380,303,33944,1,0,0:0:0:0:
123,305,34006,1,0,0:0:0:0:
388,305,34027,1,0,0:0:0:0:
116,307,34089,1,0,0:0:0:0:
395,307,34110,1,0,0:0:0:0:
108,309,34172,1,0,0:0:0:0:
403,309,34193,1,0,0:0:0:0:
101,312,34255,1,0,0:0:0:0:
410,312,34276,1,0,0:0:0:0:
93,314,34338,1,0,0:0:0:0:
418,314,34359,1,0,0:0:0:0:
86,317,34421,1,0,0:0:0:0:
425,317,34442,1,0,0:0:0:0:
79,320,34504,1,0,0:0:0:0:
432,320,34525,1,0,0:0:0:0:
72,324,34586,1,0,0:0:0:0:
439,324,34607,1,0,0:0:0:0:
65,328,34669,1,0,0:0:0:0:
446,328,34690,1,0,0:0:0:0:
60,334,34752,1,0,0:0:0:0:
451,334,34773,1,0,0:0:0:0:
62,341,34835,1,0,0:0:0:0:
449,341,34856,1,0,0:0:0:0:
69,346,34918,1,0,0:0:0:0:
442,346,34939,1,0,0:0:0:0:
76,349,35001,1,0,0:0:0:0:
435,349,35022,1,0,0:0:0:0:
83,351,35084,1,0,0:0:0:0:
428,351,35105,1,0,0:0:0:0:
91,353,35167,1,0,0:0:0:0:
420,353,35188,1,0,0:0:0:0:
99,354,35249,1,0,0:0:0:0:
412,354,35270,1,0,0:0:0:0:
106,356,35332,1,0,0:0:0:0:
405,356,35353,1,0,0:0:0:0:
114,357,35415,1,0,0:0:0:0:
397,357,35436,1,0,0:0:0:0:
122,358,35498,1,0,0:0:0:0:
389,358,35519,1,0,0:0:0:0:
130,359,35581,1,0,0:0:0:0:
381,359,35602,1,0,0:0:0:0:
138,360,35664,1,0,0:0:0:0:
373,360,35685,1,0,0:0:0:0:
145,360,35747,1,0,0:0:0:0:
366,360,35768,1,0,0:0:0:0:
153,361,35830,1,0,0:0:0:0:
358,361,35851,1,0,0:0:0:0:
161,361,35912,1,0,0:0:0:0:
350,361,35933,1,0,0:0:0:0:
169,362,35995,1,0,0:0:0:0:
342,362,36016,1,0,0:0:0:0:
177,362,36078,1,0,0:0:0:0:
334,362,36099,1,0,0:0:0:0:
185,363,36161,1,0,0:0:0:0:
326,363,36182,1,0,0:0:0:0:
193,363,36244,1,0,0:0:0:0:
318,363,36265,1,0,0:0:0:0:
200,364,36327,1,0,0:0:0:0:
311,364,36348,1,0,0:0:0:0:
208,364,36410,1,0,0:0:0:0:
303,364,36431,1,0,0:0:0:0:
216,364,36493,1,0,0:0:0:0:
295,364,36514,1,0,0:0:0:0:
224,364,36575,1,0,0:0:0:0:
287,364,36596,1,0,0:0:0:0:
232,364,36658,1,0,0:0:0:0:
279,364,36679,1,0,0:0:0:0:
240,364,36741,1,0,0:0:0:0:
271,364,36762,1,0,0:0:0:0:
248,365,36824,1,0,0:0:0:0:
263,365,36845,1,0,0:0:0:0:
255,365,36907,1,0,0:0:0:0:
256,365,36928,1,0,0:0:0:0:
263,365,36990,1,0,0:0:0:0:
248,365,37011,1,0,0:0:0:0:
271,365,37073,1,0,0:0:0:0:
240,365,37094,1,0,0:0:0:0:
279,364,37156,1,0,0:0:0:0:
232,364,37177,1,0,0:0:0:0:
287,364,37238,1,0,0:0:0:0:
224,364,37259,1,0,0:0:0:0:
295,364,37321,1,0,0:0:0:0:
216,364,37342,1,0,0:0:0:0:
303,364,37404,1,0,0:0:0:0:
208,364,37425,1,0,0:0:0:0:
310,364,37487,1,0,0:0:0:0:
201,364,37508,1,0,0:0:0:0:
318,363,37570,1,0,0:0:0:0:
193,363,37591,1,0,0:0:0:0:
326,363,37653,1,0,0:0:0:0:
185,363,37674,1,0,0:0:0:0:
334,363,37736,1,0,0:0:0:0:
177,363,37757,1,0,0:0:0:0:
342,362,37818,1,0,0:0:0:0:
169,362,37839,1,0,0:0:0:0:
350,362,37901,1,0,0:0:0:0:
161,362,37922,1,0,0:0:0:0:
358,361,37984,1,0,0:0:0:0:
153,361,38005,1,0,0:0:0:0:
365,361,38067,1,0,0:0:0:0:
146,361,38088,1,0,0:0:0:0:
373,360,38150,1,0,0:0:0:0:
138,360,38171,1,0,0:0:0:0:
381,359,38233,1,0,0:0:0:0:
130,359,38254,1,0,0:0:0:0:
389,358,38316,1,0,0:0:0:0:
122,358,38337,1,0,0:0:0:0:
397,357,38399,1,0,0:0:0:0:
114,357,38420,1,0,0:0:0:0:
404,356,38481,1,0,0:0:0:0:
107,356,38502,1,0,0:0:0:0:
412,355,38564,1,0,0:0:0:0:
99,355,38585,1,0,0:0:0:0:
420,353,38647,1,0,0:0:0:0:
91,353,38668,1,0,0:0:0:0:
427,351,38730,1,0,0:0:0:0:
84,351,38751,1,0,0:0:0:0:
435,348,38813,1,0,0:0:0:0:
76,348,38834,1,0,0:0:0:0:
440,343,38896,1,0,0:0:0:0:
71,343,38917,1,0,0:0:0:0:
437,336,38979,1,0,0:0:0:0:
74,336,39000,1,0,0:0:0:0:
431,331,39062,1,0,0:0:0:0:
80,331,39083,1,0,0:0:0:0:
424,328,39144,1,0,0:0:0:0:
87,328,39165,1,0,0:0:0:0:
416,325,39227,1,0,0:0:0:0:
95,325,39248,1,0,0:0:0:0:
409,322,39310,1,0,0:0:0:0:
102,322,39331,1,0,0:0:0:0:
401,320,39393,1,0,0:0:0:0:
110,320,39414,1,0,0:0:0:0:
394,317,39476,1,0,0:0:0:0:
117,317,39497,1,0,0:0:0:0:
386,315,39559,1,0,0:0:0:0:
125,315,39580,1,0,0:0:0:0:
379,313,39642,1,0,0:0:0:0:
132,313,39663,1,0,0:0:0:0:
371,311,39725,1,0,0:0:0:0:
140,311,39746,1,0,0:0:0:0:
364,309,39807,1,0,0:0:0:0:
147,309,39828,1,0,0:0:0:0:
356,307,39890,1,0,0:0:0:0:
155,307,39911,1,0,0:0:0:0:
348,305,39973,1,0,0:0:0:0:
163,305,39994,1,0,0:0:0:0:
341,303,40056,1,0,0:0:0:0:
170,303,40077,1,0,0:0:0:0:
333,301,40139,1,0,0:0:0:0:
178,301,40160,1,0,0:0:0:0:
325,300,40222,1,0,0:0:0:0:
186,300,40243,1,0,0:0:0:0:
318,298,40305,1,0,0:0:0:0:
193,298,40326,1,0,0:0:0:0:
310,296,40388,1,0,0:0:0:0:
201,296,40409,1,0,0:0:0:0:
302,294,40470,1,0,0:0:0:0:
209,294,40491,1,0,0:0:0:0:
295,293,40553,1,0,0:0:0:0:
216,293,40574,1,0,0:0:0:0:
287,291,40636,1,0,0:0:0:0:
224,291,40657,1,0,0:0:0:0:
279,289,40719,1,0,0:0:0:0:
232,289,40740,1,0,0:0:0:0:
272,288,40802,1,0,0:0:0:0:
239,288,40823,1,0,0:0:0:0:
256,288,40844,1,0,0:0:0:0:
256,282,40926,1,0,0:0:0:0:
256,276,41009,1,0,0:0:0:0:
256,271,41092,1,0,0:0:0:0:
256,265,41175,1,0,0:0:0:0:
256,260,41258,1,0,0:0:0:0:
256,254,41341,1,0,0:0:0:0:
256,249,41424,1,0,0:0:0:0:
256,243,41506,1,0,0:0:0:0:
256,238,41589,1,0,0:0:0:0:
256,232,41672,1,0,0:0:0:0:
256,226,41755,1,0,0:0:0:0:
256,221,41838,1,0,0:0:0:0:
256,215,41921,1,0,0:0:0:0:
256,210,42004,1,0,0:0:0:0:
256,204,42087,1,0,0:0:0:0:
256,199,42169,1,0,0:0:0:0:
256,193,42252,1,0,0:0:0:0:
256,188,42335,1,0,0:0:0:0:
256,182,42418,1,0,0:0:0:0:
256,177,42501,1,0,0:0:0:0:
256,171,42584,1,0,0:0:0:0:
256,165,42667,1,0,0:0:0:0:
256,160,42750,1,0,0:0:0:0:
256,154,42832,1,0,0:0:0:0:
256,149,42915,1,0,0:0:0:0:
256,143,42998,1,0,0:0:0:0:
256,138,43081,1,0,0:0:0:0:
256,132,43164,1,0,0:0:0:0:
256,127,43247,1,0,0:0:0:0:
256,121,43330,1,0,0:0:0:0:
256,115,43413,1,0,0:0:0:0:
256,110,43495,1,0,0:0:0:0:
256,104,43578,1,0,0:0:0:0:
256,99,43661,1,0,0:0:0:0:
256,93,43744,1,0,0:0:0:0:
256,88,43827,1,0,0:0:0:0:
256,82,43910,1,0,0:0:0:0:
256,77,43993,1,0,0:0:0:0:
256,71,44076,1,0,0:0:0:0:
256,66,44158,1,0,0:0:0:0:
256,60,44241,1,0,0:0:0:0:
256,54,44324,1,0,0:0:0:0:
256,49,44407,1,0,0:0:0:0:
256,43,44490,1,0,0:0:0:0:
256,38,44573,1,0,0:0:0:0:
256,32,44656,1,0,0:0:0:0:
256,27,44739,1,0,0:0:0:0:
256,21,44821,1,0,0:0:0:0:
256,16,44904,1,0,0:0:0:0:
288,16,44926,5,0,0:0:0:0:
256,16,44946,5,0,0:0:0:0:
272,16,44967,5,0,0:0:0:0:
272,16,44988,5,0,0:0:0:0:
281,20,45008,1,0,0:0:0:0:
263,20,45028,1,0,0:0:0:0:
269,22,45049,1,0,0:0:0:0:
275,23,45070,1,0,0:0:0:0:
275,25,45091,1,0,0:0:0:0:
270,24,45111,1,0,0:0:0:0:
266,29,45132,1,0,0:0:0:0:
278,30,45153,1,0,0:0:0:0:
268,30,45174,1,0,0:0:0:0:
277,29,45194,1,0,0:0:0:0:
263,36,45215,1,0,0:0:0:0:
281,37,45236,1,0,0:0:0:0:
262,35,45257,1,0,0:0:0:0:
284,33,45277,1,0,0:0:0:0:
261,43,45298,1,0,0:0:0:0:
285,44,45319,1,0,0:0:0:0:
255,40,45340,1,0,0:0:0:0:
291,38,45360,1,0,0:0:0:0:
258,50,45381,1,0,0:0:0:0:
288,51,45402,1,0,0:0:0:0:
249,45,45423,1,0,0:0:0:0:
298,42,45443,1,0,0:0:0:0:
255,57,45464,1,0,0:0:0:0:
291,58,45485,1,0,0:0:0:0:
242,49,45506,1,0,0:0:0:0:
306,46,45526,1,0,0:0:0:0:
253,64,45547,1,0,0:0:0:0:
294,65,45568,1,0,0:0:0:0:
236,54,45588,1,0,0:0:0:0:
313,51,45608,1,0,0:0:0:0:
250,71,45629,1,0,0:0:0:0:
298,72,45650,1,0,0:0:0:0:
229,59,45671,1,0,0:0:0:0:
320,55,45691,1,0,0:0:0:0:
247,78,45712,1,0,0:0:0:0:
301,79,45733,1,0,0:0:0:0:
223,64,45754,1,0,0:0:0:0:
327,60,45774,1,0,0:0:0:0:
245,85,45795,1,0,0:0:0:0:
304,86,45816,1,0,0:0:0:0:
216,69,45837,1,0,0:0:0:0:
334,64,45857,1,0,0:0:0:0:
242,92,45878,1,0,0:0:0:0:
307,93,45899,1,0,0:0:0:0:
210,74,45920,1,0,0:0:0:0:
341,68,45940,1,0,0:0:0:0:
239,99,45961,1,0,0:0:0:0:
311,100,45982,1,0,0:0:0:0:
203,79,46003,1,0,0:0:0:0:
349,73,46023,1,0,0:0:0:0:
237,106,46044,1,0,0:0:0:0:
314,107,46065,1,0,0:0:0:0:
197,83,46086,1,0,0:0:0:0:
356,77,46106,1,0,0:0:0:0:
234,113,46127,1,0,0:0:0:0:
317,114,46148,1,0,0:0:0:0:
191,88,46169,1,0,0:0:0:0:
363,82,46189,1,0,0:0:0:0:
231,120,46210,1,0,0:0:0:0:
320,121,46231,1,0,0:0:0:0:
184,93,46251,1,0,0:0:0:0:
370,86,46271,1,0,0:0:0:0:
229,127,46292,1,0,0:0:0:0:
324,128,46313,1,0,0:0:0:0:
178,98,46334,1,0,0:0:0:0:
377,90,46354,1,0,0:0:0:0:
226,133,46375,1,0,0:0:0:0:
327,135,46396,1,0,0:0:0:0:
171,103,46417,1,0,0:0:0:0:
384,95,46437,1,0,0:0:0:0:
223,140,46458,1,0,0:0:0:0:
330,142,46479,1,0,0:0:0:0:
165,108,46500,1,0,0:0:0:0:
392,99,46520,1,0,0:0:0:0:
221,147,46541,1,0,0:0:0:0:
333,149,46562,1,0,0:0:0:0:
158,112,46583,1,0,0:0:0:0:
399,104,46603,1,0,0:0:0:0:
218,154,46624,1,0,0:0:0:0:
337,156,46645,1,0,0:0:0:0:
152,117,46666,1,0,0:0:0:0:
406,108,46686,1,0,0:0:0:0:
215,161,46707,1,0,0:0:0:0:
340,163,46728,1,0,0:0:0:0:
145,122,46749,1,0,0:0:0:0:
413,112,46769,1,0,0:0:0:0:
213,168,46790,1,0,0:0:0:0:
343,170,46811,1,0,0:0:0:0:
139,127,46832,1,0,0:0:0:0:
420,117,46852,1,0,0:0:0:0:
210,175,46873,1,0,0:0:0:0:
346,178,46894,1,0,0:0:0:0:
132,132,46914,1,0,0:0:0:0:
427,121,46934,1,0,0:0:0:0:
207,182,46955,1,0,0:0:0:0:
350,185,46976,1,0,0:0:0:0:
126,137,46997,1,0,0:0:0:0:
434,126,47017,1,0,0:0:0:0:
205,189,47038,1,0,0:0:0:0:
353,192,47059,1,0,0:0:0:0:
119,142,47080,1,0,0:0:0:0:
442,130,47100,1,0,0:0:0:0:
202,196,47121,1,0,0:0:0:0:
356,199,47142,1,0,0:0:0:0:
113,146,47163,1,0,0:0:0:0:
449,134,47183,1,0,0:0:0:0:
199,203,47204,1,0,0:0:0:0:
359,206,47225,1,0,0:0:0:0:
106,151,47246,1,0,0:0:0:0:
456,139,47266,1,0,0:0:0:0:
197,210,47287,1,0,0:0:0:0:
363,213,47308,1,0,0:0:0:0:
100,156,47329,1,0,0:0:0:0:
463,143,47349,1,0,0:0:0:0:
194,217,47370,1,0,0:0:0:0:
366,220,47391,1,0,0:0:0:0:
512,0,48531,5,0,0:0:0:0:
0,0,48551,5,0,0:0:0:0:
512,4,48613,1,0,0:0:0:0:
0,4,48633,1,0,0:0:0:0:
512,9,48696,1,0,0:0:0:0:
0,9,48716,1,0,0:0:0:0:
512,13,48779,1,0,0:0:0:0:
0,13,48799,1,0,0:0:0:0:
512,18,48862,1,0,0:0:0:0:
0,18,48882,1,0,0:0:0:0:
512,23,48945,1,0,0:0:0:0:
0,23,48965,1,0,0:0:0:0:
512,28,49028,1,0,0:0:0:0:
0,28,49048,1,0,0:0:0:0:
512,33,49111,1,0,0:0:0:0:
0,33,49131,1,0,0:0:0:0:
512,38,49193,1,0,0:0:0:0:
0,38,49213,1,0,0:0:0:0:
512,43,49276,1,0,0:0:0:0:
0,43,49296,1,0,0:0:0:0:
512,48,49359,1,0,0:0:0:0:
0,48,49379,1,0,0:0:0:0:
512,53,49442,1,0,0:0:0:0:
0,53,49462,1,0,0:0:0:0:
512,58,49525,1,0,0:0:0:0:
0,58,49545,1,0,0:0:0:0:
512,63,49608,1,0,0:0:0:0:
0,63,49628,1,0,0:0:0:0:
512,69,49691,1,0,0:0:0:0:
0,69,49711,1,0,0:0:0:0:
512,74,49774,1,0,0:0:0:0:
0,74,49794,1,0,0:0:0:0:
512,79,49856,1,0,0:0:0:0:
0,79,49876,1,0,0:0:0:0:
512,84,49939,1,0,0:0:0:0:
0,84,49959,1,0,0:0:0:0:
512,90,50022,1,0,0:0:0:0:
0,90,50042,1,0,0:0:0:0:
512,95,50105,1,0,0:0:0:0:
0,95,50125,1,0,0:0:0:0:
512,101,50188,1,0,0:0:0:0:
0,101,50208,1,0,0:0:0:0:
512,106,50271,1,0,0:0:0:0:
0,106,50291,1,0,0:0:0:0:
512,111,50354,1,0,0:0:0:0:
0,111,50374,1,0,0:0:0:0:
512,117,50437,1,0,0:0:0:0:
0,117,50457,1,0,0:0:0:0:
512,122,50519,1,0,0:0:0:0:
0,122,50539,1,0,0:0:0:0:
512,127,50602,1,0,0:0:0:0:
0,127,50622,1,0,0:0:0:0:
512,133,50685,1,0,0:0:0:0:
0,133,50705,1,0,0:0:0:0:
512,138,50768,1,0,0:0:0:0:
0,138,50788,1,0,0:0:0:0:
512,144,50851,1,0,0:0:0:0:
0,144,50871,1,0,0:0:0:0:
512,149,50934,1,0,0:0:0:0:
0,149,50954,1,0,0:0:0:0:
512,154,51017,1,0,0:0:0:0:
0,154,51037,1,0,0:0:0:0:
512,160,51100,1,0,0:0:0:0:
0,160,51120,1,0,0:0:0:0:
512,165,51182,1,0,0:0:0:0:
0,165,51202,1,0,0:0:0:0:
512,170,51265,1,0,0:0:0:0:
0,170,51285,1,0,0:0:0:0:
512,175,51348,1,0,0:0:0:0:
0,175,51368,1,0,0:0:0:0:
512,181,51431,1,0,0:0:0:0:
0,181,51451,1,0,0:0:0:0:
512,186,51514,1,0,0:0:0:0:
0,186,51534,1,0,0:0:0:0:
512,191,51597,1,0,0:0:0:0:
0,191,51617,1,0,0:0:0:0:
512,196,51680,1,0,0:0:0:0:
0,196,51700,1,0,0:0:0:0:
512,201,51763,1,0,0:0:0:0:
0,201,51783,1,0,0:0:0:0:
512,206,51845,1,0,0:0:0:0:
0,206,51865,1,0,0:0:0:0:
512,211,51928,1,0,0:0:0:0:
0,211,51948,1,0,0:0:0:0:
512,216,52011,1,0,0:0:0:0:
0,216,52031,1,0,0:0:0:0:
512,220,52094,1,0,0:0:0:0:
0,220,52114,1,0,0:0:0:0:
512,225,52177,1,0,0:0:0:0:
0,225,52197,1,0,0:0:0:0:
512,230,52260,1,0,0:0:0:0:
0,230,52280,1,0,0:0:0:0:
512,234,52343,1,0,0:0:0:0:
0,234,52363,1,0,0:0:0:0:
510,239,52426,1,0,0:0:0:0:
1,239,52446,1,0,0:0:0:0:
507,243,52508,1,0,0:0:0:0:
4,243,52528,1,0,0:0:0:0:
504,248,52591,1,0,0:0:0:0:
7,248,52611,1,0,0:0:0:0:
500,252,52674,1,0,0:0:0:0:
11,252,52694,1,0,0:0:0:0:
497,256,52757,1,0,0:0:0:0:
14,256,52777,1,0,0:0:0:0:
493,260,52840,1,0,0:0:0:0:
18,260,52860,1,0,0:0:0:0:
490,264,52923,1,0,0:0:0:0:
21,264,52943,1,0,0:0:0:0:
486,268,53006,1,0,0:0:0:0:
25,268,53026,1,0,0:0:0:0:
482,272,53089,1,0,0:0:0:0:
29,272,53109,1,0,0:0:0:0:
478,276,53171,1,0,0:0:0:0:
33,276,53191,1,0,0:0:0:0:
474,279,53254,1,0,0:0:0:0:
37,279,53274,1,0,0:0:0:0:
470,283,53337,1,0,0:0:0:0:
41,283,53357,1,0,0:0:0:0:
466,286,53420,1,0,0:0:0:0:
45,286,53440,1,0,0:0:0:0:
462,289,53503,1,0,0:0:0:0:
49,289,53523,1,0,0:0:0:0:
457,293,53586,1,0,0:0:0:0:
54,293,53606,1,0,0:0:0:0:
453,296,53669,1,0,0:0:0:0:
58,296,53689,1,0,0:0:0:0:
449,299,53751,1,0,0:0:0:0:
62,299,53771,1,0,0:0:0:0:
444,302,53834,1,0,0:0:0:0:
67,302,53854,1,0,0:0:0:0:
439,304,53917,1,0,0:0:0:0:
72,304,53937,1,0,0:0:0:0:
435,307,54000,1,0,0:0:0:0:
76,307,54020,1,0,0:0:0:0:
430,310,54083,1,0,0:0:0:0:
81,310,54103,1,0,0:0:0:0:
425,312,54166,1,0,0:0:0:0:
86,312,54186,1,0,0:0:0:0:
420,314,54249,1,0,0:0:0:0:
91,314,54269,1,0,0:0:0:0:
415,316,54332,1,0,0:0:0:0:
96,316,54352,1,0,0:0:0:0:
410,318,54414,1,0,0:0:0:0:
101,318,54434,1,0,0:0:0:0:
405,320,54497,1,0,0:0:0:0:
106,320,54517,1,0,0:0:0:0:
400,322,54580,1,0,0:0:0:0:
111,322,54600,1,0,0:0:0:0:
395,324,54663,1,0,0:0:0:0:
116,324,54683,1,0,0:0:0:0:
390,325,54746,1,0,0:0:0:0:
121,325,54766,1,0,0:0:0:0:
384,327,54829,1,0,0:0:0:0:
127,327,54849,1,0,0:0:0:0:
379,328,54912,1,0,0:0:0:0:
132,328,54932,1,0,0:0:0:0:
374,329,54995,1,0,0:0:0:0:
137,329,55015,1,0,0:0:0:0:
369,330,55077,1,0,0:0:0:0:
142,330,55097,1,0,0:0:0:0:
363,331,55160,1,0,0:0:0:0:
148,331,55180,1,0,0:0:0:0:
358,332,55243,1,0,0:0:0:0:
153,332,55263,1,0,0:0:0:0:
353,332,55326,1,0,0:0:0:0:
158,332,55346,1,0,0:0:0:0:
347,333,55409,1,0,0:0:0:0:
164,333,55429,1,0,0:0:0:0:
342,333,55492,1,0,0:0:0:0:
169,333,55512,1,0,0:0:0:0:
336,333,55575,1,0,0:0:0:0:
175,333,55595,1,0,0:0:0:0:
331,333,55658,1,0,0:0:0:0:
180,333,55678,1,0,0:0:0:0:
326,333,55740,1,0,0:0:0:0:
185,333,55760,1,0,0:0:0:0:
320,333,55823,1,0,0:0:0:0:
191,333,55843,1,0,0:0:0:0:
315,333,55906,1,0,0:0:0:0:
196,333,55926,1,0,0:0:0:0:
309,332,55989,1,0,0:0:0:0:
202,332,56009,1,0,0:0:0:0:
304,332,56072,1,0,0:0:0:0:
207,332,56092,1,0,0:0:0:0:
299,331,56155,1,0,0:0:0:0:
212,331,56175,1,0,0:0:0:0:
293,330,56238,1,0,0:0:0:0:
218,330,56258,1,0,0:0:0:0:
288,329,56321,1,0,0:0:0:0:
223,329,56341,1,0,0:0:0:0:
283,328,56403,1,0,0:0:0:0:
228,328,56423,1,0,0:0:0:0:
278,326,56486,1,0,0:0:0:0:
233,326,56506,1,0,0:0:0:0:
272,325,56569,1,0,0:0:0:0:
239,325,56589,1,0,0:0:0:0:
267,324,56652,1,0,0:0:0:0:
244,324,56672,1,0,0:0:0:0:
262,322,56735,1,0,0:0:0:0:
249,322,56755,1,0,0:0:0:0:
256,320,56797,5,0,0:0:0:0:
256,320,56818,5,0,0:0:0:0:
256,320,56839,5,0,0:0:0:0:
256,320,56859,5,0,0:0:0:0:
258,313,56879,1,0,0:0:0:0:
256,320,56880,5,0,0:0:0:0:
257,312,56900,1,0,0:0:0:0:
256,320,56901,5,0,0:0:0:0:
257,312,56921,1,0,0:0:0:0:
256,312,56941,1,0,0:0:0:0:
256,320,56942,5,0,0:0:0:0:
261,306,56962,1,0,0:0:0:0:
259,305,56983,1,0,0:0:0:0:
254,312,57003,1,0,0:0:0:0:
258,305,57004,1,0,0:0:0:0:
256,304,57024,1,0,0:0:0:0:
264,299,57045,1,0,0:0:0:0:
261,298,57066,1,0,0:0:0:0:
252,305,57086,1,0,0:0:0:0:
259,297,57087,1,0,0:0:0:0:
257,296,57107,1,0,0:0:0:0:
267,292,57128,1,0,0:0:0:0:
263,291,57149,1,0,0:0:0:0:
250,298,57169,1,0,0:0:0:0:
260,290,57170,1,0,0:0:0:0:
257,289,57190,1,0,0:0:0:0:
270,285,57211,1,0,0:0:0:0:
265,284,57232,1,0,0:0:0:0:
248,291,57252,1,0,0:0:0:0:
262,283,57253,1,0,0:0:0:0:
258,281,57273,1,0,0:0:0:0:
273,278,57294,1,0,0:0:0:0:
267,276,57315,1,0,0:0:0:0:
246,284,57335,1,0,0:0:0:0:
263,275,57336,1,0,0:0:0:0:
258,273,57356,1,0,0:0:0:0:
275,271,57377,1,0,0:0:0:0:
269,269,57398,1,0,0:0:0:0:
244,276,57418,1,0,0:0:0:0:
264,268,57419,1,0,0:0:0:0:
258,266,57439,1,0,0:0:0:0:
278,264,57459,1,0,0:0:0:0:
253,266,57460,1,0,0:0:0:0:
271,262,57480,1,0,0:0:0:0:
247,266,57481,1,0,0:0:0:0:
265,261,57501,1,0,0:0:0:0:
259,258,57521,1,0,0:0:0:0:
236,271,57522,1,0,0:0:0:0:
281,257,57542,1,0,0:0:0:0:
273,255,57563,1,0,0:0:0:0:
240,262,57583,1,0,0:0:0:0:
267,253,57584,1,0,0:0:0:0:
259,250,57604,1,0,0:0:0:0:
284,251,57625,1,0,0:0:0:0:
275,248,57646,1,0,0:0:0:0:
238,255,57666,1,0,0:0:0:0:
268,246,57667,1,0,0:0:0:0:
260,243,57687,1,0,0:0:0:0:
287,244,57708,1,0,0:0:0:0:
277,241,57729,1,0,0:0:0:0:
236,248,57749,1,0,0:0:0:0:
269,239,57750,1,0,0:0:0:0:
260,235,57770,1,0,0:0:0:0:
290,237,57791,1,0,0:0:0:0:
279,233,57812,1,0,0:0:0:0:
234,241,57832,1,0,0:0:0:0:
270,231,57833,1,0,0:0:0:0:
260,227,57853,1,0,0:0:0:0:
292,230,57874,1,0,0:0:0:0:
281,226,57895,1,0,0:0:0:0:
232,233,57915,1,0,0:0:0:0:
271,224,57916,1,0,0:0:0:0:
261,220,57936,1,0,0:0:0:0:
295,223,57957,1,0,0:0:0:0:
283,219,57978,1,0,0:0:0:0:
230,226,57998,1,0,0:0:0:0:
273,217,57999,1,0,0:0:0:0:
219,230,58019,1,0,0:0:0:0:
261,212,58019,1,0,0:0:0:0:
250,212,58040,1,0,0:0:0:0:
298,216,58040,1,0,0:0:0:0:
239,213,58061,1,0,0:0:0:0:
285,212,58061,1,0,0:0:0:0:
228,219,58081,1,0,0:0:0:0:
274,209,58082,1,0,0:0:0:0:
216,223,58102,1,0,0:0:0:0:
262,204,58102,1,0,0:0:0:0:
301,209,58122,1,0,0:0:0:0:
249,204,58123,1,0,0:0:0:0:
287,205,58143,1,0,0:0:0:0:
238,206,58144,1,0,0:0:0:0:
226,212,58164,1,0,0:0:0:0:
275,202,58164,1,0,0:0:0:0:
262,197,58184,1,0,0:0:0:0:
213,216,58185,1,0,0:0:0:0:
249,197,58205,1,0,0:0:0:0:
304,202,58205,1,0,0:0:0:0:
236,198,58226,1,0,0:0:0:0:
289,197,58226,1,0,0:0:0:0:
224,205,58246,1,0,0:0:0:0:
276,195,58247,1,0,0:0:0:0:
210,209,58267,1,0,0:0:0:0:
262,189,58267,1,0,0:0:0:0:
249,189,58288,1,0,0:0:0:0:
307,195,58288,1,0,0:0:0:0:
235,190,58309,1,0,0:0:0:0:
291,190,58309,1,0,0:0:0:0:
222,197,58329,1,0,0:0:0:0:
278,187,58330,1,0,0:0:0:0:
207,202,58350,1,0,0:0:0:0:
263,181,58350,1,0,0:0:0:0:
248,181,58371,1,0,0:0:0:0:
309,189,58371,1,0,0:0:0:0:
234,183,58392,1,0,0:0:0:0:
293,183,58392,1,0,0:0:0:0:
220,190,58412,1,0,0:0:0:0:
279,180,58413,1,0,0:0:0:0:
204,195,58433,1,0,0:0:0:0:
263,174,58433,1,0,0:0:0:0:
248,174,58454,1,0,0:0:0:0:
312,182,58454,1,0,0:0:0:0:
233,175,58475,1,0,0:0:0:0:
295,176,58475,1,0,0:0:0:0:
218,183,58495,1,0,0:0:0:0:
280,172,58496,1,0,0:0:0:0:
202,189,58516,1,0,0:0:0:0:
264,166,58516,1,0,0:0:0:0:
247,166,58537,1,0,0:0:0:0:
315,175,58537,1,0,0:0:0:0:
232,168,58558,1,0,0:0:0:0:
297,169,58558,1,0,0:0:0:0:
216,176,58578,1,0,0:0:0:0:
281,165,58579,1,0,0:0:0:0:
199,182,58599,1,0,0:0:0:0:
264,158,58599,1,0,0:0:0:0:
247,158,58620,1,0,0:0:0:0:
318,168,58620,1,0,0:0:0:0:
230,160,58641,1,0,0:0:0:0:
299,162,58641,1,0,0:0:0:0:
214,169,58661,1,0,0:0:0:0:
282,158,58662,1,0,0:0:0:0:
196,175,58682,1,0,0:0:0:0:
264,151,58682,1,0,0:0:0:0:
247,151,58703,1,0,0:0:0:0:
321,161,58703,1,0,0:0:0:0:
229,152,58724,1,0,0:0:0:0:
301,154,58724,1,0,0:0:0:0:
212,162,58744,1,0,0:0:0:0:
284,150,58745,1,0,0:0:0:0:
193,168,58765,1,0,0:0:0:0:
265,143,58765,1,0,0:0:0:0:
324,154,58785,1,0,0:0:0:0:
246,143,58786,1,0,0:0:0:0:
303,147,58806,1,0,0:0:0:0:
228,145,58807,1,0,0:0:0:0:
210,154,58827,1,0,0:0:0:0:
285,143,58827,1,0,0:0:0:0:
265,135,58847,1,0,0:0:0:0:
190,161,58848,1,0,0:0:0:0:
246,135,58868,1,0,0:0:0:0:
326,147,58868,1,0,0:0:0:0:
227,137,58889,1,0,0:0:0:0:
305,140,58889,1,0,0:0:0:0:
208,147,58909,1,0,0:0:0:0:
286,136,58910,1,0,0:0:0:0:
187,154,58930,1,0,0:0:0:0:
266,127,58930,1,0,0:0:0:0:
245,127,58951,1,0,0:0:0:0:
329,140,58951,1,0,0:0:0:0:
226,130,58972,1,0,0:0:0:0:
307,133,58972,1,0,0:0:0:0:
206,140,58992,1,0,0:0:0:0:
287,128,58993,1,0,0:0:0:0:
185,147,59013,1,0,0:0:0:0:
266,120,59013,1,0,0:0:0:0:
245,120,59034,1,0,0:0:0:0:
332,133,59034,1,0,0:0:0:0:
224,122,59055,1,0,0:0:0:0:
309,126,59055,1,0,0:0:0:0:
204,133,59075,1,0,0:0:0:0:
289,121,59076,1,0,0:0:0:0:
182,140,59096,1,0,0:0:0:0:
266,112,59096,1,0,0:0:0:0:
245,112,59117,1,0,0:0:0:0:
335,127,59117,1,0,0:0:0:0:
223,114,59138,1,0,0:0:0:0:
311,118,59138,1,0,0:0:0:0:
202,126,59158,1,0,0:0:0:0:
290,114,59159,1,0,0:0:0:0:
179,133,59179,1,0,0:0:0:0:
267,104,59179,1,0,0:0:0:0:
244,104,59200,1,0,0:0:0:0:
338,120,59200,1,0,0:0:0:0:
222,107,59221,1,0,0:0:0:0:
313,111,59221,1,0,0:0:0:0:
200,118,59241,1,0,0:0:0:0:
291,106,59242,1,0,0:0:0:0:
176,127,59262,1,0,0:0:0:0:
267,97,59262,1,0,0:0:0:0:
244,97,59283,1,0,0:0:0:0:
341,113,59283,1,0,0:0:0:0:
221,99,59304,1,0,0:0:0:0:
315,104,59304,1,0,0:0:0:0:
198,111,59324,1,0,0:0:0:0:
292,99,59325,1,0,0:0:0:0:
173,120,59345,1,0,0:0:0:0:
268,89,59345,1,0,0:0:0:0:
243,89,59366,1,0,0:0:0:0:
343,106,59366,1,0,0:0:0:0:
220,92,59387,1,0,0:0:0:0:
317,97,59387,1,0,0:0:0:0:
196,104,59407,1,0,0:0:0:0:
293,92,59408,1,0,0:0:0:0:
170,113,59428,1,0,0:0:0:0:
268,81,59428,1,0,0:0:0:0:
346,99,59448,1,0,0:0:0:0:
243,81,59449,1,0,0:0:0:0:
319,90,59469,1,0,0:0:0:0:
218,84,59470,1,0,0:0:0:0:
194,97,59490,1,0,0:0:0:0:
295,84,59490,1,0,0:0:0:0:
268,74,59510,1,0,0:0:0:0:
168,106,59511,1,0,0:0:0:0:
243,74,59531,1,0,0:0:0:0:
349,92,59531,1,0,0:0:0:0:
217,76,59552,1,0,0:0:0:0:
321,83,59552,1,0,0:0:0:0:
192,90,59572,1,0,0:0:0:0:
296,77,59573,1,0,0:0:0:0:
165,99,59593,1,0,0:0:0:0:
269,66,59593,1,0,0:0:0:0:
242,66,59614,1,0,0:0:0:0:
352,85,59614,1,0,0:0:0:0:
216,69,59635,1,0,0:0:0:0:
323,75,59635,1,0,0:0:0:0:
190,83,59655,1,0,0:0:0:0:
297,70,59656,1,0,0:0:0:0:
162,92,59676,1,0,0:0:0:0:
269,58,59676,1,0,0:0:0:0:
242,58,59697,1,0,0:0:0:0:
355,78,59697,1,0,0:0:0:0:
215,61,59718,1,0,0:0:0:0:
325,68,59718,1,0,0:0:0:0:
188,75,59738,1,0,0:0:0:0:
298,62,59739,1,0,0:0:0:0:
159,85,59759,1,0,0:0:0:0:
270,51,59759,1,0,0:0:0:0:
241,51,59780,1,0,0:0:0:0:
358,71,59780,1,0,0:0:0:0:
214,54,59801,1,0,0:0:0:0:
327,61,59801,1,0,0:0:0:0:
186,68,59821,1,0,0:0:0:0:
300,55,59822,1,0,0:0:0:0:
156,78,59842,1,0,0:0:0:0:
270,43,59842,1,0,0:0:0:0:
241,43,59863,1,0,0:0:0:0:
360,65,59863,1,0,0:0:0:0:
212,46,59884,1,0,0:0:0:0:
329,54,59884,1,0,0:0:0:0:
184,61,59904,1,0,0:0:0:0:
301,48,59905,1,0,0:0:0:0:
153,71,59925,1,0,0:0:0:0:
270,35,59925,1,0,0:0:0:0:
241,35,59946,1,0,0:0:0:0:
363,58,59946,1,0,0:0:0:0:
211,38,59967,1,0,0:0:0:0:
331,47,59967,1,0,0:0:0:0:
182,54,59987,1,0,0:0:0:0:
302,40,59988,1,0,0:0:0:0:
151,65,60008,1,0,0:0:0:0:
271,28,60008,1,0,0:0:0:0:
240,28,60029,1,0,0:0:0:0:
366,51,60029,1,0,0:0:0:0:
210,31,60050,1,0,0:0:0:0:
333,39,60050,1,0,0:0:0:0:
180,47,60070,1,0,0:0:0:0:
303,33,60071,1,0,0:0:0:0:
148,58,60091,1,0,0:0:0:0:
271,20,60091,1,0,0:0:0:0:
240,20,60112,1,0,0:0:0:0:
209,23,60133,1,0,0:0:0:0:
178,39,60153,1,0,0:0:0:0:
145,51,60174,1,0,0:0:0:0:
