osu file format v12

[General]
AudioFilename: Mynarco.mp3
AudioLeadIn: 0
PreviewTime: 31293
Countdown: 0
SampleSet: Soft
StackLeniency: 0.7
Mode: 0
LetterboxInBreaks: 1
EpilepsyWarning: 1
WidescreenStoryboard: 1

[Editor]
Bookmarks: 11381,32596,43203,53810,59113,82981,93588
DistanceSpacing: 1.3
BeatDivisor: 2
GridSize: 32

[Metadata]
Title:Mynarco
TitleUnicode:Mynarco
Artist:positive MAD-crew
ArtistUnicode:positive MAD-crew
Creator:Anchor
Version:BASIC
Source:pop'n music Sunny Park
Tags:nia jubeat saucer Konami MakkuruP DRUM'N COREDUST
BeatmapID:356356
BeatmapSetID:143215

[Difficulty]
HPDrainRate:4
CircleSize:3
OverallDifficulty:2
ApproachRate:3
SliderMultiplier:0.6
SliderTickRate:1

[Events]
//Background and Video events
0,0,"BG_Blue.jpg",0,0
//Break Periods
2,53703,57698
2,80554,81566
//Storyboard Layer 0 (Background)
//Storyboard Layer 1 (Fail)
//Storyboard Layer 2 (Pass)
//Storyboard Layer 3 (Foreground)
//Storyboard Sound Samples
//Background Colour Transformations
3,100,163,162,255

[TimingPoints]
11404,331.491712707182,4,1,0,85,1,0
12066,-100,4,1,0,45,0,0
12564,-100,4,1,0,85,0,0
13392,-100,4,1,0,45,0,0
13890,-100,4,1,0,85,0,0
15216,-100,4,1,0,58,0,0
16542,-100,4,1,0,85,0,0
17370,-100,4,1,0,45,0,0
17868,-100,4,1,0,85,0,0
18696,-100,4,1,0,45,0,0
19194,-100,4,1,0,85,0,0
20520,-100,4,1,0,100,0,0
21845,-100,4,1,0,85,0,0
25823,-100,4,1,0,55,0,0
27149,-100,4,1,0,85,0,0
28144,-100,4,1,0,45,0,0
28475,-100,4,1,0,85,0,0
29470,-100,4,1,0,45,0,0
29801,-100,4,1,0,85,0,0
31127,-100,4,1,0,63,0,0
31956,-100,4,1,0,90,0,0
32619,-100,4,2,0,100,0,1
36431,-100,4,2,0,70,0,1
37757,-100,4,2,0,100,0,1
41735,-100,4,2,0,70,0,1
42564,-100,4,2,0,75,0,1
42895,-100,4,2,0,100,0,1
43226,-100,4,2,0,100,0,0
43227,-100,4,2,0,100,0,1
49774,-100,4,2,0,70,0,1
51017,-100,4,2,0,50,0,1
51100,-100,4,2,0,100,0,1
52426,-100,4,2,0,85,0,1
53089,-100,4,2,0,75,0,1
53337,-100,4,2,0,85,0,1
53834,-100,4,2,0,100,0,0
59138,-100,4,2,0,78,0,0
63531,-100,4,2,0,85,0,0
64028,-100,4,2,0,50,0,0
64276,-100,4,2,0,78,0,0
68752,-100,4,2,0,55,0,0
68917,-100,4,2,0,65,0,0
69083,-100,4,2,0,78,0,0
69249,-100,4,2,0,100,0,0
69415,-100,4,2,0,55,0,0
69580,-100,4,2,0,78,0,0
83006,-100,4,2,0,100,0,1
92287,-100,4,2,0,70,0,1
93612,-100,4,2,0,100,0,0
93613,-100,4,2,0,100,0,1
102066,-100,4,2,0,90,0,1
102729,-100,4,2,0,80,0,1
103392,-100,4,2,0,55,0,1
104221,-100,4,2,0,40,0,0

[Colours]
Combo1 : 240,230,98
Combo2 : 41,101,199
Combo3 : 153,249,249
Combo4 : 245,33,38
Combo5 : 112,33,56
Combo6 : 240,240,240
Combo7 : 143,143,143
Combo8 : 73,249,43

[HitObjects]
163,94,11403,2,0,P|108:118|95:165,1,90,4|0,0:0|0:0,0:0:0:0:
116,259,12398,1,8,0:0:0:0:
191,277,12729,2,0,P|245:252|258:205,1,90
238,112,13724,1,8,0:0:0:0:
292,56,14055,2,0,P|345:33|382:43,1,90
480,90,15050,1,8,0:0:0:0:
494,166,15381,2,0,P|471:272|417:331,1,180,0|8,0:0|0:0,0:0:0:0:
351,350,16707,6,0,P|295:352|242:328,2,90,4|0|8,0:0|0:0|0:0,0:0:0:0:
425,324,18033,1,0,0:0:0:0:
485,223,18531,2,0,P|499:167|484:114,1,90,0|8,0:0|0:0,0:0:0:0:
463,64,19359,2,0,P|442:24|400:0,2,90,0|0|8,0:0|0:0|0:0,0:0:0:0:
461,142,20685,1,2,0:0:0:0:
347,113,21183,1,2,0:0:0:0:
291,215,21680,1,10,0:0:0:0:
216,237,22011,102,0,P|175:246|141:285,1,90,4|0,0:0|0:0,0:0:0:0:
236,352,23006,1,8,0:0:0:0:
313,353,23337,2,0,B|388:353|388:353|407:318,1,90
453,238,24332,1,8,0:0:0:0:
492,170,24663,2,0,P|475:89|375:39,1,180,0|8,0:0|0:0,0:0:0:0:
320,23,25989,1,0,0:0:0:0:
203,24,26486,2,0,P|185:69|205:104,1,90,0|8,0:0|0:0,0:0:0:0:
275,132,27315,6,0,P|310:110|357:119,2,90,4|0|8,0:0|0:0|0:0,0:0:0:0:
211,177,28641,2,0,P|175:155|128:164,2,90,0|0|8,0:0|0:0|0:0,0:0:0:0:
263,234,29967,2,0,P|262:318|346:348,1,180,0|8,0:0|0:0,0:0:0:0:
419,333,31293,2,0,B|424:324|475:295|476:286,1,60,2|2,0:0|0:0,0:0:0:0:
467,297,31956,2,0,B|467:287|505:243|501:230,1,60,2|2,0:0|0:0,0:0:0:0:
479,170,32619,6,0,P|446:121|387:109,1,120,4|0,0:0|0:0,0:0:0:0:
403,186,33613,1,0,0:0:0:0:
325,200,33945,2,0,P|357:249|415:263,1,120
403,186,34939,1,0,0:0:0:0:
373,113,35271,2,0,P|331:70|251:62,1,120,2|0,0:0|0:0,0:0:0:0:
195,57,36265,1,0,0:0:0:0:
171,131,36597,2,0,B|224:142|290:137|290:137|323:159|339:193,1,180
309,254,37923,6,0,P|276:268|140:252,1,120,4|0,0:0|0:0,0:0:0:0:
116,258,38917,1,0,0:0:0:0:
72,323,39249,2,0,P|35:255|112:180,1,180
161,144,40575,2,0,P|219:134|275:76,1,120,2|2,0:0|0:0,0:0:0:0:
161,223,41901,2,0,P|219:233|275:291,1,120,2|2,0:0|0:0,0:0:0:0:
325,320,42895,1,0,0:0:0:0:
385,369,43227,102,0,P|459:322|497:237,1,180,4|0,0:0|0:0,0:0:0:0:
425,210,44553,2,0,P|386:144|466:76,1,180,0|2,0:0|0:0,0:0:0:0:
409,7,45879,2,0,B|346:15|283:72|283:72,1,120,2|0,0:0|0:0,0:0:0:0:
255,119,46873,1,0,0:0:0:0:
185,155,47205,2,0,P|265:197|332:125,1,180
361,77,48531,6,0,P|414:45|484:63,2,120,4|0|0,0:0|0:0|0:0,0:0:0:0:
261,197,50520,1,0,0:0:0:0:
151,307,51183,2,0,P|98:339|28:321,2,120,0|0|0,0:0|0:0|0:0,0:0:0:0:
261,197,53171,1,0,0:0:0:0:
261,197,53503,1,2,0:0:0:0:
147,201,59138,5,2,0:0:0:0:
83,245,59470,2,0,P|53:268|34:312,2,60,0|0|2,0:0|0:0|0:0,0:0:0:0:
153,279,60464,2,0,P|156:308|169:334,2,60,0|0|2,0:0|0:0|0:0,0:0:0:0:
147,201,61459,1,0,0:0:0:0:
183,132,61790,6,2,P|218:84|277:62,1,120,2|0,0:0|0:0,0:0:0:0:
348,44,62785,1,0,0:0:0:0:
421,70,63116,1,2,0:0:0:0:
467,132,63448,2,0,P|475:165|466:208,2,60,0|2|0,0:0|0:0|0:0,0:0:0:0:
421,70,64442,101,2,0:0:0:0:
370,129,64774,2,0,B|378:141|328:182|336:190,1,60
280,230,65437,1,2,0:0:0:0:
211,267,65768,2,0,P|176:282|138:282,1,60
76,278,66431,1,2,0:0:0:0:
13,231,66763,1,0,0:0:0:0:
18,153,67094,6,2,B|74:131|74:131|124:84,1,120,0|0,0:0|0:0,0:0:0:0:
168,29,68089,1,0,0:0:0:0:
244,43,68420,2,0,P|275:53|302:75,1,60,2|0,0:0|0:0,0:0:0:0:
364,111,69083,1,2,0:0:0:0:
415,169,69415,1,0,0:0:0:0:
467,227,69746,101,2,0:0:0:0:
416,286,70078,2,0,P|367:321|303:319,1,120,0|2,0:0|0:0,0:0:0:0:
343,244,71072,2,0,P|312:193|256:175,1,120,0|2,0:0|0:0,0:0:0:0:
265,258,72066,2,0,P|209:239|178:189,1,120,0|2,0:0|0:0,0:0:0:0:
257,175,73061,2,0,P|226:124|170:106,1,120,0|2,0:0|0:0,0:0:0:0:
179,190,74055,1,0,0:0:0:0:
129,255,74387,2,0,P|138:300|170:326,1,60,2|0,0:0|0:0,0:0:0:0:
256,192,75050,12,4,80354,0:0:0:0:
51,102,83006,86,0,P|86:59|182:83,1,120,4|0,0:0|0:0,0:0:0:0:
123,128,84000,1,0,0:0:0:0:
118,204,84332,2,0,P|88:197|63:173,2,60,0|0|0,0:0|0:0|0:0,0:0:0:0:
194,218,85326,1,0,0:0:0:0:
269,197,85658,2,0,B|270:189|330:174|331:158,1,60,2|2,0:0|0:0,0:0:0:0:
394,198,86321,2,0,B|393:205|445:233|445:245,1,60,2|0,0:0|0:0,0:0:0:0:
512,257,86984,2,0,B|492:324|416:324|382:292|382:292|346:311,1,180
298,259,88310,5,0,0:0:0:0:
228,223,88641,1,2,0:0:0:0:
159,259,88972,1,2,0:0:0:0:
91,297,89304,1,0,0:0:0:0:
37,354,89636,2,0,B|-10:315|14:239|57:222|57:222|38:178,1,180
89,134,90962,2,0,P|127:54|197:45,2,120,2|2|2,0:0|0:0|0:0,0:0:0:0:
124,289,92950,2,0,P|153:304|185:311,1,60
256,322,93613,69,6,0:0:0:0:
386,192,94276,85,2,0:0:0:0:
256,62,94939,5,2,0:0:0:0:
126,192,95602,21,2,0:0:0:0:
165,262,95934,1,0,0:0:0:0:
229,308,96265,2,0,P|286:329|350:288,1,120,2|0,0:0|0:0,0:0:0:0:
336,149,97591,2,0,P|282:125|227:146,1,120
121,260,98917,102,0,P|83:234|72:198,1,60,4|2,0:0|0:0,0:0:0:0:
46,150,99580,1,2,0:0:0:0:
65,74,99911,1,0,0:0:0:0:
126,26,100243,2,0,P|181:8|250:43,1,120
181,87,101238,1,0,0:0:0:0:
256,119,101569,21,2,0:0:0:0:
104,192,102232,69,2,0:0:0:0:
256,265,102895,101,2,0:0:0:0:
408,192,103558,37,0,0:0:0:0:
452,126,103890,2,0,B|454:115|481:86|483:74,1,60
