osu file format v14

[General]
AudioFilename: 02 - cry for the moon.mp3
AudioLeadIn: 0
PreviewTime: 62101
Countdown: 1
SampleSet: None
StackLeniency: 0.7
Mode: 0
LetterboxInBreaks: 1
WidescreenStoryboard: 0

[Editor]
DistanceSpacing: 1
BeatDivisor: 4
GridSize: 8
TimelineZoom: 1

[Metadata]
Title:cry for the moon
TitleUnicode:cry for the moon
Artist:poplica* ft. Mei Ayakura
ArtistUnicode:poplica* ft. 綾倉盟
Creator:happy30
Version:Lunatic
Source:東方Project
Tags:
BeatmapID:700898
BeatmapSetID:314037

[Difficulty]
HPDrainRate:8
CircleSize:4
OverallDifficulty:8
ApproachRate:9
SliderMultiplier:1.8
SliderTickRate:1

[Events]
//Background and Video events
0,0,"backgroundd.jpg",0,0
//Break Periods
//Storyboard Layer 0 (Background)
//Storyboard Layer 1 (Fail)
//Storyboard Layer 2 (Pass)
//Storyboard Layer 3 (Foreground)
//Storyboard Sound Samples

[TimingPoints]
500,337.078651685393,4,2,0,100,1,0
500,-133.333333333333,4,2,0,100,0,0
10865,-100,4,2,0,100,0,0

[Colours]
Combo1 : 215,215,215
Combo2 : 255,0,255
Combo3 : 5,5,240

[HitObjects]
40,200,500,5,0,0:0:0:0:
40,200,668,2,0,P|80:232|112:224,1,67.5000025749208
152,96,1005,2,0,P|120:136|128:168,1,67.5000025749208
272,136,1342,2,0,P|304:96|296:64,1,67.5000025749208
200,192,1679,6,0,L|224:256|248:320,1,135.000005149842
176,368,2185,1,0,0:0:0:0:
392,360,2353,2,0,L|368:296|344:232,1,135.000005149842
400,352,2859,2,0,L|376:288,1,67.5000025749208
472,200,3196,5,0,0:0:0:0:
472,200,3364,2,0,P|432:232|400:224,1,67.5000025749208
360,96,3701,2,0,P|392:136|384:168,1,67.5000025749208
240,136,4038,2,0,P|208:96|216:64,1,67.5000025749208
312,192,4375,6,0,L|288:256|264:320,1,135.000005149842
336,368,4881,1,0,0:0:0:0:
120,360,5049,2,0,L|144:296|168:232,1,135.000005149842
64,64,5556,1,0,1:0:0:0:
64,64,5893,6,0,L|88:152,1,67.5000025749208,0|0,1:0|0:0,0:0:0:0:
264,144,6230,2,0,L|246:78,1,67.5000025749208,0|0,1:0|0:0,0:0:0:0:
48,88,6567,2,0,L|65:153,1,67.5000025749208,0|0,1:0|0:0,0:0:0:0:
24,288,6904,1,0,1:0:0:0:
176,232,7073,6,0,P|256:224|328:256,1,135.000005149842
408,352,7578,1,0,1:0:0:0:
168,232,7747,2,0,P|160:152|192:80,1,135.000005149842
336,104,8252,2,0,P|355:168|345:234,1,135.000005149842,4|0,1:2|1:0,0:0:0:0:
256,48,8758,5,0,1:0:0:0:
256,112,8926,1,0,1:0:0:0:
256,176,9095,1,0,1:0:0:0:
256,240,9264,1,0,1:0:0:0:
256,304,9432,1,0,1:0:0:0:
256,368,9601,1,0,1:0:0:0:
176,264,9769,5,0,1:0:0:0:
352,176,9938,1,0,1:0:0:0:
350,188,10022,1,0,1:0:0:0:
347,198,10106,1,0,1:0:0:0:
352,288,10275,1,0,1:0:0:0:
152,104,10443,1,0,1:0:0:0:
154,116,10527,1,0,1:0:0:0:
157,126,10611,1,0,1:0:0:0:
408,88,10780,1,0,1:0:0:0:
264,200,10949,2,0,P|216:205|152:232,1,90,4|0,1:0|2:0,1:0:0:0:
24,104,11286,6,0,P|80:128|216:104,1,180,4|0,1:0|0:0,0:0:0:0:
488,280,11792,2,0,P|432:256|296:280,1,180,2|2,1:2|0:2,0:0:0:0:
264,344,12297,1,0,1:0:0:0:
416,232,12466,6,0,P|440:176|440:120,1,90,2|0,0:0|1:0,0:0:0:0:
200,120,12803,2,0,P|176:176|176:232,1,90,2|0,0:0|1:0,0:0:0:0:
160,296,13140,2,0,P|112:336|24:264,1,180,2|2,1:2|1:2,0:0:0:0:
320,184,13646,2,0,P|344:240|344:296,1,90,2|2,1:0|0:0,0:0:0:0:
104,216,13983,6,0,P|80:160|104:24,1,180,4|0,1:0|0:0,0:0:0:0:
336,8,14489,2,0,P|360:64|336:200,1,180,2|2,1:2|0:2,0:0:0:0:
240,296,14994,1,0,1:0:0:0:
160,128,15163,6,0,P|216:104|272:104,1,90,2|0,0:0|1:0,0:0:0:0:
424,304,15500,2,0,P|368:328|312:328,1,90,2|0,0:0|1:0,0:0:0:0:
448,224,15837,6,0,P|464:152|440:32,1,180
272,200,16343,2,0,P|248:256|248:312,1,90,2|2,1:0|0:0,0:0:0:0:
24,200,16679,6,0,P|80:208|128:224,1,90,0|2,1:0|0:0,0:0:0:0:
304,96,17016,2,0,P|248:104|200:120,1,90,0|2,1:0|0:0,0:0:0:0:
80,56,17353,1,0,1:0:0:0:
80,56,17438,1,0,0:0:0:0:
80,56,17522,1,2,0:0:0:0:
192,208,17691,2,0,P|216:256|240:296,1,90,0|2,1:0|0:0,0:0:0:0:
504,264,18028,6,0,P|448:272|400:288,1,90,0|2,1:0|0:0,0:0:0:0:
288,184,18365,2,0,P|344:176|392:160,1,90,0|2,1:0|0:0,0:0:0:0:
380,157,18617,1,0,0:0:0:0:
382,147,18702,1,0,1:0:0:0:
208,48,18870,1,2,0:0:0:0:
112,192,19039,2,0,L|88:240|72:272,1,90,0|2,1:0|0:0,0:0:0:0:
32,144,19376,5,0,1:0:0:0:
112,104,19544,1,0,1:0:0:0:
192,144,19713,1,0,1:0:0:0:
224,232,19882,1,0,1:0:0:0:
304,192,20050,5,0,1:0:0:0:
336,280,20219,1,0,1:0:0:0:
416,320,20388,1,0,1:0:0:0:
496,280,20556,5,0,1:0:0:0:
503,258,20640,1,0,1:0:0:0:
499,235,20724,2,0,L|493:186,2,45,0|0|0,1:0|1:0|1:0,1:0:0:0:
323,106,21061,1,0,1:0:0:0:
412,71,21230,2,0,L|418:22,2,45,0|0|0,1:0|1:0|1:0,1:0:0:0:
349,248,21567,1,0,1:0:0:0:
219,117,21735,2,0,P|157:94|117:86,1,90,4|0,1:0|2:0,1:0:0:0:
43,81,22073,1,4,1:2:0:0:
