osu file format v14

[General]
AudioFilename: Lullaby for a princess.mp3
AudioLeadIn: 0
PreviewTime: -1
Countdown: 1
SampleSet: Soft
StackLeniency: 0.7
Mode: 3
LetterboxInBreaks: 1
SpecialStyle: 0
WidescreenStoryboard: 0

[Editor]
Bookmarks: 205545,266153
DistanceSpacing: 1
BeatDivisor: 4
GridSize: 8
TimelineZoom: 1.4

[Metadata]
Title:Lullaby for a Princess
TitleUnicode:Lullaby for a Princess
Artist:ponyphonic
ArtistUnicode:ponyphonic
Creator:Madlollipop
Version:Mania
Source:
Tags:
BeatmapID:248977
BeatmapSetID:92046

[Difficulty]
HPDrainRate:6
CircleSize:7
OverallDifficulty:4
ApproachRate:5
SliderMultiplier:1.00000000596046
SliderTickRate:1

[Events]
//Background and Video events
//Break Periods
//Storyboard Layer 0 (Background)
//Storyboard Layer 1 (Fail)
//Storyboard Layer 2 (Pass)
//Storyboard Layer 3 (Foreground)
//Storyboard Sound Samples

[TimingPoints]
156,573.576697560054,4,2,0,30,1,0
2021,514.454545454546,4,2,0,30,1,0
4078,467,4,2,0,30,1,0
4546,455.6,4,2,0,30,1,0
5004,439.9,4,2,0,30,1,0
5444,532,4,2,0,30,1,0
5973,511.644444444444,4,2,0,30,1,0
8023,460.354545454545,4,2,0,30,1,0
8943,455.254545454545,4,2,0,30,1,0
9396,477.538461538462,4,2,0,30,1,0
9875,514.138461538461,4,2,0,30,1,0
10903,514.8,4,2,0,30,1,0
11935,435.571428571429,4,2,0,30,1,0
12370,446.571428571429,4,2,0,30,1,0
12816,448.571428571429,4,2,0,30,1,0
13711,459.571428571429,4,2,0,30,1,0
14171,485.571428571429,4,2,0,30,1,0
15140,501,4,2,0,30,1,0
15640,501,3,2,0,30,1,0
16140,531,3,2,0,30,1,0
16671,501,3,2,0,30,1,0
17172,499.538461538462,3,2,0,30,1,0
18671,481.538461538462,3,2,0,30,1,0
19154,466.538461538462,3,2,0,30,1,0
19619,536.454545454546,3,2,0,30,1,0
20153,487,3,2,0,30,1,0
21614,467,3,2,0,30,1,0
23014,456.538461538462,3,2,0,30,1,0
24386,451.538461538462,3,2,0,30,1,0
27095,465.648461538462,3,2,0,30,1,0
29886,419.538461538462,3,2,0,30,1,0
30729,507.538461538462,3,2,0,30,1,0
31235,459.571428571429,3,2,0,30,1,0
32154,448.739130434783,3,2,0,30,1,0
33046,450.444444444444,3,2,0,30,1,0
33496,451.444444444444,3,2,0,30,1,0
33947,454.538461538462,3,2,0,30,1,0
34856,464.538461538462,3,2,0,30,1,0
36716,421.538461538462,3,2,0,30,1,0
37567,421,3,2,0,30,1,0
38409,513,3,2,0,30,1,0
39439,439,3,2,0,30,1,0
40756,426.571428571429,3,2,0,30,1,0
41190,435.638461538462,3,2,0,30,1,0
42064,440.638461538462,3,2,0,30,1,0
43385,474.448461538462,3,2,0,30,1,0
44333,416.448461538462,3,2,0,30,1,0
44748,445.148461538462,3,2,0,30,1,0
51435,475.148461538462,3,2,0,30,1,0
52381,458.448461538462,3,2,0,30,1,0
53756,537.454545454546,3,2,0,30,1,0
54293,448.739130434783,3,2,0,30,1,0
55193,451.538461538462,3,2,0,30,1,0
56096,440.571428571429,3,2,0,30,1,0
56536,428.520512820513,3,2,0,30,1,0
56964,427.4,3,2,0,30,1,0
57381,448,3,2,0,30,1,0
57829,402,3,2,0,30,1,0
58231,418.571428571429,3,2,0,30,1,0
59489,426.571428571429,3,2,0,30,1,0
60768,447.571428571429,3,2,0,30,1,0
62122,401.571428571429,3,2,0,30,1,0
63327,397.782608695652,3,2,0,30,1,0
63724,405.956204379562,3,2,0,30,1,0
64138,391.444444444444,3,2,0,30,1,0
64520,412.444444444444,3,2,0,30,1,0
64932,428.444444444444,3,2,0,30,1,0
65357,411.956204379562,3,2,0,30,1,0
65764,394.756204379561,3,2,0,30,1,0
66949,416.756204379561,3,2,0,30,1,0
68199,405.32829959514,3,2,0,30,1,0
94942,403.256204379562,3,2,0,30,1,0
99770,413.256204379562,3,2,0,30,1,0
102248,402.256204379562,3,2,0,30,1,0
112706,508.256204379562,3,2,0,30,1,0
113219,388.256204379562,3,2,0,30,1,0
114383,418.256204379562,3,2,0,30,1,0
115639,403.256204379562,3,2,0,30,1,0
118054,415.356204379562,3,2,0,30,1,0
121786,430.256204379562,3,2,0,30,1,0
122655,366.256204379562,3,2,0,30,1,0
123022,402.256204379562,3,2,0,30,1,0
123831,450.256204379562,3,2,0,30,1,0
124281,402,3,2,0,30,1,0
125486,418,3,2,0,30,1,0
126321,420.454468969435,3,2,0,30,1,0
126954,428.511428571429,3,2,0,30,1,0
127164,425.256204379562,3,2,0,30,1,0
127592,392.571428571429,3,2,0,30,1,0
127986,441.256204379562,3,2,0,30,1,0
128422,389.556204379562,3,2,0,30,1,0
129202,410.793103448276,3,2,0,30,1,0
130442,403.793103448276,3,2,0,30,1,0
132463,407.126204379562,4,2,0,30,1,0
133684,434.126204379562,4,2,0,30,1,0
134119,413.008461538462,3,2,0,30,1,0
134532,401.126204379562,3,2,0,30,1,0
134936,416.538461538462,3,2,0,30,1,0
135353,366.571428571429,3,2,0,30,1,0
135721,406.3,3,2,0,30,1,0
136533,404.571428571429,3,2,0,30,1,0
137748,404.126204379562,3,2,0,30,1,0
142197,408.53,3,2,0,30,1,0
147098,403.44,3,2,0,30,1,0
151941,417,3,2,0,30,1,0
153192,400.5,3,2,0,30,1,0
159199,417.738461538462,3,2,0,30,1,0
161708,403.538461538462,3,2,0,30,1,0
164126,402.138461538462,3,2,0,30,1,0
168951,406.538461538462,3,2,0,30,1,0
171390,408.638461538462,3,2,0,30,1,0
172617,403.738461538462,3,2,0,30,1,0
174232,409.538461538462,3,2,0,30,1,0
176689,419.538461538462,3,2,0,30,1,0
177526,402.471428571429,3,2,0,30,1,0
182354,405,3,2,0,30,1,0
192074,402,3,2,0,30,1,0
195691,417,4,2,0,30,1,0
197358,404,3,2,0,30,1,0
198166,391,3,2,0,30,1,0
200517,490.799999999995,3,2,0,30,1,0
201006,379.799999999995,3,2,0,30,1,0
201384,409.799999999995,3,2,0,30,1,0
203023,421.538461538462,3,2,0,30,1,0
203866,382,3,2,0,30,1,0
204053,406.093103448276,3,2,0,30,1,0
204659,394,3,2,0,30,1,0
205444,431,3,2,0,30,1,0
205878,405,3,2,0,30,1,0
206688,402.099999999998,3,2,0,30,1,0
211513,419.099999999998,3,2,0,30,1,0
212770,398.099999999998,3,2,0,30,1,0
214764,435,3,2,0,30,1,0
215200,399.099999999998,3,2,0,30,1,0
216403,398.099999999998,3,2,0,30,1,0
217597,439.099999999998,3,2,0,30,1,0
218036,420.538461538462,3,2,0,30,1,0
218456,404.538461538462,3,2,0,30,1,0
222501,383,3,2,0,30,1,0
222887,403.099999999998,3,2,0,30,1,0
224088,414.099999999998,3,2,0,30,1,0
225330,407.099999999998,3,2,0,30,1,0
227367,401.099999999998,3,2,0,30,1,0
229368,407.099999999998,3,2,0,30,1,0
232220,405.329999999998,3,2,0,30,1,0
236678,384.329999999998,3,2,0,30,1,0
237062,412.571428571429,3,2,0,30,1,0
238712,369.571428571429,3,2,0,30,1,0
239081,433.571428571429,3,2,0,30,1,0
239511,456.571428571429,3,2,0,30,1,0
239961,387.571428571429,3,2,0,30,1,0
240731,410.329999999998,3,2,0,30,1,0
247294,431.599999999998,3,2,0,30,1,0
249459,603,3,2,0,30,1,0
250063,406.599999999998,3,2,0,30,1,0
250471,382.599999999998,3,2,0,30,1,0
250853,411.599999999998,3,2,0,30,1,0
251676,382.599999999998,3,2,0,30,1,0
252058,457.599999999998,3,2,0,30,1,0
252515,349.599999999998,3,2,0,30,1,0
252864,439.599999999998,3,2,0,30,1,0
253301,396.999999999998,3,2,0,30,1,0
254492,426.999999999998,3,2,0,30,1,0
254917,374.571428571429,3,2,0,30,1,0
255673,708,3,2,0,30,1,0
257089,729.999999999998,3,2,0,30,1,0
260738,676,3,2,0,30,1,0
262090,734.666666666667,3,2,0,30,1,0
262824,685.666666666667,3,2,0,30,1,0
263509,759.666666666667,3,2,0,30,1,0
264268,685.666666666667,3,2,0,30,1,0
267010,706.216666666667,3,2,0,30,1,0
271953,649.216666666667,3,2,0,30,1,0
272602,718.216666666667,3,2,0,30,1,0
273320,693.216666666667,3,2,0,30,1,0
277476,733.216666666667,3,2,0,30,1,0
278941,674.666666666667,3,2,0,30,1,0
280290,676.882352941176,3,2,0,30,1,0
290440,711.882352941176,3,2,0,30,1,0
292575,663.882352941176,3,2,0,30,1,0
296558,697.882352941176,3,2,0,30,1,0
297950,669.882352941176,3,2,0,30,1,0
298619,678.882352941176,3,2,0,30,1,0
299297,681.682352941176,4,2,0,30,1,0
306792,659.082352941176,4,2,0,30,1,0
307454,669.082352941176,4,2,0,30,1,0
308792,682.082352941177,4,2,0,30,1,0
310155,754.1,4,2,0,30,1,0
311663,761,4,2,0,30,1,0
313183,716.882352941176,4,2,0,30,1,0
314616,833.142857142857,4,2,0,30,1,0
315447,753.142857142857,4,2,0,30,1,0
317705,618.666666666667,4,2,0,30,1,0
318323,696,4,2,0,30,1,0
319715,636,4,2,0,30,1,0
320350,696,4,2,0,30,1,0
321742,702.142857142857,4,2,0,30,1,0
323146,773.142857142857,4,2,0,30,1,0
323919,915.9,4,2,0,30,1,0
324838,662.968774170737,4,2,0,30,1,0
327490,618.105797350766,4,2,0,30,1,0
328726,659.992752012095,4,2,0,30,1,0
330052,582,3,2,0,30,1,0
331802,645.666666666667,3,2,0,30,1,0
333736,601,4,2,0,30,1,0
334936,634.666666666667,4,2,0,30,1,0
336205,609.666666666667,4,2,0,30,1,0
337426,613.060606060606,4,2,0,30,1,0
338652,594.494976517448,4,2,0,30,1,0
339841,597.014925373134,4,2,0,30,1,0
342229,588.925515853045,4,2,0,30,1,0
343406,579.541558656445,4,2,0,30,1,0
344557,601.997963340122,4,2,0,30,1,0
345765,550.497461110663,4,2,0,30,1,0
346865,574.999041668264,4,2,0,30,1,0
348015,578.821033319524,4,2,0,30,1,0
349178,533.454545454546,4,2,0,30,1,0
350783,540.454545454546,4,2,0,30,1,0
352414,513,4,2,0,30,1,0
353444,560.839130434783,4,2,0,30,1,0
354567,515.454545454546,4,2,0,30,1,0
356628,566.454545454546,4,2,0,30,1,0
357760,534.454545454546,4,2,0,30,1,0
358833,598.454545454546,4,2,0,30,1,0
361226,711,4,2,0,30,1,0
362648,659.07630455916,4,2,0,30,1,0
363966,601.075925907374,4,2,0,30,1,0
364867,717.999652966834,4,2,0,30,1,0
365226,560.001866672889,4,2,0,30,1,0
365786,770.00077000077,4,2,0,30,1,0
366491,630.078172435548,4,2,0,30,1,0
368176,630.00063000063,4,2,0,30,1,0
368479,603.999394000606,4,2,0,30,1,0
372104,702.000702000702,4,2,0,30,1,0
372806,607.999614800231,4,2,0,30,1,0
373413,597.999691033493,4,2,0,30,1,0
374007,577.378317519583,4,2,0,30,1,0
374584,577.378317519583,4,2,0,30,1,0
379203,603.378317519583,4,2,0,30,1,0
381013,759,4,2,0,30,1,0
381769,650,4,2,0,30,1,0
382424,691.666666666667,4,2,0,30,1,0
383114,641.142857142857,4,2,0,30,1,0
383756,651.142857142857,4,2,0,30,1,0
384407,684.142857142857,4,2,0,30,1,0
385775,738.740740740741,4,2,0,30,1,0
387991,665.740740740741,4,2,0,30,1,0
390653,738,4,2,0,30,1,0
391391,795.473684210526,4,2,0,30,1,0
392186,873.565217391304,4,2,0,30,1,0
393055,916.565217391304,4,2,0,30,1,0
393970,916.565217391304,4,2,0,30,1,0

[HitObjects]
109,192,156,128,0,1788:0:0:0:0:
256,192,156,128,0,1788:0:0:0:0:
402,192,156,128,0,1788:0:0:0:0:
475,192,2021,128,0,2792:0:0:0:0:
329,192,2022,128,0,2792:0:0:0:0:
109,192,2022,128,0,2792:0:0:0:0:
182,192,4078,128,0,4773:0:0:0:0:
329,192,4546,1,0,0:0:0:0:
402,192,5004,128,0,5843:0:0:0:0:
36,192,5004,128,0,5843:0:0:0:0:
182,192,5004,128,0,5843:0:0:0:0:
256,192,5443,1,0,0:0:0:0:
256,192,5973,128,0,7507:0:0:0:0:
109,192,5973,128,0,7507:0:0:0:0:
402,192,5973,128,0,7507:0:0:0:0:
36,192,8023,128,0,8828:0:0:0:0:
182,192,8023,128,0,8828:0:0:0:0:
402,192,8483,1,0,0:0:0:0:
256,192,8943,128,0,9754:0:0:0:0:
402,192,8943,128,0,9754:0:0:0:0:
475,192,9396,1,0,0:0:0:0:
329,192,9875,128,0,10389:0:0:0:0:
109,192,9875,128,0,10389:0:0:0:0:
36,192,10903,128,0,11417:0:0:0:0:
256,192,10903,128,0,11417:0:0:0:0:
36,192,11935,128,0,12261:0:0:0:0:
329,192,12370,1,0,0:0:0:0:
402,192,12816,1,0,0:0:0:0:
475,192,13264,1,0,0:0:0:0:
109,192,13711,1,0,0:0:0:0:
256,192,13711,1,0,0:0:0:0:
329,192,14183,1,0,0:0:0:0:
402,192,14656,1,0,0:0:0:0:
475,192,15140,1,0,0:0:0:0:
256,192,15641,1,0,0:0:0:0:
402,192,15641,1,0,0:0:0:0:
109,192,16140,1,0,0:0:0:0:
182,192,16405,1,0,0:0:0:0:
256,192,16671,1,0,0:0:0:0:
329,192,16921,1,0,0:0:0:0:
256,192,17172,128,0,17671:0:0:0:0:
402,192,17172,128,0,17671:0:0:0:0:
475,192,17172,128,0,17671:0:0:0:0:
475,192,18671,1,0,0:0:0:0:
256,192,18671,1,0,0:0:0:0:
109,192,18671,1,0,0:0:0:0:
182,192,19154,1,0,0:0:0:0:
329,192,19619,1,0,0:0:0:0:
475,192,20153,1,0,0:0:0:0:
329,192,20153,1,0,0:0:0:0:
109,192,20153,1,0,0:0:0:0:
256,192,21614,1,0,0:0:0:0:
402,192,21614,1,0,0:0:0:0:
182,192,21614,1,0,0:0:0:0:
475,192,23014,1,0,0:0:0:0:
329,192,23014,1,0,0:0:0:0:
256,192,23014,1,0,0:0:0:0:
402,192,24386,1,0,0:0:0:0:
182,192,24386,1,0,0:0:0:0:
329,192,24386,1,0,0:0:0:0:
256,192,24837,1,0,0:0:0:0:
329,192,25289,1,0,0:0:0:0:
475,192,25740,1,0,0:0:0:0:
256,192,25740,1,0,0:0:0:0:
109,192,27098,1,0,0:0:0:0:
329,192,27098,1,0,0:0:0:0:
475,192,27098,1,0,0:0:0:0:
256,192,28498,1,0,0:0:0:0:
402,192,28498,1,0,0:0:0:0:
475,192,28498,1,0,0:0:0:0:
36,192,28964,1,0,0:0:0:0:
329,192,29431,1,0,0:0:0:0:
256,192,29897,128,0,30542:0:0:0:0:
475,192,29897,128,0,30542:0:0:0:0:
109,192,30305,1,0,0:0:0:0:
182,192,30725,128,0,31112:0:0:0:0:
402,192,30725,128,0,31112:0:0:0:0:
109,192,31239,128,0,31578:0:0:0:0:
256,192,31239,128,0,31578:0:0:0:0:
329,192,31705,1,0,0:0:0:0:
475,192,32113,1,0,0:0:0:0:
329,192,32113,1,0,0:0:0:0:
256,192,32113,1,0,0:0:0:0:
402,192,32580,1,0,0:0:0:0:
256,192,32580,1,0,0:0:0:0:
109,192,32580,1,0,0:0:0:0:
475,192,33046,1,0,0:0:0:0:
182,192,33496,1,0,0:0:0:0:
402,192,33496,1,0,0:0:0:0:
256,192,33947,128,0,34742:0:0:0:0:
475,192,33947,128,0,34742:0:0:0:0:
36,192,34401,1,0,0:0:0:0:
329,192,34854,128,0,35206:0:0:0:0:
109,192,34854,128,0,35206:0:0:0:0:
475,192,35321,1,0,0:0:0:0:
329,192,35554,1,0,0:0:0:0:
182,192,35787,1,0,0:0:0:0:
256,192,36021,1,0,0:0:0:0:
109,192,36254,1,0,0:0:0:0:
329,192,36254,1,0,0:0:0:0:
475,192,36254,1,0,0:0:0:0:
182,192,36481,1,0,0:0:0:0:
329,192,36714,1,0,0:0:0:0:
36,192,36926,1,0,0:0:0:0:
182,192,37137,1,0,0:0:0:0:
329,192,37348,1,0,0:0:0:0:
475,192,37559,1,0,0:0:0:0:
36,192,38003,1,0,0:0:0:0:
109,192,38003,1,0,0:0:0:0:
256,192,38003,1,0,0:0:0:0:
36,192,39461,128,0,39920:0:0:0:0:
182,192,39461,128,0,39920:0:0:0:0:
256,192,39461,128,0,39920:0:0:0:0:
402,192,40317,1,0,0:0:0:0:
475,192,40723,1,0,0:0:0:0:
329,192,40723,1,0,0:0:0:0:
256,192,41182,1,0,0:0:0:0:
329,192,41407,1,0,0:0:0:0:
475,192,41625,1,0,0:0:0:0:
475,192,42064,1,0,0:0:0:0:
329,192,42064,1,0,0:0:0:0:
256,192,42064,1,0,0:0:0:0:
402,192,43385,1,0,0:0:0:0:
329,192,43385,1,0,0:0:0:0:
109,192,43385,1,0,0:0:0:0:
182,192,43859,1,0,0:0:0:0:
329,192,44360,1,0,0:0:0:0:
256,192,44748,1,0,0:0:0:0:
402,192,44748,1,0,0:0:0:0:
36,192,44748,1,0,0:0:0:0:
329,192,45638,1,0,0:0:0:0:
256,192,46083,128,0,47307:0:0:0:0:
402,192,46083,128,0,47307:0:0:0:0:
36,192,46528,1,0,0:0:0:0:
182,192,46973,1,0,0:0:0:0:
109,192,47418,1,0,0:0:0:0:
329,192,47418,1,0,0:0:0:0:
402,192,47418,1,0,0:0:0:0:
329,192,48754,1,0,0:0:0:0:
475,192,48754,1,0,0:0:0:0:
109,192,49644,1,0,0:0:0:0:
402,192,50089,1,0,0:0:0:0:
475,192,50089,1,0,0:0:0:0:
182,192,50534,1,0,0:0:0:0:
329,192,50980,1,0,0:0:0:0:
329,192,51416,1,0,0:0:0:0:
475,192,51416,1,0,0:0:0:0:
475,192,51883,1,0,0:0:0:0:
256,192,52381,128,0,52724:0:0:0:0:
402,192,52381,128,0,52724:0:0:0:0:
256,192,52839,128,0,53527:0:0:0:0:
182,192,52839,128,0,53527:0:0:0:0:
36,192,52839,128,0,53527:0:0:0:0:
402,192,54274,1,0,0:0:0:0:
109,192,54274,1,0,0:0:0:0:
329,192,54274,1,0,0:0:0:0:
329,192,54741,1,0,0:0:0:0:
256,192,54741,1,0,0:0:0:0:
36,192,54741,1,0,0:0:0:0:
256,192,55207,1,0,0:0:0:0:
182,192,55207,1,0,0:0:0:0:
36,192,55207,1,0,0:0:0:0:
109,192,55644,1,0,0:0:0:0:
329,192,55644,1,0,0:0:0:0:
36,192,56096,1,0,0:0:0:0:
182,192,56096,1,0,0:0:0:0:
329,192,56536,1,0,0:0:0:0:
36,192,56536,1,0,0:0:0:0:
109,192,56536,1,0,0:0:0:0:
475,192,56964,1,0,0:0:0:0:
329,192,56964,1,0,0:0:0:0:
182,192,57177,1,0,0:0:0:0:
256,192,57381,1,0,0:0:0:0:
329,192,57605,1,0,0:0:0:0:
256,192,57829,1,0,0:0:0:0:
182,192,58030,1,0,0:0:0:0:
256,192,58231,1,0,0:0:0:0:
402,192,58231,1,0,0:0:0:0:
475,192,58231,1,0,0:0:0:0:
402,192,58440,1,0,0:0:0:0:
329,192,58649,1,0,0:0:0:0:
256,192,58858,1,0,0:0:0:0:
329,192,59068,1,0,0:0:0:0:
402,192,59277,1,0,0:0:0:0:
475,192,59486,1,0,0:0:0:0:
329,192,59489,1,0,0:0:0:0:
402,192,59702,1,0,0:0:0:0:
36,192,59915,1,0,0:0:0:0:
182,192,60128,1,0,0:0:0:0:
329,192,60342,1,0,0:0:0:0:
182,192,60555,1,0,0:0:0:0:
475,192,60768,1,0,0:0:0:0:
256,192,60768,1,0,0:0:0:0:
182,192,62122,1,0,0:0:0:0:
256,192,62523,1,0,0:0:0:0:
329,192,62925,1,0,0:0:0:0:
182,192,63327,1,0,0:0:0:0:
256,192,63724,1,0,0:0:0:0:
329,192,64138,1,0,0:0:0:0:
182,192,64520,1,0,0:0:0:0:
256,192,64932,1,0,0:0:0:0:
329,192,65357,1,0,0:0:0:0:
182,192,65768,1,0,0:0:0:0:
256,192,66158,1,0,0:0:0:0:
329,192,66553,1,0,0:0:0:0:
36,192,66949,1,0,0:0:0:0:
329,192,66949,1,0,0:0:0:0:
109,192,67157,1,0,0:0:0:0:
402,192,67157,1,0,0:0:0:0:
256,192,67365,1,0,0:0:0:0:
475,192,67365,1,0,0:0:0:0:
182,192,67574,1,0,0:0:0:0:
402,192,67574,1,0,0:0:0:0:
256,192,67782,1,0,0:0:0:0:
475,192,67782,1,0,0:0:0:0:
109,192,67990,1,0,0:0:0:0:
402,192,67990,1,0,0:0:0:0:
36,192,68199,1,0,0:0:0:0:
329,192,68199,1,0,0:0:0:0:
109,192,68401,1,0,0:0:0:0:
402,192,68401,1,0,0:0:0:0:
256,192,68604,1,0,0:0:0:0:
475,192,68604,1,0,0:0:0:0:
109,192,68806,1,0,0:0:0:0:
402,192,68806,1,0,0:0:0:0:
36,192,69009,1,0,0:0:0:0:
182,192,69009,1,0,0:0:0:0:
475,192,69009,1,0,0:0:0:0:
109,192,69212,1,0,0:0:0:0:
402,192,69212,1,0,0:0:0:0:
109,192,69414,1,0,0:0:0:0:
182,192,69414,1,0,0:0:0:0:
329,192,69414,1,0,0:0:0:0:
36,192,69617,1,0,0:0:0:0:
402,192,69617,1,0,0:0:0:0:
109,192,69820,1,0,0:0:0:0:
475,192,69820,1,0,0:0:0:0:
109,192,70022,1,0,0:0:0:0:
402,192,70022,1,0,0:0:0:0:
182,192,70225,1,0,0:0:0:0:
475,192,70225,1,0,0:0:0:0:
36,192,70428,1,0,0:0:0:0:
402,192,70428,1,0,0:0:0:0:
36,192,70630,1,0,0:0:0:0:
329,192,70630,1,0,0:0:0:0:
109,192,70833,1,0,0:0:0:0:
402,192,70833,1,0,0:0:0:0:
256,192,71036,1,0,0:0:0:0:
36,192,71036,1,0,0:0:0:0:
475,192,71036,1,0,0:0:0:0:
182,192,71238,1,0,0:0:0:0:
402,192,71238,1,0,0:0:0:0:
475,192,71441,1,0,0:0:0:0:
109,192,71441,1,0,0:0:0:0:
402,192,71644,1,0,0:0:0:0:
36,192,71644,1,0,0:0:0:0:
475,192,71846,1,0,0:0:0:0:
329,192,71846,1,0,0:0:0:0:
109,192,71846,1,0,0:0:0:0:
402,192,72049,1,0,0:0:0:0:
475,192,72252,1,0,0:0:0:0:
182,192,72252,1,0,0:0:0:0:
402,192,72454,1,0,0:0:0:0:
475,192,72657,1,0,0:0:0:0:
109,192,72657,1,0,0:0:0:0:
402,192,72860,1,0,0:0:0:0:
329,192,73062,1,0,0:0:0:0:
36,192,73062,1,0,0:0:0:0:
402,192,73265,1,0,0:0:0:0:
475,192,73468,1,0,0:0:0:0:
109,192,73468,1,0,0:0:0:0:
402,192,73670,1,0,0:0:0:0:
475,192,73873,1,0,0:0:0:0:
182,192,73873,1,0,0:0:0:0:
402,192,74076,1,0,0:0:0:0:
256,192,74278,1,0,0:0:0:0:
109,192,74278,1,0,0:0:0:0:
402,192,74481,1,0,0:0:0:0:
475,192,74684,1,0,0:0:0:0:
36,192,74684,1,0,0:0:0:0:
402,192,74886,1,0,0:0:0:0:
475,192,75089,1,0,0:0:0:0:
109,192,75089,1,0,0:0:0:0:
402,192,75292,1,0,0:0:0:0:
329,192,75494,1,0,0:0:0:0:
36,192,75494,1,0,0:0:0:0:
402,192,75697,1,0,0:0:0:0:
475,192,75900,1,0,0:0:0:0:
109,192,75900,1,0,0:0:0:0:
402,192,76102,1,0,0:0:0:0:
475,192,76305,1,0,0:0:0:0:
36,192,76305,1,0,0:0:0:0:
402,192,76508,1,0,0:0:0:0:
256,192,76710,1,0,0:0:0:0:
109,192,76710,1,0,0:0:0:0:
402,192,76913,1,0,0:0:0:0:
402,192,77116,1,0,0:0:0:0:
182,192,77116,1,0,0:0:0:0:
329,192,77318,1,0,0:0:0:0:
402,192,77521,1,0,0:0:0:0:
109,192,77521,1,0,0:0:0:0:
329,192,77724,1,0,0:0:0:0:
256,192,77926,1,0,0:0:0:0:
36,192,77926,1,0,0:0:0:0:
329,192,78129,1,0,0:0:0:0:
402,192,78332,1,0,0:0:0:0:
182,192,78332,1,0,0:0:0:0:
329,192,78534,1,0,0:0:0:0:
402,192,78737,1,0,0:0:0:0:
256,192,78737,1,0,0:0:0:0:
109,192,78737,1,0,0:0:0:0:
329,192,78940,1,0,0:0:0:0:
182,192,79142,1,0,0:0:0:0:
36,192,79142,1,0,0:0:0:0:
329,192,79345,1,0,0:0:0:0:
402,192,79548,1,0,0:0:0:0:
256,192,79548,1,0,0:0:0:0:
36,192,79548,1,0,0:0:0:0:
182,192,79750,1,0,0:0:0:0:
402,192,79953,1,0,0:0:0:0:
256,192,79953,1,0,0:0:0:0:
109,192,79953,1,0,0:0:0:0:
329,192,80156,1,0,0:0:0:0:
256,192,80358,1,0,0:0:0:0:
36,192,80358,1,0,0:0:0:0:
329,192,80561,1,0,0:0:0:0:
402,192,80764,1,0,0:0:0:0:
109,192,80764,1,0,0:0:0:0:
329,192,80966,1,0,0:0:0:0:
402,192,81169,1,0,0:0:0:0:
109,192,81169,1,0,0:0:0:0:
329,192,81372,1,0,0:0:0:0:
475,192,81574,1,0,0:0:0:0:
402,192,81574,1,0,0:0:0:0:
36,192,81777,1,0,0:0:0:0:
475,192,81980,1,0,0:0:0:0:
329,192,81980,1,0,0:0:0:0:
109,192,82182,1,0,0:0:0:0:
402,192,82385,1,0,0:0:0:0:
256,192,82385,1,0,0:0:0:0:
182,192,82588,1,0,0:0:0:0:
329,192,82790,1,0,0:0:0:0:
109,192,82790,1,0,0:0:0:0:
256,192,82993,1,0,0:0:0:0:
329,192,83196,1,0,0:0:0:0:
182,192,83196,1,0,0:0:0:0:
256,192,83398,1,0,0:0:0:0:
256,192,83601,1,0,0:0:0:0:
402,192,83601,1,0,0:0:0:0:
182,192,83804,1,0,0:0:0:0:
109,192,84006,1,0,0:0:0:0:
329,192,84006,1,0,0:0:0:0:
256,192,84209,1,0,0:0:0:0:
402,192,84412,1,0,0:0:0:0:
256,192,84412,1,0,0:0:0:0:
182,192,84614,1,0,0:0:0:0:
329,192,84817,1,0,0:0:0:0:
402,192,84817,1,0,0:0:0:0:
256,192,85222,1,0,0:0:0:0:
475,192,85222,1,0,0:0:0:0:
109,192,85425,1,0,0:0:0:0:
256,192,85628,1,0,0:0:0:0:
329,192,85830,1,0,0:0:0:0:
475,192,86033,1,0,0:0:0:0:
182,192,86236,1,0,0:0:0:0:
475,192,86438,1,0,0:0:0:0:
402,192,86438,1,0,0:0:0:0:
329,192,86438,1,0,0:0:0:0:
402,192,86844,1,0,0:0:0:0:
256,192,86844,1,0,0:0:0:0:
182,192,87249,1,0,0:0:0:0:
329,192,87249,1,0,0:0:0:0:
256,192,87654,1,0,0:0:0:0:
109,192,87654,1,0,0:0:0:0:
256,192,87857,1,0,0:0:0:0:
182,192,88060,1,0,0:0:0:0:
36,192,88060,1,0,0:0:0:0:
109,192,88465,1,0,0:0:0:0:
36,192,88870,1,0,0:0:0:0:
109,192,88870,1,0,0:0:0:0:
182,192,89276,1,0,0:0:0:0:
109,192,89478,1,0,0:0:0:0:
36,192,89681,1,0,0:0:0:0:
329,192,90086,1,0,0:0:0:0:
256,192,90289,1,0,0:0:0:0:
329,192,90492,1,0,0:0:0:0:
256,192,90694,1,0,0:0:0:0:
329,192,90897,1,0,0:0:0:0:
402,192,91100,1,0,0:0:0:0:
475,192,91302,1,0,0:0:0:0:
402,192,91505,1,0,0:0:0:0:
329,192,91708,1,0,0:0:0:0:
402,192,91910,1,0,0:0:0:0:
329,192,92113,1,0,0:0:0:0:
256,192,92316,1,0,0:0:0:0:
36,192,92518,1,0,0:0:0:0:
256,192,92518,1,0,0:0:0:0:
402,192,92518,1,0,0:0:0:0:
109,192,92721,1,0,0:0:0:0:
256,192,92924,1,0,0:0:0:0:
402,192,93126,1,0,0:0:0:0:
475,192,93329,1,0,0:0:0:0:
402,192,93532,1,0,0:0:0:0:
475,192,93734,1,0,0:0:0:0:
329,192,93734,1,0,0:0:0:0:
402,192,93937,1,0,0:0:0:0:
329,192,94140,1,0,0:0:0:0:
256,192,94342,1,0,0:0:0:0:
329,192,94545,1,0,0:0:0:0:
475,192,94942,1,0,0:0:0:0:
402,192,94942,1,0,0:0:0:0:
329,192,94942,1,0,0:0:0:0:
182,192,95345,1,0,0:0:0:0:
329,192,95345,1,0,0:0:0:0:
402,192,95345,1,0,0:0:0:0:
109,192,96151,128,0,96756:0:0:0:0:
182,192,96151,128,0,96756:0:0:0:0:
329,192,96151,128,0,96756:0:0:0:0:
256,192,97361,128,0,98369:0:0:0:0:
402,192,97361,128,0,98369:0:0:0:0:
475,192,97361,128,0,98369:0:0:0:0:
256,192,98571,128,0,99579:0:0:0:0:
329,192,98571,128,0,99579:0:0:0:0:
475,192,98571,128,0,99579:0:0:0:0:
109,192,99761,128,0,100388:0:0:0:0:
329,192,99761,128,0,100388:0:0:0:0:
182,192,99761,128,0,100388:0:0:0:0:
402,192,100986,128,0,102032:0:0:0:0:
182,192,100986,128,0,102032:0:0:0:0:
256,192,100986,128,0,102032:0:0:0:0:
109,192,101394,1,0,0:0:0:0:
329,192,101861,1,0,0:0:0:0:
329,192,102248,1,0,0:0:0:0:
475,192,102248,1,0,0:0:0:0:
256,192,102248,1,0,0:0:0:0:
256,192,102650,1,0,0:0:0:0:
329,192,102851,1,0,0:0:0:0:
402,192,103052,1,0,0:0:0:0:
475,192,103253,1,0,0:0:0:0:
36,192,103454,1,0,0:0:0:0:
109,192,103454,1,0,0:0:0:0:
329,192,103454,1,0,0:0:0:0:
256,192,103857,1,0,0:0:0:0:
109,192,104661,1,0,0:0:0:0:
182,192,104711,1,0,0:0:0:0:
256,192,104762,1,0,0:0:0:0:
256,192,105063,1,0,0:0:0:0:
402,192,105063,1,0,0:0:0:0:
256,192,105466,1,0,0:0:0:0:
402,192,105466,1,0,0:0:0:0:
109,192,105868,1,0,0:0:0:0:
256,192,105868,1,0,0:0:0:0:
36,192,105868,1,0,0:0:0:0:
182,192,106270,1,0,0:0:0:0:
36,192,106270,1,0,0:0:0:0:
256,192,106672,1,0,0:0:0:0:
109,192,106672,1,0,0:0:0:0:
109,192,107075,1,0,0:0:0:0:
182,192,107075,1,0,0:0:0:0:
329,192,107075,1,0,0:0:0:0:
109,192,107477,1,0,0:0:0:0:
256,192,107477,1,0,0:0:0:0:
182,192,107879,1,0,0:0:0:0:
256,192,107879,1,0,0:0:0:0:
182,192,108281,1,0,0:0:0:0:
329,192,108281,1,0,0:0:0:0:
402,192,108281,1,0,0:0:0:0:
182,192,108684,1,0,0:0:0:0:
256,192,108684,1,0,0:0:0:0:
182,192,109086,1,0,0:0:0:0:
256,192,109086,1,0,0:0:0:0:
475,192,109488,1,0,0:0:0:0:
402,192,109488,1,0,0:0:0:0:
256,192,109488,1,0,0:0:0:0:
182,192,109890,1,0,0:0:0:0:
256,192,109890,1,0,0:0:0:0:
182,192,110293,1,0,0:0:0:0:
329,192,110293,1,0,0:0:0:0:
475,192,110695,1,0,0:0:0:0:
256,192,110695,1,0,0:0:0:0:
329,192,110695,1,0,0:0:0:0:
402,192,111097,1,0,0:0:0:0:
329,192,111499,1,0,0:0:0:0:
109,192,111902,128,0,112706:0:0:0:0:
182,192,113219,1,0,0:0:0:0:
475,192,113219,1,0,0:0:0:0:
329,192,113219,1,0,0:0:0:0:
36,192,113607,1,0,0:0:0:0:
109,192,113801,1,0,0:0:0:0:
182,192,113995,1,0,0:0:0:0:
256,192,114189,1,0,0:0:0:0:
402,192,114399,1,0,0:0:0:0:
329,192,114574,1,0,0:0:0:0:
256,192,114807,1,0,0:0:0:0:
329,192,115041,1,0,0:0:0:0:
36,192,115216,1,0,0:0:0:0:
182,192,115449,1,0,0:0:0:0:
109,192,115646,1,0,0:0:0:0:
182,192,115840,1,0,0:0:0:0:
256,192,116042,1,0,0:0:0:0:
329,192,116243,1,0,0:0:0:0:
402,192,116445,1,0,0:0:0:0:
329,192,116647,1,0,0:0:0:0:
475,192,116848,1,0,0:0:0:0:
402,192,117050,1,0,0:0:0:0:
329,192,117252,1,0,0:0:0:0:
256,192,117453,1,0,0:0:0:0:
182,192,117655,1,0,0:0:0:0:
256,192,117856,1,0,0:0:0:0:
329,192,118054,128,0,118469:0:0:0:0:
475,192,118054,128,0,118469:0:0:0:0:
182,192,118469,1,0,0:0:0:0:
256,192,118884,1,0,0:0:0:0:
402,192,118884,1,0,0:0:0:0:
475,192,119300,1,0,0:0:0:0:
329,192,119300,1,0,0:0:0:0:
402,192,119715,1,0,0:0:0:0:
329,192,120130,1,0,0:0:0:0:
475,192,120546,1,0,0:0:0:0:
475,192,120961,1,0,0:0:0:0:
402,192,121376,1,0,0:0:0:0:
475,192,121786,1,0,0:0:0:0:
329,192,121786,1,0,0:0:0:0:
329,192,123022,1,0,0:0:0:0:
475,192,123022,1,0,0:0:0:0:
109,192,123223,1,0,0:0:0:0:
182,192,123424,1,0,0:0:0:0:
256,192,123625,1,0,0:0:0:0:
329,192,123831,1,0,0:0:0:0:
256,192,124056,1,0,0:0:0:0:
475,192,124255,1,0,0:0:0:0:
182,192,125479,1,0,0:0:0:0:
109,192,125713,1,0,0:0:0:0:
182,192,125888,1,0,0:0:0:0:
256,192,126121,1,0,0:0:0:0:
329,192,126296,1,0,0:0:0:0:
402,192,126529,1,0,0:0:0:0:
475,192,126762,1,0,0:0:0:0:
402,192,126937,1,0,0:0:0:0:
329,192,127171,1,0,0:0:0:0:
109,192,127579,1,0,0:0:0:0:
182,192,127986,1,0,0:0:0:0:
402,192,127986,1,0,0:0:0:0:
475,192,127986,1,0,0:0:0:0:
329,192,128206,1,0,0:0:0:0:
256,192,128395,1,0,0:0:0:0:
182,192,128629,1,0,0:0:0:0:
36,192,128803,1,0,0:0:0:0:
329,192,129212,1,0,0:0:0:0:
256,192,129387,1,0,0:0:0:0:
182,192,129620,1,0,0:0:0:0:
36,192,129853,1,0,0:0:0:0:
182,192,130028,1,0,0:0:0:0:
256,192,130261,1,0,0:0:0:0:
402,192,130436,1,0,0:0:0:0:
109,192,130436,1,0,0:0:0:0:
182,192,130436,1,0,0:0:0:0:
329,192,130670,1,0,0:0:0:0:
256,192,130845,1,0,0:0:0:0:
182,192,131078,1,0,0:0:0:0:
36,192,131253,1,0,0:0:0:0:
109,192,131428,1,0,0:0:0:0:
256,192,131661,1,0,0:0:0:0:
402,192,131661,1,0,0:0:0:0:
329,192,131836,1,0,0:0:0:0:
256,192,132069,1,0,0:0:0:0:
182,192,132244,1,0,0:0:0:0:
109,192,132463,1,0,0:0:0:0:
182,192,132666,1,0,0:0:0:0:
475,192,132870,1,0,0:0:0:0:
329,192,132870,1,0,0:0:0:0:
